osu file format v9

[General]
AudioFilename: SHKO2SE - Identity pt 2.mp3
AudioLeadIn: 0
PreviewTime: 30340
Countdown: 0
SampleSet: Normal
StackLeniency: 0.7
Mode: 0
LetterboxInBreaks: 0

[Editor]
Bookmarks: 44926,147340,156540,156548
DistanceSpacing: 1
BeatDivisor: 4
GridSize: 8

[Metadata]
Title:Identity Part II
Artist:SHK
Creator:Chacha17
Version:Hard
Source:O2Jam
Tags:NoHItter wanhyrzh id2

[Difficulty]
HPDrainRate:5
CircleSize:4
OverallDifficulty:5
ApproachRate:7
SliderMultiplier:1.5
SliderTickRate:1

[Events]
//Background and Video events
0,0,"ID2.png"
//Break Periods
2,75532,77632
2,121941,125642
//Storyboard Layer 0 (Background)
//Storyboard Layer 1 (Fail)
//Storyboard Layer 2 (Pass)
//Storyboard Layer 3 (Foreground)
//Storyboard Sound Samples
//Background Colour Transformations
3,100,0,0,0

[TimingPoints]
14520,400.080016003201,4,1,0,100,1,0
20020,-100,4,2,0,100,0,0
20720,-100,4,1,0,100,0,0
26820,-100,4,2,0,100,0,0
27020,-100,4,1,0,100,0,0
30520,-100,4,1,0,100,0,1
43320,-100,4,1,0,100,0,0
49720,-200,4,1,0,80,0,0
52620,-100,4,1,0,100,0,0
78332,-100,4,1,0,40,0,0
78732,-100,4,1,0,65,0,0
79132,-100,4,1,0,85,0,0
79533,-100,4,1,0,100,0,0
81620,-100,4,1,1,100,0,0
121541,-100,4,1,1,30,0,0
126542,-100,4,1,1,100,0,0
133620,-100,4,2,0,100,0,0
134320,-100,4,1,0,100,0,0
147344,413.793103448276,4,1,0,100,1,0
148999,428.571428571429,4,1,0,100,1,0
150718,487.8,4,1,0,100,1,0
152689,566.038571428571,4,1,0,100,1,0
154948,400.080016003201,4,1,0,100,1,0
158140,-100,4,1,0,100,0,1
170940,-100,4,1,0,100,0,0

[Colours]
Combo1 : 249,199,0
Combo2 : 253,22,11
Combo3 : 0,137,166
Combo4 : 124,36,244

[HitObjects]
48,104,14519,2,0,B|56:64|104:24|168:40,2,150,0|8|0
176,192,15720,1,8
240,232,15920,1,0
304,272,16120,1,0
304,272,16520,2,0,B|328:240|416:240|448:272,1,150,8|0
496,128,17320,5,8
440,176,17520,1,0
384,128,17720,2,0,B|360:168|264:168|248:120,1,150,0|8
120,56,18520,1,0
104,64,18620,1,0
88,72,18720,1,0
72,80,18820,1,0
56,88,18920,1,8
56,240,19320,6,0,B|88:272|160:272|200:232,1,150,0|8
296,344,20121,1,2
376,216,20521,1,2
456,344,20921,6,2,B|456:192,3,150
328,112,22521,6,2,B|176:112,3,150
64,208,24121,5,2
72,224,24221,1,0
80,240,24321,1,0
112,304,24522,2,0,B|192:272,2,75,0|0|2
224,200,25322,2,0,B|224:136|272:80|320:80,1,150,0|2
376,72,25922,1,0
432,128,26122,2,0,B|432:192|392:248|344:256,1,150,0|2
256,144,26922,1,6
256,192,27322,12,4,30123
32,136,30523,5,2
88,88,30723,1,0
144,40,30923,1,2
200,88,31123,1,0
256,136,31323,2,0,B|256:288,1,150,2|0
400,336,32123,6,0,B|448:312|512:336,2,112.5,2|2|6
256,288,33123,1,2
256,216,33323,1,0
256,144,33523,1,0
256,72,33723,6,0,B|296:48|360:48|408:80,2,150,2|2|6
312,128,34724,1,2
384,144,34924,1,0
440,192,35124,1,2
504,232,35324,6,0,B|424:328,1,112.5,0|2
336,264,35924,2,0,B|256:360,2,112.5,2|0|2
288,208,36724,1,2
232,160,36924,5,0
176,208,37124,1,0
120,160,37324,1,2
64,208,37524,1,0
64,208,37624,1,6
64,320,37924,2,0,B|96:360|168:360|224:296,1,150,2|2
256,272,38524,6,0,B|336:192,2,112.5,2|2|2
128,192,39525,2,0,B|160:160|240:160|280:200,1,150,2|0
336,216,40125,5,2
408,216,40325,1,0
456,160,40525,2,0,B|472:120|464:72|400:56,1,112.5,0|2
312,56,41125,1,2
248,96,41325,1,0
184,56,41525,1,0
120,96,41725,6,0,B|-24:96,2,112.5,2|0|0
168,152,42525,2,0,B|296:152,2,112.5,2|0|0
168,152,43325,1,4
256,192,43525,12,4,44726
56,80,45026,6,0,C|8:112,3,37.5
88,144,45526,2,0,B|104:176,1,37.5
136,240,45826,2,0,C|184:208,3,37.5
264,336,46526,5,4
328,296,46726,1,0
264,256,46926,1,0
328,216,47126,1,0
336,208,47226,1,0
344,200,47326,1,0
352,192,47426,1,0
360,184,47526,2,0,B|464:184,2,75
288,96,48226,6,0,C|248:48,3,37.5
200,104,48726,2,0,B|144:136,1,37.5
104,160,49026,2,0,B|48:192,3,37.5
192,272,49727,6,2,C|272:272,1,75
320,224,50327,2,0,B|352:192|392:224,1,75,2|0
456,256,50927,1,2
456,216,51127,2,0,C|456:168,1,37.5,0|2
384,160,51727,2,0,B|344:120|312:168,2,75,2|2|0
456,160,52727,5,4
408,216,52927,2,0,C|408:312,2,75,4|0|0
368,160,53527,2,0,B|344:128|320:128|288:184|256:184|224:128,1,150,0|2
64,296,54528,5,0
112,240,54728,1,2
64,184,54928,1,0
112,128,55128,2,0,B|152:88|216:88|264:144,1,150,0|2
280,192,55728,1,0
288,208,55828,1,0
296,224,55928,1,0
304,240,56028,1,0
312,256,56128,6,0,B|352:296|392:232,1,75,2|0
448,224,56528,1,0
448,152,56728,1,0
504,104,56928,2,0,B|488:64|440:48|392:64|376:112,1,150,2|0
320,144,57528,1,0
256,104,57728,6,0,B|224:64|184:64|144:128,2,112.5,2|0|0
256,176,58528,2,0,B|296:208|336:208|376:160,2,112.5,2|0|0
256,192,59328,12,4,60529
88,104,60929,5,2
48,168,61129,1,0
48,168,61229,2,0,B|176:232,1,112.5,0|0
216,256,61729,1,2
216,256,62129,1,6
448,64,62529,5,4
328,160,62929,1,2
208,64,63329,1,0
264,112,63529,1,2
112,112,63929,1,0
48,144,64129,6,0,B|-8:168|-8:240|56:264,1,150,2|0
112,296,64730,2,0,B|136:344|216:344|256:272,1,150,2|2
336,96,65730,6,0,B|336:280,1,150,2|0
224,144,66530,1,0
168,96,66730,1,2
24,144,67130,1,0
48,216,67330,6,2,B|56:264|80:288|128:304|184:264,1,150
208,224,67930,1,0
256,168,68130,2,0,B|304:176|336:208|352:256|320:304,2,150,2|2|6
144,72,69330,5,0
48,192,69731,1,0
120,192,69931,2,0,B|136:280|232:304,1,150,2|0
280,264,70531,1,2
256,192,70931,12,4,72131
128,144,72531,6,0,B|32:216,2,112.5
200,144,73331,1,0
272,144,73531,1,0
344,144,73731,6,0,B|368:176|424:176|464:128,2,112.5
320,216,74532,1,0
256,352,74932,5,0
256,280,75132,1,0
256,208,75332,1,4
32,216,78532,5,0
64,72,78932,1,8
96,216,79332,1,0
128,72,79733,1,8
248,160,80133,5,0
264,160,80233,1,0
280,160,80333,1,0
296,160,80433,1,0
312,160,80533,1,0
328,160,80633,1,0
344,160,80733,2,0,B|400:160,5,37.5
344,344,81733,6,0,B|408:304|472:368,2,112.5,0|8|0
200,304,82733,1,0
128,304,82933,1,8
72,256,83133,1,0
128,200,83333,6,0,B|56:128,1,75
136,104,83733,2,0,B|216:40,1,75,8|0
256,104,84133,1,8
264,112,84233,1,0
272,120,84333,1,0
320,176,84534,2,0,B|392:120,1,75,8|0
440,88,84934,6,0,B|480:152|432:216,2,112.5,0|8|0
320,208,85934,2,0,B|320:312,1,75,0|8
256,240,86334,2,0,B|256:144,1,75
200,120,86734,1,0
136,72,86934,1,8
72,120,87134,1,0
136,160,87334,2,0,B|136:216,2,37.5,0|8|0
200,120,87734,1,8
216,120,87834,1,0
232,120,87934,1,8
248,120,88034,1,0
264,120,88134,6,0,B|280:88|328:80|376:88|400:144,1,150,0|0
392,200,88734,2,0,B|392:352,2,150,2|0|0
320,224,89735,6,0,B|280:240|224:224|216:192,2,112.5,2|0|2
208,128,90735,2,0,B|232:184|168:216,1,75,0|2
120,184,91135,2,0,B|96:240|160:272,1,75,0|2
192,296,91535,5,0
256,248,91735,1,0
320,296,91935,2,0,B|472:296,1,150,2|0
440,224,92535,1,0
400,160,92735,1,6
360,96,92935,6,0,B|360:56|408:56,13,37.5
360,176,94536,6,0,B|256:168|216:80,1,150,2|0
176,56,95136,2,0,B|72:64|32:152,2,150,2|0|2
240,104,96136,6,0,B|240:232,2,112.5,2|0|2
376,168,97136,1,0
424,224,97336,1,2
376,280,97536,1,0
328,224,97736,6,0,B|232:240|216:168,2,112.5,2|0|2
208,136,98736,2,0,B|48:136,1,150
32,208,99336,6,0,B|16:304|88:320,2,112.5,2|0|2
168,280,100337,1,8
224,232,100537,1,0
280,280,100737,1,8
336,232,100937,6,0,B|336:112,2,112.5,2|0|2
216,144,101937,1,0
64,144,102337,1,0
136,144,102537,6,0,B|136:280,2,112.5,2|0|2
280,88,103537,1,0
376,208,103937,1,0
376,208,104137,6,0,B|376:64,2,112.5,2|0|2
256,296,105138,1,0
136,208,105538,1,0
256,192,105738,12,6,107338
256,192,107638,5,0
256,192,107938,1,2
144,88,108338,1,0
32,192,108738,1,0
32,192,108938,2,0,B|32:304,2,112.5,2|0|2
304,56,109939,5,0
376,88,110139,1,2
312,128,110339,1,0
384,160,110539,2,0,B|456:200|408:288,2,112.5,2|0|2
256,240,111539,5,0
192,280,111739,1,2
128,320,111939,1,0
64,280,112139,2,0,B|-8:240|40:152,2,112.5,2|0|2
256,48,113139,5,0
256,120,113339,1,2
256,192,113539,1,0
304,248,113739,2,0,B|280:288|232:288|200:232,2,112.5,2|0|2
200,120,114740,6,0,B|184:72|88:72|72:128,1,150,2|0
136,168,115340,2,0,B|136:296,2,112.5,2|0|2
256,256,116340,1,0
256,256,116540,1,2
256,256,116740,1,0
392,192,116940,5,2
256,96,117240,1,0
120,192,117540,1,0
88,208,117640,1,0
56,224,117740,2,0,B|56:104,2,112.5,2|0|0
208,224,118540,6,0,B|208:344,2,112.5,2|0|2
488,120,119541,2,0,B|456:160|384:160|336:104,1,150,2|0
256,192,120541,12,4,121741
256,192,126542,12,0,128142
24,192,128542,5,8
176,192,128942,1,0
176,192,129342,1,8
232,240,129543,1,0
288,288,129743,5,0
288,288,130143,1,8
432,320,130543,1,0
456,296,130643,1,0
464,264,130743,1,0
456,224,130843,1,0
440,192,130943,1,8
336,88,131343,6,0,B|336:176,2,75,0|0|8
224,192,132143,2,0,B|224:112,2,75,0|0|8
120,80,132943,5,0
88,96,133043,1,0
56,120,133143,2,0,B|16:168|72:216,1,75,0|8
160,288,133743,1,2
312,288,134143,1,2
456,256,134544,5,2
472,184,134744,1,0
464,152,134844,1,0
448,120,134944,1,2
384,152,135144,1,0
320,184,135344,1,2
256,216,135544,1,0
224,232,135644,1,0
192,248,135744,1,2
40,248,136144,6,0,B|72:288|152:288|200:232,1,150,2|0
240,208,136744,1,0
304,168,136944,2,0,B|336:128|416:128|464:184,1,150,2|0
320,256,137744,5,2
288,280,137844,1,0
256,304,137944,1,0
184,280,138144,1,2
112,264,138344,1,0
80,200,138544,1,2
184,96,138944,1,2
248,128,139144,1,0
280,192,139344,5,2
280,192,139745,1,2
320,128,139945,1,0
384,96,140145,1,2
496,192,140545,1,4
384,288,140945,6,0,B|352:344|264:344,2,112.5,2|0|2
496,192,141945,1,0
440,240,142145,1,2
384,192,142345,1,0
440,144,142545,5,2
440,144,142845,1,0
440,144,143145,1,2
144,192,143545,1,0
80,240,143745,1,2
24,192,143945,1,0
80,144,144145,5,2
80,144,144445,1,0
80,144,144746,1,2
224,112,145146,2,2,B|192:64|224:24,2,75
296,128,145746,5,2
408,112,146046,1,0
456,216,146346,1,2
408,272,146546,1,0
336,256,146746,2,2,B|296:264|296:312|344:320,2,75
208,192,147344,6,0,B|152:240|96:184,2,112.5,2|0|2
256,48,148378,1,0
256,120,148585,1,2
256,192,148792,1,0
328,192,148999,6,0,B|384:240|440:184,2,112.5,2|0|2
376,336,150070,1,0
304,336,150284,1,2
232,336,150499,1,0
160,336,150718,6,0,B|104:280|160:216,2,112.5,0|0|0
280,248,151937,1,0
352,248,152181,1,0
320,184,152425,1,0
280,128,152689,6,0,B|256:96|200:96|176:136,1,112.5,4|0
96,200,153538,2,0,B|95:230|96:296,1,75,4|0
208,296,154245,2,0,B|256:240|312:304,1,112.5,0|4
256,192,154948,12,4,157748
480,248,158148,5,2
424,304,158348,1,0
368,352,158548,1,0
312,304,158748,1,2
280,280,158848,1,0
248,256,158948,2,0,B|248:104,1,150,0|0
248,32,159548,1,0
176,56,159748,6,0,B|120:80|64:56,2,112.5,2|2|6
248,192,160748,1,2
312,232,160948,1,0
248,272,161148,1,0
184,232,161348,6,0,B|144:256|80:256|32:224,2,150,2|2|6
240,176,162349,1,2
264,152,162449,1,0
288,128,162549,1,2
344,72,162749,1,2
344,72,162949,6,0,B|408:96|432:168,1,112.5,2|2
352,232,163549,2,0,B|336:296|256:304,2,112.5,2|0|2
288,192,164349,1,2
288,192,164549,5,0
224,152,164749,1,0
224,152,164949,1,2
160,112,165150,2,6,B|200:64,1,37.5,0|6
296,64,165549,2,0,B|416:160,1,150,2|0
360,208,166149,6,0,B|280:288,2,112.5,2|0|2
232,280,167150,1,0
160,256,167350,1,6
88,232,167550,1,0
120,168,167750,5,2
152,104,167950,1,0
192,40,168150,2,0,B|208:72|248:96|320:72,1,112.5,2|2
216,296,168750,1,0
264,240,168950,1,2
312,296,169150,1,0
368,240,169350,6,0,B|456:144,2,112.5,2|0|2
312,192,170151,1,4
216,128,170451,1,0
120,192,170751,1,0
120,192,170950,1,4
