osu file format v13

[General]
AudioFilename: identity part 5.mp3
AudioLeadIn: 2
PreviewTime: 97423
Countdown: 0
SampleSet: Normal
StackLeniency: 0.7
Mode: 0
LetterboxInBreaks: 1
EpilepsyWarning: 1
WidescreenStoryboard: 1

[Editor]
DistanceSpacing: 1.1
BeatDivisor: 1
GridSize: 32
TimelineZoom: 2.3

[Metadata]
Title:Identity Part 5
TitleUnicode:Identity Part 5
Artist:SHK
ArtistUnicode:SHK
Creator:[Twinkle]
Version:Normal
Source:O2jam U
Tags:dubstep kamisamaaa Jemmmmy Stream Minakami_Yuki Identity Part 4 IP4 IP5 SoundHolicK Trance
BeatmapID:425984
BeatmapSetID:171676

[Difficulty]
HPDrainRate:2
CircleSize:3
OverallDifficulty:2
ApproachRate:3
SliderMultiplier:1
SliderTickRate:1

[Events]
//Background and Video events
0,0,"43203044.jpg",0,0
//Break Periods
2,84345,89562
//Storyboard Layer 0 (Background)
Sprite,Background,Centre,"43203044.jpg",320,240 S,0,0,,0.625 C,0,0,1002,0,0,0,255,255,255 C,0,125287,129573,255,255,255,0,0,0
//Storyboard Layer 1 (Fail)
//Storyboard Layer 2 (Pass)
//Storyboard Layer 3 (Foreground)
Sprite,Foreground,Centre,"43203044.jpg",320,240 F,0,8716,9573,0.5,0 S,0,8716,9573,0.625,0.7 F,0,15573,16430,0.5,0 S,0,15573,16430,0.625,0.7 F,0,29287,30145,0.5,0 S,0,29287,30145,0.625,0.7 F,0,36145,37002,0.5,0 S,0,36145,37002,0.625,0.7 F,0,84145,85002,0.5,0 S,0,84145,85002,0.625,0.7 F,0,97859,98716,0.5,0 S,0,97859,98716,0.625,0.7 F,0,104716,105573,0.5,0 S,0,104716,105573,0.625,0.7 F,0,111573,112430,0.5,0 S,0,111573,112430,0.625,0.7
Sprite,Foreground,Centre,"sb\hui.jpg",320,240 F,0,0,,1 S,0,0,,0.625 C,0,0,1002,0,0,0,255,255,255 F,0,8716,9573,1,0 S,0,8716,9573,0.625,0.7 S,0,42573,,0.625 F,0,42573,43430,0,1 C,0,43430,56287,255,255,255 F,0,70430,70859,1,0 F,0,84145,85002,0,1 F,0,85002,92716,1 F,0,92716,96216,1,0.5 F,0,97430,97859,0.5,0
Sprite,Foreground,Centre,"sb\3.jpg",320,240 F,0,0,,0 S,0,0,,0.625 F,0,56341,56716,0,1 F,0,56716,70430,1 F,0,70430,70859,1,0
Sprite,Foreground,Centre,"sb\mohu.jpg",320,240 F,0,0,,0 S,0,0,,0.625 F,0,68716,68770,0,1 F,0,68770,68823,1,0
Sprite,Foreground,Centre,"sb\hong.jpg",320,240 F,0,0,,0 S,0,0,,0.625 F,0,56287,56341,0,1 F,0,56341,56395,1,0
Sprite,Foreground,Centre,"sb\4.jpg",320,240 F,0,0,,0 S,0,0,,0.625 F,0,119287,120145,0,1 F,0,120145,123573,1 F,0,123573,125180,1,0
//Storyboard Sound Samples
//Background Colour Transformations
3,100,163,162,255

[TimingPoints]
145,428.571428571429,4,1,0,30,1,0
1430,-100,4,2,0,30,0,0
8716,-100,4,1,0,40,0,0
15573,-100,4,1,0,50,0,0
43002,-100,4,1,0,30,0,0
53287,-100,4,1,0,40,0,0
56287,-100,4,1,0,60,0,0
70430,-100,4,1,0,50,0,0
91002,-100,4,1,0,30,0,0
94430,-100,4,1,0,40,0,0
96145,-100,4,1,0,50,0,0
97430,-100,4,1,0,60,0,1
125287,-100,4,1,0,60,0,1
125395,-100,4,1,0,50,0,1
126145,-66.6666666666667,4,1,0,70,0,1
127002,-66.6666666666667,4,1,0,80,0,1
127859,-66.6666666666667,4,1,0,90,0,1
127912,-66.6666666666667,4,1,0,50,0,1
127966,-66.6666666666667,4,1,0,100,0,1
128020,-66.6666666666667,4,1,0,50,0,1
128073,-66.6666666666667,4,1,0,100,0,1
128127,-66.6666666666667,4,1,0,50,0,1
128180,-66.6666666666667,4,1,0,100,0,1
128234,-66.6666666666667,4,1,0,50,0,1
128287,-66.6666666666667,4,1,0,100,0,1
128341,-66.6666666666667,4,1,0,50,0,1
128395,-66.6666666666667,4,1,0,100,0,1
128448,-66.6666666666667,4,1,0,50,0,1
128502,-66.6666666666667,4,1,0,100,0,1
128555,-66.6666666666667,4,1,0,50,0,1
128609,-66.6666666666667,4,1,0,100,0,1
128662,-66.6666666666667,4,1,0,50,0,1
128716,-66.6666666666667,4,1,0,100,0,0

[Colours]
Combo1 : 224,253,254
Combo2 : 2,185,200
Combo3 : 18,124,255
Combo4 : 41,33,209
Combo5 : 204,85,255
Combo6 : 109,0,219
Combo7 : 255,236,255

[HitObjects]
48,32,1430,86,0,B|164:105|163:-45|288:41,1,250,2|2,0:0|0:0,0:0:0:0:
433,99,3145,1,2,0:0:0:0:
466,203,3573,2,0,P|454:279|406:335,1,150,2|2,0:0|0:0,0:0:0:0:
305,204,4859,5,2,0:0:0:0:
235,119,5287,2,0,P|175:83|75:95,1,150,2|2,0:0|0:0,0:0:0:0:
134,246,6573,1,2,0:0:0:0:
134,246,7002,6,0,L|166:303,1,50,2|2,0:0|0:0,0:0:0:0:
213,287,7430,2,0,L|245:344,1,50,2|2,0:0|0:0,0:0:0:0:
376,244,8287,5,2,0:0:0:0:
407,138,8716,2,0,P|379:58|331:10,2,150,0|0|8,0:0|0:0|0:0,0:0:0:0:
376,244,10430,2,0,P|404:324|452:372,2,150,0|0|8,0:0|0:0|0:0,0:0:0:0:
308,149,12145,6,0,L|255:60,1,100,0|8,0:0|0:0,0:0:0:0:
221,20,12787,2,0,P|150:24|94:80,1,150,0|8,0:0|0:0,0:0:0:0:
2,135,13859,6,0,L|8:248,1,100,0|8,0:0|0:0,0:0:0:0:
22,343,14716,2,0,P|70:329|101:287,1,100,0|8,0:0|0:0,0:0:0:0:
133,185,15573,6,0,P|184:195|240:175,1,100,4|8,0:0|0:0,0:0:0:0:
280,161,16216,2,0,P|349:134|429:167,1,150,0|8,0:0|0:0,0:0:0:0:
460,258,17287,38,0,L|448:22,1,200,0|0,0:0|0:0,0:0:0:0:
347,18,18573,1,8,0:0:0:0:
237,11,19002,2,0,P|187:18|151:62,1,100,0|8,0:0|0:0,0:0:0:0:
145,107,19645,2,0,P|67:109|12:160,1,150,0|8,0:0|0:0,0:0:0:0:
15,154,20716,6,0,L|29:224,1,50
68,237,21145,2,0,L|82:307,1,50,8|0,0:0|0:0,0:0:0:0:
210,383,22002,6,0,P|236:340|248:292,1,100,8|0,0:0|0:0,0:0:0:0:
222,128,23073,2,0,P|289:157|336:216,1,150,0|8,0:0|0:0,0:0:0:0:
443,241,24145,2,0,P|411:309|336:331,2,150,0|0|8,0:0|0:0|0:0,0:0:0:0:
416,134,25859,6,0,L|322:91,1,100,0|8,0:0|0:0,0:0:0:0:
274,70,26502,2,0,B|235:79|201:75|201:75|166:98|127:110,1,150,0|0,0:0|0:0,0:0:0:0:
52,184,27573,5,0,0:0:0:0:
30,292,28002,1,8,0:0:0:0:
112,364,28430,1,0,0:0:0:0:
219,340,28859,1,8,0:0:0:0:
285,252,29287,38,0,L|347:230,1,50,4|0,0:0|0:0,0:0:0:0:
425,176,29930,1,0,0:0:0:0:
329,122,30359,2,0,L|281:105,2,50,0|8|0,0:0|0:0|0:0,0:0:0:0:
380,101,31002,6,0,P|474:105|511:192,1,200,0|0,0:0|0:0,0:0:0:0:
474,296,32287,1,8,0:0:0:0:
397,375,32716,2,0,L|308:320,1,100,0|8,0:0|0:0,0:0:0:0:
201,326,33573,2,0,L|115:378,1,100,0|8,0:0|0:0,0:0:0:0:
47,287,34430,6,0,P|59:239|95:199,1,100,0|8,0:0|0:0,0:0:0:0:
173,128,35287,2,0,P|205:90|217:42,1,100,0|8,0:0|0:0,0:0:0:0:
324,21,36145,70,0,P|412:41|500:141,1,200,4|0,0:0|0:0,0:0:0:0:
411,194,37430,1,8,0:0:0:0:
467,288,37859,6,0,P|435:332|379:360,1,100,0|8,0:0|0:0,0:0:0:0:
287,337,38716,2,0,P|319:293|375:265,1,100,0|8,0:0|0:0,0:0:0:0:
314,168,39573,1,0,0:0:0:0:
300,58,40002,1,8,0:0:0:0:
228,141,40430,1,0,0:0:0:0:
215,31,40859,1,8,0:0:0:0:
105,35,41287,6,0,P|59:49|22:86,1,100,4|12,0:0|0:0,0:0:0:0:
28,195,42145,2,0,P|63:230|111:245,1,100,4|12,0:0|0:0,0:0:0:0:
205,299,43002,38,0,P|306:310|398:272,1,200,4|0,0:0|0:0,0:0:0:0:
475,198,44287,1,0,0:0:0:0:
404,113,44716,2,0,P|303:102|211:140,1,200
158,42,46002,1,0,0:0:0:0:
89,128,46430,6,0,L|69:204,2,50,0|0|0,0:0|0:0|0:0,0:0:0:0:
150,219,47287,2,0,L|130:295,2,50,0|0|0,0:0|0:0|0:0,0:0:0:0:
209,312,48145,86,0,L|318:297,1,100
382,217,49002,2,0,L|282:203,1,100
172,205,49859,6,0,P|202:125|311:91,1,200,4|0,0:0|0:0,0:0:0:0:
407,49,51145,1,0,0:0:0:0:
407,49,51573,2,0,P|417:123|411:197,2,150,0|0|0,0:0|0:0|0:0,0:0:0:0:
256,192,53287,12,4,55002,0:0:0:0:
336,206,56287,6,0,P|394:208|432:186,1,100,0|4,0:0|0:0,0:0:0:0:
359,102,57145,1,0,0:0:0:0:
314,1,57573,1,0,0:0:0:0:
233,76,58002,1,0,0:0:0:0:
124,92,58430,6,0,B|84:96|84:96|36:72,2,75
163,131,59287,1,0,0:0:0:0:
96,218,59716,1,0,0:0:0:0:
189,276,60145,6,0,P|225:307|279:316,1,100
385,312,61002,2,0,P|433:303|471:271,1,100
441,164,61859,6,0,B|481:160|481:160|512:175,2,75
391,188,62716,1,0,0:0:0:0:
355,83,63145,2,0,L|299:71,1,50
251,63,63573,6,0,P|167:59|59:115,1,200,4|0,0:0|0:0,0:0:0:0:
7,203,64859,1,0,0:0:0:0:
82,282,65287,38,0,P|169:329|267:328,1,200
374,354,66573,1,0,0:0:0:0:
414,251,67002,2,0,L|430:147,1,100
422,42,67859,2,0,P|378:18|318:14,1,100
218,13,68716,6,0,P|102:53|62:125,1,200
73,224,70002,1,0,0:0:0:0:
133,315,70430,6,0,L|233:363,1,100,4|8,0:0|0:0,0:0:0:0:
258,254,71287,2,0,L|358:302,1,100,0|8,0:0|0:0,0:0:0:0:
453,265,72145,2,0,P|484:196|469:123,1,150,0|8,0:0|0:0,0:0:0:0:
388,51,73216,2,0,P|348:31|280:27,1,100
239,35,73859,5,0,0:0:0:0:
210,140,74287,1,8,0:0:0:0:
114,86,74716,1,0,0:0:0:0:
79,190,75145,1,8,0:0:0:0:
4,270,75573,6,0,P|8:322|42:374,1,100,0|8,0:0|0:0,0:0:0:0:
113,289,76430,2,0,P|157:269|213:273,1,100,0|8,0:0|0:0,0:0:0:0:
295,338,77287,2,0,P|371:370|471:302,1,200,4|0,0:0|0:0,0:0:0:0:
463,203,78573,1,8,0:0:0:0:
422,100,79002,38,0,L|318:60,1,100,0|8,0:0|0:0,0:0:0:0:
219,46,79859,1,0,0:0:0:0:
109,55,80287,1,8,0:0:0:0:
47,146,80716,6,0,L|47:270,1,100,4|8,0:0|0:0,0:0:0:0:
125,322,81573,2,0,P|177:302|201:262,1,100,0|8,0:0|0:0,0:0:0:0:
312,266,82430,2,0,P|340:306|387:322,1,100,4|12,0:0|0:0,0:0:0:0:
465,246,83287,2,0,L|465:146,1,100,4|12,0:0|0:0,0:0:0:0:
430,42,84145,37,4,0:0:0:0:
102,184,91002,22,0,P|118:232|166:288,1,100,0|8,0:0|0:0,0:0:0:0:
214,358,91859,1,0,0:0:0:0:
320,329,92287,2,0,P|400:293|460:197,1,200,0|8,0:0|0:0,0:0:0:0:
446,91,93573,85,0,0:0:0:0:
373,7,94002,1,8,0:0:0:0:
289,78,94430,2,0,L|181:94,1,100,0|8,0:0|0:0,0:0:0:0:
137,189,95287,2,0,L|235:174,1,100,0|8,0:0|0:0,0:0:0:0:
325,237,96145,5,4,0:0:0:0:
292,341,96573,1,8,0:0:0:0:
186,374,97002,1,0,0:0:0:0:
90,320,97430,1,8,0:0:0:0:
51,216,97859,6,0,P|55:116|139:60,1,200,4|0,0:0|0:0,0:0:0:0:
233,23,99145,1,8,0:0:0:0:
314,96,99573,2,0,P|411:98|479:169,1,200,4|0,0:0|0:0,0:0:0:0:
509,274,100859,1,8,0:0:0:0:
402,247,101287,6,0,P|328:343|227:353,1,200,0|0,0:0|0:0,0:0:0:0:
250,247,102573,1,8,0:0:0:0:
150,294,103002,2,0,L|66:234,1,100,0|8,0:0|0:0,0:0:0:0:
66,125,103859,2,0,L|147:66,1,100,0|8,0:0|0:0,0:0:0:0:
251,32,104716,6,0,P|335:28|463:64,1,200,4|0,0:0|0:0,0:0:0:0:
505,149,106002,1,8,0:0:0:0:
430,229,106430,2,0,L|390:321,1,100,4|8,0:0|0:0,0:0:0:0:
287,359,107287,2,0,L|327:267,1,100,0|8,0:0|0:0,0:0:0:0:
283,165,108145,6,0,L|243:257,1,100,4|8,0:0|0:0,0:0:0:0:
139,295,109002,2,0,L|179:203,1,100,0|8,0:0|0:0,0:0:0:0:
166,92,109859,2,0,P|136:54|89:39,2,100,4|8|0,0:0|0:0|0:0,0:0:0:0:
72,148,111145,1,8,0:0:0:0:
37,252,111573,6,12,P|61:336|185:368,1,200,4|0,0:0|0:0,0:0:0:0:
261,333,112859,1,8,0:0:0:0:
370,338,113287,2,0,P|447:284|461:172,1,200
423,82,114573,1,8,0:0:0:0:
322,37,115002,38,0,P|274:26|224:28,1,100,0|8,0:0|0:0,0:0:0:0:
121,68,115859,2,0,L|65:180,1,100,0|8,0:0|0:0,0:0:0:0:
97,266,116716,6,0,L|157:326,1,50,0|0,0:0|0:0,0:0:0:0:
185,287,117145,2,0,L|245:347,1,50,8|0,0:0|0:0,0:0:0:0:
274,328,117573,2,0,B|322:342|322:342|384:333,1,100,0|8,0:0|0:0,0:0:0:0:
476,302,118430,5,4,0:0:0:0:
482,193,118859,1,8,0:0:0:0:
435,93,119287,2,0,L|399:49,1,50,0|0,0:0|0:0,0:0:0:0:
348,57,119716,2,0,L|316:95,1,50,8|0,0:0|0:0,0:0:0:0:
275,132,120145,6,0,P|228:116|194:70,1,100,4|8,0:0|0:0,0:0:0:0:
99,129,121002,2,0,L|27:217,1,100,0|8,0:0|0:0,0:0:0:0:
86,302,121859,54,0,P|101:350|137:384,1,100,4|8,0:0|0:0,0:0:0:0:
199,292,122716,2,0,L|343:304,1,100,0|8,0:0|0:0,0:0:0:0:
407,282,123573,5,4,0:0:0:0:
508,239,124001,1,12,0:0:0:0:
498,129,124430,1,4,0:0:0:0:
391,104,124858,1,12,0:0:0:0:
334,198,125287,5,4,0:0:0:0:
256,192,125395,12,4,128716,0:0:0:0:
