osu file format v12

[General]
AudioFilename: Identity Part 4.mp3
AudioLeadIn: 0
PreviewTime: 24000
Countdown: 0
SampleSet: Soft
StackLeniency: 0.7
Mode: 3
LetterboxInBreaks: 0
SpecialStyle: 0
WidescreenStoryboard: 0

[Editor]
DistanceSpacing: 0.8
BeatDivisor: 8
GridSize: 16
TimelineZoom: 1.7

[Metadata]
Title:Identity Part 4
TitleUnicode:Identity Part 4
Artist:SHK
ArtistUnicode:SHK
Creator:vocaloid1anime2
Version:HD+
Source:O2Jam U
Tags:IP4 IV Angelfault Chamelo_th
BeatmapID:359969
BeatmapSetID:144959

[Difficulty]
HPDrainRate:8
CircleSize:4
OverallDifficulty:8
ApproachRate:8
SliderMultiplier:2.2
SliderTickRate:1

[Events]
//Background and Video events
0,0,"55245.jpg",0,0
//Break Periods
//Storyboard Layer 0 (Background)
//Storyboard Layer 1 (Fail)
//Storyboard Layer 2 (Pass)
//Storyboard Layer 3 (Foreground)
//Storyboard Sound Samples
Sample,8578,0,"bassdrum.wav",70
Sample,9007,0,"snare.wav",70
Sample,9221,0,"bassdrum.wav",70
Sample,9649,0,"bassdrum.wav",70
Sample,51007,0,"snare.wav",70
Sample,51060,0,"snare.wav",70
Sample,51114,0,"snare.wav",70
Sample,51167,0,"snare.wav",70
Sample,51221,0,"snare.wav",70
Sample,51274,0,"snare.wav",70
Sample,51328,0,"snare.wav",70
Sample,51382,0,"snare.wav",70
Sample,51435,0,"snare.wav",70
Sample,68149,0,"snare.wav",70
Sample,68203,0,"snare.wav",70
Sample,68257,0,"snare.wav",70
Sample,68310,0,"snare.wav",70
Sample,68364,0,"snare.wav",70
Sample,68417,0,"snare.wav",70
Sample,68471,0,"snare.wav",70
Sample,68524,0,"snare.wav",70
Sample,68578,0,"snare.wav",70
Sample,80578,0,"bassdrum.wav",70
Sample,80578,0,"snare.wav",45
Sample,80685,0,"snare.wav",45
Sample,80792,0,"snare.wav",45
Sample,80899,0,"snare.wav",45
Sample,81007,0,"snare.wav",55
Sample,81114,0,"snare.wav",55
Sample,81221,0,"snare.wav",55
Sample,81328,0,"snare.wav",55
Sample,81435,0,"snare.wav",60
Sample,81542,0,"snare.wav",60
Sample,81649,0,"snare.wav",60
Sample,81757,0,"snare.wav",60
Sample,81864,0,"snare.wav",70
Sample,81971,0,"snare.wav",70
Sample,82078,0,"bassdrum.wav",70
Sample,82078,0,"snare.wav",70
Sample,82185,0,"snare.wav",70
Sample,82292,0,"snare.wav",75
Sample,82292,0,"bassdrum.wav",70
Sample,82399,0,"snare.wav",75
Sample,82507,0,"snare.wav",75
Sample,82614,0,"snare.wav",75
Sample,82721,0,"snare.wav",80
Sample,82828,0,"snare.wav",80
Sample,82935,0,"snare.wav",80
Sample,82935,0,"bassdrum.wav",70
Sample,83042,0,"snare.wav",80
Sample,83149,0,"snare.wav",90
Sample,83149,0,"bassdrum.wav",70
Sample,83257,0,"snare.wav",90
Sample,83364,0,"bassdrum.wav",70
Sample,83364,0,"snare.wav",90
Sample,83471,0,"snare.wav",90
Sample,97346,0,"snare.wav",70
Sample,97453,0,"snare.wav",70
Sample,97560,0,"snare.wav",70
Sample,97667,0,"snare.wav",70
//Background Colour Transformations
3,100,163,162,255

[TimingPoints]
7,428.571428571429,4,2,0,17,1,0
24007,-100,4,2,0,17,0,1
37292,-55.5555555555556,4,2,0,17,0,1
37319,-153.846153846153,4,2,0,17,0,1
37373,-400,4,2,0,17,0,1
37399,-55.5555555555556,4,2,0,17,0,1
37426,-153.846153846153,4,2,0,17,0,1
37480,-400,4,2,0,17,0,1
37507,-125,4,2,0,17,0,1
37721,-100,4,2,0,17,0,1
51435,-1000,4,2,0,17,0,0
51542,-125,4,2,0,17,0,0
51649,-1000,4,2,0,17,0,0
51864,-500,4,2,0,17,0,0
51971,-250,4,2,0,17,0,0
52078,-76.9230769230769,4,2,0,17,0,0
52292,-1000,4,2,0,17,0,0
52399,-125,4,2,0,17,0,0
52507,-1000,4,2,0,17,0,0
52721,-500,4,2,0,17,0,0
52828,-200,4,2,0,17,0,0
52935,-76.9230769230769,4,2,0,17,0,0
53149,-1000,4,2,0,17,0,0
53203,-333.333333333333,4,2,0,17,0,0
53257,-125,4,2,0,17,0,0
53364,-76.9230769230769,4,2,0,17,0,0
53578,-1000,4,2,0,17,0,0
53632,-333.333333333333,4,2,0,17,0,0
53685,-125,4,2,0,17,0,0
53792,-76.9230769230769,4,2,0,17,0,0
54007,-71.4285714285714,4,2,0,17,0,0
54221,-333.333333333333,4,2,0,17,0,0
54274,-1000,4,2,0,17,0,0
54328,-500,4,2,0,17,0,0
54435,-90.9090909090909,4,2,0,17,0,0
54864,-100,4,2,0,17,0,0
61721,-66.6666666666667,4,2,0,17,0,0
62042,-250,4,2,0,17,0,0
62149,-100,4,2,0,17,0,0
68578,-16.6666666666667,4,2,0,17,0,0
69435,-333.333333333333,4,2,0,17,0,0
69757,-200,4,2,0,17,0,0
69810,-100,4,2,0,17,0,0
70292,-111.111111111111,4,2,0,17,0,0
80578,-100,4,2,0,17,0,0
83578,-55.5555555555556,4,2,0,17,0,0
83605,-153.846153846153,4,2,0,17,0,0
83658,-400,4,2,0,17,0,0
83685,-55.5555555555556,4,2,0,17,0,0
83712,-153.846153846153,4,2,0,17,0,0
83765,-400,4,2,0,17,0,0
83792,-125,4,2,0,17,0,0
84007,-100,4,2,0,17,0,1
111435,-100,4,2,0,17,0,0
112078,-83.3333333333333,4,2,0,17,0,0
112507,-200,4,2,0,17,0,0
112721,-100,4,2,0,17,0,0
113149,-333.333333333333,4,2,0,17,0,0
114542,-100,4,2,0,17,0,0

[HitObjects]
448,192,3435,5,0,0:0:0:70:bassdrum.wav
64,192,3435,1,0,0:0:0:70:cymbol.wav
192,192,3542,1,0,0:0:0:70:hihat.wav
320,192,3649,1,0,0:0:0:70:hihat.wav
64,192,3864,1,0,0:0:0:70:hihat.wav
448,192,3864,1,0,0:0:0:70:snare.wav
320,192,4078,1,0,0:0:0:70:hihat.wav
192,192,4185,1,0,0:0:0:70:hihat.wav
64,192,4292,1,0,0:0:0:70:hihat.wav
448,192,4399,1,0,0:0:0:70:hihat.wav
320,192,4507,1,0,0:0:0:70:bassdrum.wav
448,192,4721,1,0,0:0:0:70:hihat.wav
64,192,4721,1,0,0:0:0:70:snare.wav
192,192,4828,1,0,0:0:0:70:hihat.wav
320,192,4935,1,0,0:0:0:70:hihat.wav
64,192,5042,1,0,0:0:0:70:hihat.wav
448,192,5149,1,0,0:0:0:70:bassdrum.wav
64,192,5257,1,0,0:0:0:70:hihat.wav
320,192,5364,1,0,0:0:0:70:hihat.wav
192,192,5471,1,0,0:0:0:70:hihat.wav
448,192,5578,1,0,0:0:0:70:snare.wav
64,192,5578,1,0,0:0:0:70:hihat.wav
192,192,5792,1,0,0:0:0:70:bassdrum.wav
320,192,5899,1,0,0:0:0:70:hihat.wav
448,192,6007,1,0,0:0:0:70:hihat.wav
64,192,6114,1,0,0:0:0:70:hihat.wav
192,192,6221,1,0,0:0:0:70:bassdrum.wav
448,192,6435,1,0,0:0:0:70:hihat.wav
64,192,6435,1,0,0:0:0:70:snare.wav
192,192,6649,128,0,6864:0:0:0:70:bassdrum.wav
448,192,6864,1,0,0:0:0:70:bassdrum.wav
320,192,6971,1,0,0:0:0:70:hihat.wav
192,192,7078,1,0,0:0:0:70:hihat.wav
64,192,7292,1,0,0:0:0:70:hihat.wav
448,192,7292,1,0,0:0:0:70:snare.wav
320,192,7399,1,0,0:0:0:70:hihat.wav
192,192,7507,1,0,0:0:0:70:hihat.wav
448,192,7614,1,0,0:0:0:70:hihat.wav
320,192,7721,1,0,0:0:0:70:hihat.wav
64,192,7828,1,0,0:0:0:70:hihat.wav
192,192,7935,1,0,0:0:0:70:bassdrum.wav
320,192,8042,1,0,0:0:0:70:hihat.wav
448,192,8149,1,0,0:0:0:70:hihat.wav
64,192,8149,1,0,0:0:0:70:snare.wav
320,192,8364,128,0,8578:0:0:0:70:hihat.wav
64,192,8578,1,0,0:0:0:70:hihat.wav
192,192,8685,1,0,0:0:0:70:hihat.wav
320,192,8792,1,0,0:0:0:70:hihat.wav
448,192,8899,1,0,0:0:0:70:hihat.wav
64,192,9007,1,0,0:0:0:70:hihat.wav
192,192,9114,1,0,0:0:0:70:hihat.wav
320,192,9221,1,0,0:0:0:70:hihat.wav
448,192,9328,1,0,0:0:0:70:hihat.wav
64,192,9435,1,0,0:0:0:70:hihat.wav
192,192,9542,1,0,0:0:0:70:hihat.wav
320,192,9649,1,0,0:0:0:70:hihat.wav
448,192,9757,1,0,0:0:0:70:hihat.wav
320,192,9864,1,0,0:0:0:70:snare.wav
64,192,9864,1,0,0:0:0:70:hihat.wav
192,192,10078,1,0,0:0:0:70:bassdrum.wav
320,192,10292,1,0,0:0:0:70:bassdrum.wav
448,192,10292,1,0,0:0:0:70:cymbol.wav
64,192,10292,1,0,0:0:0:70:hihat.wav
192,192,10399,1,0,0:0:0:70:hihat.wav
320,192,10507,1,0,0:0:0:70:hihat.wav
64,192,10721,1,0,0:0:0:70:hihat.wav
448,192,10721,1,0,0:0:0:70:clap.wav
320,192,10828,1,0,0:0:0:70:hihat.wav
192,192,10935,1,0,0:0:0:70:hihat.wav
192,192,11149,1,0,0:0:0:70:hihat.wav
320,192,11257,1,0,0:0:0:70:hihat.wav
448,192,11364,1,0,0:0:0:70:bassdrum.wav
320,192,11578,1,0,0:0:0:70:hihat.wav
64,192,11578,1,0,0:0:0:70:clap.wav
192,192,11685,1,0,0:0:0:70:hihat.wav
64,192,11792,1,0,0:0:0:70:hihat.wav
64,192,12007,1,0,0:0:0:70:hihat.wav
448,192,12007,1,0,0:0:0:70:bassdrum.wav
192,192,12114,1,0,0:0:0:70:hihat.wav
320,192,12221,1,0,0:0:0:70:hihat.wav
64,192,12435,1,0,0:0:0:70:hihat.wav
448,192,12435,1,0,0:0:0:70:clap.wav
192,192,12649,1,0,0:0:0:70:bassdrum.wav
320,192,12864,1,0,0:0:0:70:hihat.wav
192,192,12971,1,0,0:0:0:70:hihat.wav
64,192,13078,1,0,0:0:0:70:bassdrum.wav
320,192,13292,1,0,0:0:0:70:hihat.wav
64,192,13292,1,0,0:0:0:70:clap.wav
192,192,13507,1,0,0:0:0:70:bassdrum.wav
448,192,13721,1,0,0:0:0:70:hihat.wav
64,192,13721,1,0,0:0:0:70:bassdrum.wav
320,192,13828,1,0,0:0:0:70:hihat.wav
192,192,13935,1,0,0:0:0:70:hihat.wav
448,192,14149,1,0,0:0:0:70:clap.wav
64,192,14149,1,0,0:0:0:70:hihat.wav
192,192,14257,1,0,0:0:0:70:hihat.wav
320,192,14364,1,0,0:0:0:70:hihat.wav
320,192,14578,1,0,0:0:0:70:hihat.wav
192,192,14685,1,0,0:0:0:70:hihat.wav
64,192,14792,1,0,0:0:0:70:bassdrum.wav
192,192,15007,1,0,0:0:0:70:clap.wav
448,192,15007,1,0,0:0:0:70:hihat.wav
320,192,15114,1,0,0:0:0:70:hihat.wav
448,192,15221,1,0,0:0:0:70:hihat.wav
448,192,15435,1,0,0:0:0:70:hihat.wav
64,192,15435,1,0,0:0:0:70:bassdrum.wav
320,192,15542,1,0,0:0:0:70:hihat.wav
192,192,15649,1,0,0:0:0:70:hihat.wav
64,192,15864,1,0,0:0:0:70:hihat.wav
448,192,15864,1,0,0:0:0:70:clap.wav
320,192,16078,1,0,0:0:0:70:bassdrum.wav
64,192,16292,1,0,0:0:0:70:hihat.wav
192,192,16399,1,0,0:0:0:70:hihat.wav
320,192,16507,1,0,0:0:0:70:bassdrum.wav
448,192,16721,1,0,0:0:0:70:hihat.wav
192,192,16721,1,0,0:0:0:70:clap.wav
320,192,16935,1,0,0:0:0:70:bassdrum.wav
448,192,17149,1,0,0:0:0:70:hihat.wav
192,192,17149,1,0,0:0:0:70:bassdrum.wav
64,192,17149,1,0,0:0:0:70:cymbol.wav
320,192,17257,1,0,0:0:0:70:hihat.wav
192,192,17364,1,0,0:0:0:70:hihat.wav
64,192,17578,1,0,0:0:0:70:hihat.wav
448,192,17578,1,0,0:0:0:70:clap.wav
192,192,17685,1,0,0:0:0:70:hihat.wav
320,192,17792,1,0,0:0:0:70:hihat.wav
320,192,18007,1,0,0:0:0:70:hihat.wav
192,192,18114,1,0,0:0:0:70:hihat.wav
64,192,18221,1,0,0:0:0:70:bassdrum.wav
192,192,18435,1,0,0:0:0:70:clap.wav
448,192,18435,1,0,0:0:0:70:hihat.wav
320,192,18542,1,0,0:0:0:70:hihat.wav
448,192,18649,1,0,0:0:0:70:hihat.wav
192,192,18864,1,0,0:0:0:70:bassdrum.wav
448,192,18864,1,0,0:0:0:70:hihat.wav
320,192,18971,1,0,0:0:0:70:hihat.wav
192,192,19078,1,0,0:0:0:70:hihat.wav
448,192,19292,1,0,0:0:0:70:clap.wav
64,192,19292,1,0,0:0:0:70:hihat.wav
192,192,19507,1,0,0:0:0:70:bassdrum.wav
320,192,19721,1,0,0:0:0:70:hihat.wav
192,192,19828,1,0,0:0:0:70:hihat.wav
64,192,19935,1,0,0:0:0:70:bassdrum.wav
192,192,20149,1,0,0:0:0:70:clap.wav
448,192,20149,1,0,0:0:0:70:hihat.wav
320,192,20364,1,0,0:0:0:70:bassdrum.wav
448,192,20578,1,0,0:0:0:70:hihat.wav
64,192,20578,1,0,0:0:0:70:bassdrum.wav
192,192,20685,1,0,0:0:0:70:hihat.wav
320,192,20792,1,0,0:0:0:70:hihat.wav
448,192,21007,1,0,0:0:0:70:clap.wav
64,192,21007,1,0,0:0:0:70:hihat.wav
320,192,21114,1,0,0:0:0:70:hihat.wav
192,192,21221,1,0,0:0:0:70:hihat.wav
192,192,21435,1,0,0:0:0:70:hihat.wav
320,192,21542,1,0,0:0:0:70:hihat.wav
448,192,21649,1,0,0:0:0:70:bassdrum.wav
64,192,21864,1,0,0:0:0:70:clap.wav
320,192,21864,1,0,0:0:0:70:hihat.wav
192,192,21971,1,0,0:0:0:70:hihat.wav
64,192,22078,1,0,0:0:0:70:hihat.wav
448,192,22292,1,0,0:0:0:70:bassdrum.wav
64,192,22292,1,0,0:0:0:70:snare.wav
192,192,22292,1,0,0:0:0:70:cymbol.wav
320,192,22399,1,0,0:0:0:70:snare.wav
192,192,22507,1,0,0:0:0:70:snare.wav
64,192,22614,1,0,0:0:0:70:snare.wav
64,192,22721,1,0,0:0:0:70:snare.wav
320,192,22721,1,0,0:0:0:70:cymbol.wav
448,192,22721,1,0,0:0:0:70:bassdrum.wav
192,192,22828,1,0,0:0:0:70:snare.wav
320,192,22935,1,0,0:0:0:70:snare.wav
448,192,23042,1,0,0:0:0:70:snare.wav
448,192,23149,1,0,0:0:0:70:snare.wav
192,192,23149,1,0,0:0:0:70:cymbol.wav
64,192,23149,1,0,0:0:0:70:bassdrum.wav
320,192,23257,1,0,0:0:0:70:snare.wav
192,192,23364,1,0,0:0:0:70:snare.wav
64,192,23471,1,0,0:0:0:70:snare.wav
64,192,23578,1,0,0:0:0:70:snare.wav
192,192,23632,1,0,0:0:0:70:snare.wav
320,192,23685,1,0,0:0:0:70:snare.wav
448,192,23739,1,0,0:0:0:70:snare.wav
64,192,23792,1,0,0:0:0:70:snare.wav
192,192,23846,1,0,0:0:0:70:snare.wav
320,192,23899,1,0,0:0:0:70:snare.wav
448,192,23953,1,0,0:0:0:70:snare.wav
192,192,24007,128,0,24435:0:0:0:70:cymbol.wav
64,192,24007,1,0,0:0:0:70:bassdrum.wav
320,192,24007,1,0,0:0:0:70:hihat.wav
320,192,24435,128,0,24649:0:0:0:70:hihat.wav
64,192,24435,1,0,0:0:0:70:clap.wav
192,192,24649,128,0,25078:0:0:0:70:hihat.wav
448,192,24649,1,0,0:0:0:70:bassdrum.wav
64,192,25078,128,0,25507:0:0:0:70:hihat.wav
448,192,25078,1,0,0:0:0:70:bassdrum.wav
320,192,25292,1,0,0:0:0:70:clap.wav
448,192,25507,1,0,0:0:0:70:hihat.wav
320,192,25614,1,0,0:0:0:70:hihat.wav
192,192,25721,128,0,26149:0:0:0:70:hihat.wav
448,192,25721,1,0,0:0:0:70:bassdrum.wav
320,192,26149,128,0,26364:0:0:0:70:hihat.wav
64,192,26149,1,0,0:0:0:70:clap.wav
64,192,26364,128,0,26792:0:0:0:70:hihat.wav
448,192,26364,1,0,0:0:0:70:bassdrum.wav
192,192,26792,128,0,27221:0:0:0:70:hihat.wav
448,192,26792,1,0,0:0:0:70:bassdrum.wav
320,192,27007,1,0,0:0:0:70:clap.wav
320,192,27221,128,0,27435:0:0:0:70:hihat.wav
64,192,27435,128,0,28078:0:0:0:70:hihat.wav
448,192,27435,1,0,0:0:0:70:bassdrum.wav
320,192,27864,1,0,0:0:0:70:clap.wav
192,192,28078,128,0,28935:0:0:0:70:hihat.wav
448,192,28078,1,0,0:0:0:70:bassdrum.wav
320,192,28507,1,0,0:0:0:70:bassdrum.wav
448,192,28721,1,0,0:0:0:70:clap.wav
320,192,28935,128,0,29364:0:0:0:70:hihat.wav
64,192,29149,1,0,0:0:0:70:bassdrum.wav
192,192,29364,128,0,29578:0:0:0:70:hihat.wav
320,192,29578,128,0,29792:0:0:0:70:hihat.wav
448,192,29578,1,0,0:0:0:70:clap.wav
448,192,29792,128,0,30864:0:0:0:70:hihat.wav
64,192,29792,1,0,0:0:0:70:bassdrum.wav
64,192,30221,1,0,0:0:0:70:bassdrum.wav
192,192,30435,1,0,0:0:0:70:clap.wav
64,192,30864,1,0,0:0:0:70:cymbol.wav
320,192,30864,1,0,0:0:0:70:bassdrum.wav
192,192,30971,1,0,0:0:0:70:hihat.wav
320,192,31078,1,0,0:0:0:70:hihat.wav
64,192,31292,1,0,0:0:0:70:hihat.wav
448,192,31292,1,0,0:0:0:70:clap.wav
192,192,31399,1,0,0:0:0:70:hihat.wav
320,192,31507,1,0,0:0:0:70:hihat.wav
448,192,31721,1,0,0:0:0:70:hihat.wav
320,192,31828,1,0,0:0:0:70:hihat.wav
192,192,31935,1,0,0:0:0:70:bassdrum.wav
448,192,32149,1,0,0:0:0:70:hihat.wav
192,192,32149,1,0,0:0:0:70:clap.wav
320,192,32257,1,0,0:0:0:70:hihat.wav
192,192,32364,1,0,0:0:0:70:hihat.wav
448,192,32578,1,0,0:0:0:70:bassdrum.wav
192,192,32578,1,0,0:0:0:70:hihat.wav
320,192,32685,1,0,0:0:0:70:hihat.wav
448,192,32792,1,0,0:0:0:70:hihat.wav
64,192,33007,1,0,0:0:0:70:hihat.wav
448,192,33007,1,0,0:0:0:70:clap.wav
192,192,33221,1,0,0:0:0:70:bassdrum.wav
320,192,33435,1,0,0:0:0:70:hihat.wav
192,192,33542,1,0,0:0:0:70:hihat.wav
64,192,33649,1,0,0:0:0:70:bassdrum.wav
448,192,33864,1,0,0:0:0:70:clap.wav
192,192,33864,1,0,0:0:0:70:hihat.wav
320,192,34078,1,0,0:0:0:70:bassdrum.wav
448,192,34292,1,0,0:0:0:70:hihat.wav
64,192,34292,1,0,0:0:0:70:bassdrum.wav
320,192,34399,1,0,0:0:0:70:hihat.wav
192,192,34507,1,0,0:0:0:70:hihat.wav
64,192,34721,1,0,0:0:0:70:hihat.wav
448,192,34721,1,0,0:0:0:70:clap.wav
192,192,34828,1,0,0:0:0:70:hihat.wav
320,192,34935,1,0,0:0:0:70:hihat.wav
448,192,35149,1,0,0:0:0:70:hihat.wav
320,192,35257,1,0,0:0:0:70:hihat.wav
192,192,35364,1,0,0:0:0:70:bassdrum.wav
64,192,35578,1,0,0:0:0:70:clap.wav
320,192,35578,1,0,0:0:0:70:hihat.wav
192,192,35685,1,0,0:0:0:70:hihat.wav
320,192,35792,1,0,0:0:0:70:hihat.wav
448,192,36007,1,0,0:0:0:70:bassdrum.wav
192,192,36007,1,0,0:0:0:70:hihat.wav
320,192,36114,1,0,0:0:0:70:hihat.wav
192,192,36221,1,0,0:0:0:70:hihat.wav
64,192,36435,1,0,0:0:0:70:clap.wav
448,192,36435,1,0,0:0:0:70:hihat.wav
192,192,36542,1,0,0:0:0:70:hihat.wav
320,192,36649,1,0,0:0:0:70:bassdrum.wav
448,192,36864,1,0,0:0:0:70:hihat.wav
320,192,36971,1,0,0:0:0:70:hihat.wav
192,192,37078,1,0,0:0:0:70:bassdrum.wav
448,192,37292,1,0,0:0:0:70:bassdrum.wav
448,192,37399,1,0,0:0:0:70:bassdrum.wav
448,192,37507,128,0,37721:0:0:0:70:bassdrum.wav
320,192,37721,128,0,38149:0:0:0:70:hihat.wav
192,192,37721,1,0,0:0:0:70:bassdrum.wav
64,192,37721,1,0,0:0:0:70:cymbol.wav
448,192,38149,128,0,38364:0:0:0:70:hihat.wav
64,192,38149,1,0,0:0:0:70:clap.wav
192,192,38364,128,0,38792:0:0:0:70:hihat.wav
320,192,38364,1,0,0:0:0:70:bassdrum.wav
64,192,38792,1,0,0:0:0:70:bassdrum.wav
448,192,38792,128,0,39221:0:0:0:70:hihat.wav
192,192,39007,1,0,0:0:0:70:clap.wav
64,192,39221,1,0,0:0:0:70:hihat.wav
192,192,39328,1,0,0:0:0:70:hihat.wav
320,192,39435,128,0,39864:0:0:0:70:hihat.wav
64,192,39435,1,0,0:0:0:70:bassdrum.wav
448,192,39864,128,0,40078:0:0:0:70:hihat.wav
192,192,39864,1,0,0:0:0:70:clap.wav
64,192,40078,128,0,40507:0:0:0:70:hihat.wav
320,192,40078,1,0,0:0:0:70:bassdrum.wav
192,192,40507,128,0,40935:0:0:0:70:hihat.wav
448,192,40507,1,0,0:0:0:70:bassdrum.wav
320,192,40721,1,0,0:0:0:70:clap.wav
448,192,40935,128,0,41149:0:0:0:70:hihat.wav
64,192,41149,128,0,41792:0:0:0:70:hihat.wav
320,192,41149,1,0,0:0:0:70:bassdrum.wav
448,192,41578,1,0,0:0:0:70:clap.wav
320,192,41792,128,0,42649:0:0:0:70:hihat.wav
192,192,41792,1,0,0:0:0:70:bassdrum.wav
192,192,42221,1,0,0:0:0:70:bassdrum.wav
64,192,42435,1,0,0:0:0:70:clap.wav
448,192,42649,128,0,43078:0:0:0:70:hihat.wav
64,192,42864,1,0,0:0:0:70:bassdrum.wav
192,192,43078,128,0,43292:0:0:0:70:hihat.wav
320,192,43292,128,0,43507:0:0:0:70:hihat.wav
64,192,43292,1,0,0:0:0:70:clap.wav
448,192,43507,128,0,44578:0:0:0:70:hihat.wav
192,192,43507,1,0,0:0:0:70:bassdrum.wav
192,192,43935,1,0,0:0:0:70:bassdrum.wav
64,192,44149,1,0,0:0:0:70:clap.wav
64,192,44578,1,0,0:0:0:70:cymbol.wav
320,192,44578,1,0,0:0:0:70:bassdrum.wav
192,192,44685,1,0,0:0:0:70:hihat.wav
320,192,44792,1,0,0:0:0:70:hihat.wav
64,192,45007,1,0,0:0:0:70:hihat.wav
448,192,45007,1,0,0:0:0:70:clap.wav
320,192,45114,1,0,0:0:0:70:hihat.wav
192,192,45221,1,0,0:0:0:70:hihat.wav
64,192,45435,1,0,0:0:0:70:hihat.wav
192,192,45542,1,0,0:0:0:70:hihat.wav
320,192,45649,1,0,0:0:0:70:bassdrum.wav
448,192,45864,1,0,0:0:0:70:hihat.wav
192,192,45864,1,0,0:0:0:70:clap.wav
320,192,45971,1,0,0:0:0:70:hihat.wav
192,192,46078,1,0,0:0:0:70:hihat.wav
448,192,46292,1,0,0:0:0:70:hihat.wav
192,192,46292,1,0,0:0:0:70:bassdrum.wav
320,192,46399,1,0,0:0:0:70:hihat.wav
448,192,46507,1,0,0:0:0:70:hihat.wav
448,192,46720,1,0,0:0:0:70:hihat.wav
64,192,46721,1,0,0:0:0:70:clap.wav
192,192,46935,1,0,0:0:0:70:bassdrum.wav
320,192,47149,1,0,0:0:0:70:hihat.wav
192,192,47257,1,0,0:0:0:70:hihat.wav
64,192,47364,1,0,0:0:0:70:bassdrum.wav
192,192,47578,1,0,0:0:0:70:hihat.wav
448,192,47578,1,0,0:0:0:70:clap.wav
320,192,47792,1,0,0:0:0:70:bassdrum.wav
448,192,48007,1,0,0:0:0:70:hihat.wav
64,192,48007,1,0,0:0:0:70:bassdrum.wav
320,192,48114,1,0,0:0:0:70:hihat.wav
192,192,48221,1,0,0:0:0:70:hihat.wav
64,192,48435,1,0,0:0:0:70:hihat.wav
448,192,48435,1,0,0:0:0:70:clap.wav
320,192,48542,1,0,0:0:0:70:hihat.wav
192,192,48649,1,0,0:0:0:70:hihat.wav
64,192,48864,1,0,0:0:0:70:hihat.wav
192,192,48971,1,0,0:0:0:70:hihat.wav
320,192,49078,1,0,0:0:0:70:bassdrum.wav
64,192,49292,1,0,0:0:0:70:hihat.wav
448,192,49292,1,0,0:0:0:70:clap.wav
192,192,49399,1,0,0:0:0:70:hihat.wav
320,192,49507,1,0,0:0:0:70:hihat.wav
64,192,49721,1,0,0:0:0:70:hihat.wav
448,192,49721,1,0,0:0:0:70:bassdrum.wav
320,192,49721,1,0,0:0:0:70:snare.wav
192,192,49828,1,0,0:0:0:70:snare.wav
320,192,49935,1,0,0:0:0:70:snare.wav
448,192,50042,1,0,0:0:0:70:snare.wav
448,192,50149,1,0,0:0:0:70:snare.wav
64,192,50149,1,0,0:0:0:70:bassdrum.wav
192,192,50149,1,0,0:0:0:70:cymbol.wav
320,192,50257,1,0,0:0:0:70:snare.wav
192,192,50364,1,0,0:0:0:70:snare.wav
64,192,50471,1,0,0:0:0:70:snare.wav
448,192,50578,1,0,0:0:0:70:bassdrum.wav
64,192,50578,1,0,0:0:0:70:snare.wav
320,192,50578,1,0,0:0:0:70:cymbol.wav
192,192,50685,1,0,0:0:0:70:snare.wav
320,192,50792,1,0,0:0:0:70:snare.wav
448,192,50899,1,0,0:0:0:70:snare.wav
64,192,51007,1,0,0:0:0:70:bassdrum.wav
192,192,51060,1,0,0:0:0:70:bassdrum.wav
448,192,51114,1,0,0:0:0:70:bassdrum.wav
320,192,51167,1,0,0:0:0:70:bassdrum.wav
64,192,51221,1,0,0:0:0:70:bassdrum.wav
192,192,51274,1,0,0:0:0:70:bassdrum.wav
448,192,51328,1,0,0:0:0:70:bassdrum.wav
320,192,51382,1,0,0:0:0:70:bassdrum.wav
64,192,51435,1,0,0:0:0:70:bassdrum.wav
448,192,51435,1,0,0:0:0:70:cymbol.wav
448,192,52292,1,0,0:0:0:70:cymbol.wav
192,192,52292,1,0,0:0:0:70:bassdrum.wav
320,192,53149,1,0,0:0:0:70:cymbol.wav
64,192,53149,1,0,0:0:0:70:bassdrum.wav
448,192,53578,1,0,0:0:0:70:bassdrum.wav
192,192,53578,1,0,0:0:0:70:cymbol.wav
320,192,54007,1,0,0:0:0:70:bassdrum.wav
64,192,54007,1,0,0:0:0:70:cymbol.wav
64,192,54435,1,0,0:0:0:70:bassdrum.wav
320,192,54435,1,0,0:0:0:70:cymbol.wav
448,192,54489,1,0,0:0:0:70:snare.wav
320,192,54542,1,0,0:0:0:70:snare.wav
192,192,54596,1,0,0:0:0:70:snare.wav
64,192,54649,1,0,0:0:0:70:snare.wav
448,192,54703,1,0,0:0:0:70:snare.wav
320,192,54757,1,0,0:0:0:70:snare.wav
192,192,54810,1,0,0:0:0:70:snare.wav
448,192,54864,1,0,0:0:0:70:cymbol.wav
64,192,54864,1,0,0:0:0:70:snare.wav
320,192,54864,1,0,0:0:0:70:bassdrum.wav
192,192,54971,1,0,0:0:0:70:hihat.wav
320,192,55078,1,0,0:0:0:70:hihat.wav
64,192,55292,1,0,0:0:0:70:clap.wav
448,192,55292,1,0,0:0:0:70:hihat.wav
448,192,55507,128,0,55721:0:0:0:70:hihat.wav
64,192,55721,1,0,0:0:0:70:hihat.wav
192,192,55828,1,0,0:0:0:70:hihat.wav
320,192,55935,1,0,0:0:0:70:bassdrum.wav
192,192,56149,1,0,0:0:0:70:hihat.wav
320,192,56149,1,0,0:0:0:70:clap.wav
64,192,56364,128,0,56578:0:0:0:70:hihat.wav
448,192,56578,1,0,0:0:0:70:bassdrum.wav
320,192,56685,1,0,0:0:0:70:hihat.wav
192,192,56792,1,0,0:0:0:70:hihat.wav
448,192,57007,1,0,0:0:0:70:hihat.wav
64,192,57007,1,0,0:0:0:70:clap.wav
64,192,57221,128,0,57435:0:0:0:70:hihat.wav
320,192,57435,1,0,0:0:0:70:hihat.wav
192,192,57542,1,0,0:0:0:70:hihat.wav
64,192,57649,1,0,0:0:0:70:bassdrum.wav
192,192,57864,1,0,0:0:0:70:hihat.wav
320,192,57864,1,0,0:0:0:70:clap.wav
448,192,58078,128,0,58292:0:0:0:70:bassdrum.wav
64,192,58292,1,0,0:0:0:70:bassdrum.wav
192,192,58399,1,0,0:0:0:70:hihat.wav
320,192,58507,1,0,0:0:0:70:hihat.wav
64,192,58721,1,0,0:0:0:70:clap.wav
448,192,58721,1,0,0:0:0:70:hihat.wav
64,192,58935,128,0,59149:0:0:0:70:hihat.wav
448,192,59149,1,0,0:0:0:70:hihat.wav
320,192,59257,1,0,0:0:0:70:hihat.wav
192,192,59364,1,0,0:0:0:70:bassdrum.wav
64,192,59578,1,0,0:0:0:70:hihat.wav
448,192,59578,1,0,0:0:0:70:clap.wav
64,192,59792,128,0,60007:0:0:0:70:hihat.wav
320,192,60007,1,0,0:0:0:70:bassdrum.wav
192,192,60114,1,0,0:0:0:70:hihat.wav
64,192,60221,1,0,0:0:0:70:hihat.wav
192,192,60435,1,0,0:0:0:70:hihat.wav
320,192,60435,1,0,0:0:0:70:clap.wav
448,192,60649,128,0,60864:0:0:0:70:hihat.wav
64,192,60864,1,0,0:0:0:70:hihat.wav
192,192,60971,1,0,0:0:0:70:hihat.wav
320,192,61078,1,0,0:0:0:70:bassdrum.wav
64,192,61292,1,0,0:0:0:70:clap.wav
320,192,61292,1,0,0:0:0:70:hihat.wav
192,192,61507,128,0,61721:0:0:0:70:bassdrum.wav
320,192,61721,1,0,0:0:0:70:hihat.wav
64,192,61721,1,0,0:0:0:70:bassdrum.wav
192,192,62149,1,0,0:0:0:70:hihat.wav
320,192,62149,1,0,0:0:0:70:clap.wav
448,192,62578,1,0,0:0:0:70:hihat.wav
320,192,62685,1,0,0:0:0:70:hihat.wav
192,192,62792,1,0,0:0:0:70:bassdrum.wav
64,192,63007,1,0,0:0:0:70:hihat.wav
448,192,63007,1,0,0:0:0:70:clap.wav
448,192,63221,128,0,63435:0:0:0:70:hihat.wav
64,192,63435,1,0,0:0:0:70:bassdrum.wav
192,192,63542,1,0,0:0:0:70:hihat.wav
320,192,63649,1,0,0:0:0:70:hihat.wav
192,192,63864,1,0,0:0:0:70:clap.wav
320,192,63864,1,0,0:0:0:70:hihat.wav
448,192,64078,128,0,64292:0:0:0:70:hihat.wav
192,192,64292,1,0,0:0:0:70:hihat.wav
320,192,64399,1,0,0:0:0:70:hihat.wav
448,192,64507,1,0,0:0:0:70:bassdrum.wav
448,192,64721,1,0,0:0:0:70:clap.wav
64,192,64721,1,0,0:0:0:70:hihat.wav
64,192,64935,128,0,65149:0:0:0:70:bassdrum.wav
448,192,65149,1,0,0:0:0:70:bassdrum.wav
320,192,65257,1,0,0:0:0:70:hihat.wav
192,192,65364,1,0,0:0:0:70:hihat.wav
64,192,65578,1,0,0:0:0:70:clap.wav
448,192,65578,1,0,0:0:0:70:hihat.wav
448,192,65792,128,0,66007:0:0:0:70:hihat.wav
64,192,66007,1,0,0:0:0:70:hihat.wav
192,192,66114,1,0,0:0:0:70:hihat.wav
320,192,66221,1,0,0:0:0:70:bassdrum.wav
192,192,66435,1,0,0:0:0:70:hihat.wav
320,192,66435,1,0,0:0:0:70:clap.wav
448,192,66649,128,0,66864:0:0:0:70:hihat.wav
320,192,66864,1,0,0:0:0:70:bassdrum.wav
64,192,66864,1,0,0:0:0:70:cymbol.wav
192,192,66864,1,0,0:0:0:70:snare.wav
448,192,66971,1,0,0:0:0:70:snare.wav
320,192,67078,1,0,0:0:0:70:snare.wav
64,192,67185,1,0,0:0:0:70:snare.wav
320,192,67292,1,0,0:0:0:70:cymbol.wav
192,192,67292,1,0,0:0:0:70:snare.wav
448,192,67292,1,0,0:0:0:70:bassdrum.wav
64,192,67399,1,0,0:0:0:70:snare.wav
192,192,67507,1,0,0:0:0:70:snare.wav
448,192,67614,1,0,0:0:0:70:snare.wav
64,192,67721,1,0,0:0:0:70:cymbol.wav
320,192,67721,1,0,0:0:0:70:bassdrum.wav
192,192,67721,1,0,0:0:0:70:snare.wav
448,192,67828,1,0,0:0:0:70:snare.wav
320,192,67935,1,0,0:0:0:70:snare.wav
64,192,68042,1,0,0:0:0:70:snare.wav
448,192,68149,1,0,0:0:0:70:bassdrum.wav
320,192,68203,1,0,0:0:0:70:bassdrum.wav
64,192,68257,1,0,0:0:0:70:bassdrum.wav
192,192,68310,1,0,0:0:0:70:bassdrum.wav
448,192,68364,1,0,0:0:0:70:bassdrum.wav
320,192,68417,1,0,0:0:0:70:bassdrum.wav
64,192,68471,1,0,0:0:0:70:bassdrum.wav
192,192,68524,1,0,0:0:0:70:bassdrum.wav
448,192,68578,1,0,0:0:0:70:hihat.wav
64,192,69864,1,0,0:0:0:8:hihat.wav
192,192,69971,1,0,0:0:0:8:hihat.wav
320,192,70078,1,0,0:0:0:8:hihat.wav
448,192,70185,1,0,0:0:0:8:hihat.wav
192,192,70292,1,0,0:0:0:70:bassdrum.wav
64,192,70292,1,0,0:0:0:70:cymbol.wav
320,192,70292,128,0,70614:0:0:0:8:hihat.wav
448,192,70614,128,0,70935:0:0:0:8:hihat.wav
192,192,70935,128,0,71364:0:0:0:8:hihat.wav
320,192,71364,128,0,71792:0:0:0:8:hihat.wav
64,192,71792,1,0,0:0:0:70:bassdrum.wav
192,192,71899,1,0,0:0:0:8:hihat.wav
64,192,72007,128,0,72328:0:0:0:70:bassdrum.wav
448,192,72328,128,0,72649:0:0:0:8:hihat.wav
192,192,72649,128,0,73078:0:0:0:8:hihat.wav
320,192,73078,128,0,73507:0:0:0:8:hihat.wav
64,192,73507,1,0,0:0:0:70:bassdrum.wav
192,192,73507,1,0,0:0:0:70:cymbol.wav
448,192,73507,128,0,73721:0:0:0:8:hihat.wav
64,192,73721,1,0,0:0:0:70:cymbol.wav
192,192,73721,1,0,0:0:0:70:bassdrum.wav
320,192,73721,128,0,74364:0:0:0:8:hihat.wav
64,192,74364,128,0,75221:0:0:0:8:hihat.wav
448,192,74364,128,0,75007:0:0:0:8:hihat.wav
192,192,75221,128,0,75649:0:0:0:8:hihat.wav
320,192,75221,1,0,0:0:0:70:bassdrum.wav
64,192,75649,128,0,75864:0:0:0:8:hihat.wav
320,192,75864,128,0,76078:0:0:0:8:hihat.wav
448,192,76078,128,0,76721:0:0:0:8:hihat.wav
192,192,76078,128,0,77149:0:0:0:8:hihat.wav
320,192,76507,1,0,0:0:0:70:bassdrum.wav
64,192,76721,1,0,0:0:0:70:bassdrum.wav
64,192,77149,1,0,0:0:0:70:bassdrum.wav
448,192,77149,1,0,0:0:0:70:cymbol.wav
320,192,77257,1,0,0:0:0:70:hihat.wav
192,192,77364,1,0,0:0:0:70:hihat.wav
64,192,77578,1,0,0:0:0:70:hihat.wav
192,192,77685,1,0,0:0:0:70:hihat.wav
320,192,77792,1,0,0:0:0:70:hihat.wav
448,192,78007,1,0,0:0:0:70:hihat.wav
320,192,78114,1,0,0:0:0:70:hihat.wav
192,192,78221,1,0,0:0:0:70:hihat.wav
64,192,78435,1,0,0:0:0:70:hihat.wav
192,192,78542,1,0,0:0:0:70:hihat.wav
320,192,78649,1,0,0:0:0:70:bassdrum.wav
320,192,78864,1,0,0:0:0:70:bassdrum.wav
192,192,78971,1,0,0:0:0:70:hihat.wav
64,192,79078,1,0,0:0:0:70:hihat.wav
320,192,79292,1,0,0:0:0:70:hihat.wav
192,192,79399,1,0,0:0:0:70:hihat.wav
64,192,79507,1,0,0:0:0:70:hihat.wav
192,192,79721,1,0,0:0:0:70:hihat.wav
320,192,79828,1,0,0:0:0:70:hihat.wav
448,192,79935,1,0,0:0:0:70:hihat.wav
192,192,80149,1,0,0:0:0:70:hihat.wav
320,192,80257,1,0,0:0:0:70:hihat.wav
448,192,80364,1,0,0:0:0:70:hihat.wav
320,192,80578,1,0,0:0:0:70:hihat.wav
192,192,80685,1,0,0:0:0:70:hihat.wav
320,192,80792,1,0,0:0:0:70:hihat.wav
192,192,80899,1,0,0:0:0:70:hihat.wav
64,192,81007,1,0,0:0:0:70:hihat.wav
448,192,81114,1,0,0:0:0:70:hihat.wav
320,192,81221,1,0,0:0:0:70:hihat.wav
192,192,81328,1,0,0:0:0:70:hihat.wav
320,192,81435,1,0,0:0:0:70:hihat.wav
192,192,81542,1,0,0:0:0:70:hihat.wav
64,192,81649,1,0,0:0:0:70:hihat.wav
448,192,81757,1,0,0:0:0:70:hihat.wav
192,192,81864,1,0,0:0:0:70:hihat.wav
320,192,81971,1,0,0:0:0:70:hihat.wav
192,192,82078,1,0,0:0:0:70:hihat.wav
320,192,82185,1,0,0:0:0:70:hihat.wav
64,192,82292,1,0,0:0:0:70:hihat.wav
448,192,82399,1,0,0:0:0:70:hihat.wav
192,192,82507,1,0,0:0:0:70:hihat.wav
320,192,82614,1,0,0:0:0:70:hihat.wav
192,192,82721,1,0,0:0:0:70:hihat.wav
320,192,82828,1,0,0:0:0:70:hihat.wav
64,192,82935,1,0,0:0:0:70:hihat.wav
192,192,83042,1,0,0:0:0:70:hihat.wav
320,192,83149,1,0,0:0:0:70:hihat.wav
448,192,83257,1,0,0:0:0:70:hihat.wav
320,192,83364,1,0,0:0:0:70:hihat.wav
192,192,83471,1,0,0:0:0:70:hihat.wav
320,192,83578,1,0,0:0:0:70:bassdrum.wav
320,192,83685,1,0,0:0:0:70:bassdrum.wav
320,192,83792,128,0,84007:0:0:0:70:bassdrum.wav
448,192,84007,128,0,84435:0:0:0:70:hihat.wav
64,192,84007,1,0,0:0:0:70:bassdrum.wav
192,192,84007,1,0,0:0:0:70:cymbol.wav
320,192,84435,128,0,84649:0:0:0:70:hihat.wav
64,192,84435,1,0,0:0:0:70:clap.wav
192,192,84649,128,0,85078:0:0:0:70:hihat.wav
448,192,84649,1,0,0:0:0:70:bassdrum.wav
320,192,85078,128,0,85507:0:0:0:70:hihat.wav
64,192,85078,1,0,0:0:0:70:bassdrum.wav
448,192,85292,1,0,0:0:0:70:clap.wav
64,192,85507,1,0,0:0:0:70:hihat.wav
192,192,85614,1,0,0:0:0:70:hihat.wav
64,192,85721,128,0,86149:0:0:0:70:hihat.wav
320,192,85721,1,0,0:0:0:70:bassdrum.wav
320,192,86149,128,0,86364:0:0:0:70:hihat.wav
192,192,86149,1,0,0:0:0:70:clap.wav
192,192,86364,128,0,86792:0:0:0:70:hihat.wav
448,192,86364,1,0,0:0:0:70:bassdrum.wav
448,192,86792,128,0,87221:0:0:0:70:hihat.wav
64,192,86792,1,0,0:0:0:70:bassdrum.wav
192,192,87007,1,0,0:0:0:70:clap.wav
192,192,87221,128,0,87435:0:0:0:70:hihat.wav
64,192,87435,128,0,88078:0:0:0:70:hihat.wav
320,192,87435,1,0,0:0:0:70:bassdrum.wav
320,192,87864,1,0,0:0:0:70:clap.wav
448,192,88078,128,0,88935:0:0:0:70:hihat.wav
192,192,88078,1,0,0:0:0:70:bassdrum.wav
64,192,88507,1,0,0:0:0:70:bassdrum.wav
192,192,88721,1,0,0:0:0:70:clap.wav
64,192,88935,128,0,89364:0:0:0:70:hihat.wav
320,192,89149,1,0,0:0:0:70:bassdrum.wav
320,192,89364,128,0,89578:0:0:0:70:hihat.wav
192,192,89578,128,0,89792:0:0:0:70:hihat.wav
448,192,89578,1,0,0:0:0:70:clap.wav
448,192,89792,128,0,90864:0:0:0:70:hihat.wav
64,192,89792,1,0,0:0:0:70:bassdrum.wav
192,192,90221,1,0,0:0:0:70:bassdrum.wav
64,192,90435,1,0,0:0:0:70:clap.wav
64,192,90864,1,0,0:0:0:70:cymbol.wav
192,192,90864,1,0,0:0:0:70:bassdrum.wav
320,192,90971,1,0,0:0:0:70:hihat.wav
448,192,91078,1,0,0:0:0:70:hihat.wav
320,192,91292,1,0,0:0:0:70:clap.wav
448,192,91292,128,0,91507:0:0:0:70:hihat.wav
192,192,91399,1,0,0:0:0:70:hihat.wav
64,192,91507,1,0,0:0:0:70:hihat.wav
192,192,91721,128,0,91935:0:0:0:70:hihat.wav
320,192,91828,1,0,0:0:0:70:hihat.wav
448,192,91935,1,0,0:0:0:70:bassdrum.wav
320,192,92149,1,0,0:0:0:70:clap.wav
448,192,92149,128,0,92364:0:0:0:70:hihat.wav
192,192,92257,1,0,0:0:0:70:hihat.wav
64,192,92364,1,0,0:0:0:70:hihat.wav
64,192,92578,1,0,0:0:0:70:bassdrum.wav
448,192,92578,1,0,0:0:0:70:hihat.wav
192,192,92685,1,0,0:0:0:70:hihat.wav
320,192,92792,1,0,0:0:0:70:hihat.wav
448,192,93007,1,0,0:0:0:70:clap.wav
64,192,93007,128,0,93221:0:0:0:70:hihat.wav
320,192,93221,1,0,0:0:0:70:bassdrum.wav
448,192,93435,128,0,93649:0:0:0:70:hihat.wav
320,192,93542,1,0,0:0:0:70:hihat.wav
192,192,93649,1,0,0:0:0:70:bassdrum.wav
64,192,93864,128,0,94078:0:0:0:70:hihat.wav
448,192,93864,1,0,0:0:0:70:clap.wav
192,192,94078,1,0,0:0:0:70:bassdrum.wav
320,192,94292,1,0,0:0:0:70:bassdrum.wav
64,192,94292,1,0,0:0:0:70:hihat.wav
192,192,94399,1,0,0:0:0:70:hihat.wav
64,192,94507,1,0,0:0:0:70:hihat.wav
64,192,94721,128,0,94935:0:0:0:70:hihat.wav
192,192,94721,1,0,0:0:0:70:clap.wav
320,192,94828,1,0,0:0:0:70:hihat.wav
448,192,94935,1,0,0:0:0:70:hihat.wav
320,192,95149,128,0,95364:0:0:0:70:hihat.wav
192,192,95257,1,0,0:0:0:70:hihat.wav
64,192,95364,1,0,0:0:0:70:bassdrum.wav
64,192,95578,128,0,95792:0:0:0:70:hihat.wav
192,192,95578,1,0,0:0:0:70:clap.wav
320,192,95685,1,0,0:0:0:70:hihat.wav
448,192,95792,1,0,0:0:0:70:hihat.wav
320,192,96007,1,0,0:0:0:70:cymbol.wav
192,192,96007,1,0,0:0:0:70:bassdrum.wav
448,192,96007,128,0,96221:0:0:0:70:snare.wav
64,192,96114,1,0,0:0:0:70:snare.wav
192,192,96221,1,0,0:0:0:70:snare.wav
320,192,96328,1,0,0:0:0:70:snare.wav
64,192,96435,1,0,0:0:0:70:cymbol.wav
320,192,96435,1,0,0:0:0:70:bassdrum.wav
192,192,96435,1,0,0:0:0:70:snare.wav
448,192,96542,1,0,0:0:0:70:snare.wav
320,192,96649,1,0,0:0:0:70:snare.wav
64,192,96649,128,0,96864:0:0:0:70:hihat.wav
192,192,96757,1,0,0:0:0:70:snare.wav
192,192,96864,1,0,0:0:0:70:bassdrum.wav
448,192,96864,1,0,0:0:0:70:cymbol.wav
320,192,96864,1,0,0:0:0:0:
64,192,96971,1,0,0:0:0:70:snare.wav
192,192,97078,1,0,0:0:0:70:snare.wav
320,192,97185,1,0,0:0:0:70:snare.wav
448,192,97292,1,0,0:0:0:70:snare.wav
320,192,97399,1,0,0:0:0:70:snare.wav
192,192,97507,1,0,0:0:0:70:snare.wav
64,192,97614,1,0,0:0:0:70:snare.wav
192,192,97721,128,0,98149:0:0:0:70:hihat.wav
320,192,97721,1,0,0:0:0:70:bassdrum.wav
448,192,97721,1,0,0:0:0:70:cymbol.wav
320,192,98149,128,0,98364:0:0:0:70:hihat.wav
64,192,98149,1,0,0:0:0:70:clap.wav
448,192,98364,1,0,0:0:0:70:bassdrum.wav
192,192,98364,128,0,98792:0:0:0:70:hihat.wav
320,192,98792,128,0,99221:0:0:0:70:hihat.wav
64,192,98792,1,0,0:0:0:70:bassdrum.wav
192,192,99007,1,0,0:0:0:70:clap.wav
64,192,99221,1,0,0:0:0:70:hihat.wav
448,192,99328,1,0,0:0:0:70:hihat.wav
192,192,99435,128,0,99864:0:0:0:70:hihat.wav
320,192,99435,1,0,0:0:0:70:bassdrum.wav
448,192,99864,128,0,100078:0:0:0:70:hihat.wav
64,192,99864,1,0,0:0:0:70:clap.wav
320,192,100078,128,0,100507:0:0:0:70:hihat.wav
192,192,100078,1,0,0:0:0:70:bassdrum.wav
192,192,100507,128,0,100935:0:0:0:70:hihat.wav
448,192,100507,1,0,0:0:0:70:bassdrum.wav
320,192,100721,1,0,0:0:0:70:clap.wav
320,192,100935,128,0,101149:0:0:0:70:hihat.wav
64,192,101149,128,0,101792:0:0:0:70:hihat.wav
448,192,101149,1,0,0:0:0:70:bassdrum.wav
320,192,101578,1,0,0:0:0:70:clap.wav
192,192,101792,128,0,102649:0:0:0:70:hihat.wav
448,192,101792,1,0,0:0:0:70:bassdrum.wav
448,192,102221,1,0,0:0:0:70:bassdrum.wav
320,192,102435,1,0,0:0:0:70:clap.wav
448,192,102649,128,0,103078:0:0:0:70:hihat.wav
64,192,102864,1,0,0:0:0:70:bassdrum.wav
320,192,103078,128,0,103292:0:0:0:70:hihat.wav
192,192,103292,128,0,103507:0:0:0:70:hihat.wav
448,192,103292,1,0,0:0:0:70:clap.wav
64,192,103507,128,0,104578:0:0:0:70:hihat.wav
320,192,103507,1,0,0:0:0:70:bassdrum.wav
448,192,103935,1,0,0:0:0:70:bassdrum.wav
320,192,104149,1,0,0:0:0:70:clap.wav
448,192,104578,1,0,0:0:0:70:cymbol.wav
320,192,104578,1,0,0:0:0:70:bassdrum.wav
192,192,104685,1,0,0:0:0:70:hihat.wav
320,192,104792,1,0,0:0:0:70:hihat.wav
64,192,105007,1,0,0:0:0:70:clap.wav
448,192,105007,128,0,105221:0:0:0:70:hihat.wav
192,192,105114,1,0,0:0:0:70:hihat.wav
320,192,105221,1,0,0:0:0:70:hihat.wav
448,192,105435,128,0,105649:0:0:0:70:hihat.wav
320,192,105542,1,0,0:0:0:70:hihat.wav
192,192,105649,1,0,0:0:0:70:bassdrum.wav
448,192,105864,1,0,0:0:0:70:clap.wav
64,192,105864,128,0,106078:0:0:0:70:hihat.wav
320,192,105971,1,0,0:0:0:70:hihat.wav
192,192,106078,1,0,0:0:0:70:hihat.wav
320,192,106292,128,0,106507:0:0:0:70:bassdrum.wav
192,192,106399,1,0,0:0:0:70:hihat.wav
64,192,106507,1,0,0:0:0:70:hihat.wav
64,192,106721,1,0,0:0:0:70:hihat.wav
448,192,106721,1,0,0:0:0:70:clap.wav
448,192,106935,128,0,107149:0:0:0:70:hihat.wav
320,192,106935,1,0,0:0:0:70:bassdrum.wav
192,192,107149,1,0,0:0:0:70:hihat.wav
320,192,107257,1,0,0:0:0:70:hihat.wav
448,192,107364,1,0,0:0:0:70:bassdrum.wav
64,192,107578,1,0,0:0:0:70:clap.wav
320,192,107578,128,0,107792:0:0:0:70:hihat.wav
192,192,107792,1,0,0:0:0:70:bassdrum.wav
448,192,108007,1,0,0:0:0:70:hihat.wav
192,192,108007,1,0,0:0:0:70:bassdrum.wav
320,192,108114,1,0,0:0:0:70:hihat.wav
192,192,108221,1,0,0:0:0:70:hihat.wav
64,192,108435,1,0,0:0:0:70:clap.wav
448,192,108435,128,0,108649:0:0:0:70:hihat.wav
192,192,108542,1,0,0:0:0:70:hihat.wav
320,192,108649,1,0,0:0:0:70:hihat.wav
448,192,108864,128,0,109078:0:0:0:70:hihat.wav
320,192,108971,1,0,0:0:0:70:hihat.wav
192,192,109078,1,0,0:0:0:70:bassdrum.wav
64,192,109292,128,0,109507:0:0:0:70:hihat.wav
448,192,109292,1,0,0:0:0:70:clap.wav
192,192,109399,1,0,0:0:0:70:hihat.wav
320,192,109507,1,0,0:0:0:70:hihat.wav
448,192,109721,1,0,0:0:0:70:cymbol.wav
64,192,109721,128,0,109935:0:0:0:70:snare.wav
320,192,109721,1,0,0:0:0:70:bassdrum.wav
192,192,109828,1,0,0:0:0:70:snare.wav
320,192,109935,1,0,0:0:0:70:snare.wav
448,192,110042,1,0,0:0:0:70:snare.wav
64,192,110149,1,0,0:0:0:70:cymbol.wav
192,192,110149,1,0,0:0:0:70:snare.wav
448,192,110149,1,0,0:0:0:70:bassdrum.wav
320,192,110257,1,0,0:0:0:70:snare.wav
192,192,110364,128,0,110578:0:0:0:70:snare.wav
64,192,110471,1,0,0:0:0:70:snare.wav
64,192,110578,1,0,0:0:0:70:snare.wav
448,192,110578,1,0,0:0:0:70:cymbol.wav
320,192,110578,1,0,0:0:0:70:bassdrum.wav
192,192,110685,1,0,0:0:0:70:snare.wav
320,192,110792,1,0,0:0:0:70:snare.wav
448,192,110899,1,0,0:0:0:70:snare.wav
448,192,111007,1,0,0:0:0:70:snare.wav
320,192,111060,1,0,0:0:0:70:snare.wav
192,192,111114,1,0,0:0:0:70:snare.wav
64,192,111167,1,0,0:0:0:70:snare.wav
448,192,111221,1,0,0:0:0:70:snare.wav
320,192,111274,1,0,0:0:0:70:snare.wav
192,192,111328,1,0,0:0:0:70:snare.wav
64,192,111382,1,0,0:0:0:70:snare.wav
320,192,111435,1,0,0:0:0:70:bassdrum.wav
192,192,111435,1,0,0:0:0:70:cymbol.wav
448,192,111435,128,0,113149:0:0:0:0:
320,192,112078,128,0,114864:0:0:0:8:hihat.wav
192,192,112721,128,0,114864:0:0:0:8:hihat.wav
64,192,113149,128,0,115292:0:0:0:8:hihat.wav
