osu file format v13

[General]
AudioFilename: [Cytus] SHK - Halloween Party.mp3
AudioLeadIn: 0
PreviewTime: 53151
Countdown: 1
SampleSet: Normal
StackLeniency: 0.7
Mode: 0
LetterboxInBreaks: 1
WidescreenStoryboard: 1

[Editor]
DistanceSpacing: 1
BeatDivisor: 4
GridSize: 8
TimelineZoom: 1

[Metadata]
Title:Halloween Party
TitleUnicode:Halloween Party
Artist:SHK
ArtistUnicode:SHK
Creator:batwoman3
Version:Normal
Source:Cytus
Tags:Cytus SHK Halloween Party
BeatmapID:606619
BeatmapSetID:266181

[Difficulty]
HPDrainRate:4
CircleSize:3
OverallDifficulty:4
ApproachRate:5
SliderMultiplier:1
SliderTickRate:1

[Events]
//Background and Video events
0,0,"halloween party cytus.png",0,0
//Break Periods
2,19286,20983
//Storyboard Layer 0 (Background)
//Storyboard Layer 1 (Fail)
//Storyboard Layer 2 (Pass)
//Storyboard Layer 3 (Foreground)
//Storyboard Sound Samples

[TimingPoints]
6699.55824725112,387.096774193548,4,1,0,60,1,0
53151,-100,4,1,0,60,0,1
65538,-100,4,1,0,60,0,0
77925,-100,4,2,0,30,0,0
79473,-100,4,1,0,60,0,0
81022,-100,4,1,0,60,0,1
105796,-100,4,1,0,60,0,0

[Colours]
Combo1 : 255,192,0
Combo2 : 255,137,81
Combo3 : 232,116,0
Combo4 : 255,186,117

[HitObjects]
392,176,6699,6,0,P|352:136|320:152,1,100
240,163,7473,2,0,P|264:219|320:227,1,100
283,309,8247,6,0,P|355:293|363:261,1,100
440,293,9022,6,0,P|432:229|392:205,1,100
418,130,9796,5,0,0:0:0:0:
343,100,10183,1,0,0:0:0:0:
263,88,10570,1,0,0:0:0:0:
183,90,10957,1,8,0:0:0:0:
128,174,11344,5,0,0:0:0:0:
225,196,11731,1,0,0:0:0:0:
324,209,12118,1,0,0:0:0:0:
421,233,12506,1,8,0:0:0:0:
400,112,12893,5,4,0:0:0:0:
305,78,13280,1,0,0:0:0:0:
207,57,13667,2,0,L|199:113,2,50,0|0|8,0:0|0:0|0:0,0:0:0:0:
130,131,14441,6,0,P|162:179|218:171,1,100
298,200,15215,2,0,P|322:198|340:214,1,50
370,254,15602,1,8,0:0:0:0:
277,291,15989,5,0,0:0:0:0:
199,227,16376,2,0,P|184:160|216:128,1,100
248,120,16957,1,0,0:0:0:0:
248,120,17151,1,8,0:0:0:0:
144,208,17538,6,12,L|144:264,2,50,12|12|12,0:0|0:0|0:0,0:0:0:0:
224,267,18312,2,12,L|280:267,2,50,12|12|12,0:0|0:0|0:0,0:0:0:0:
157,341,19086,5,12,0:0:0:0:
256,192,22183,5,4,0:0:0:0:
200,240,22570,1,0,0:0:0:0:
152,296,22957,1,0,0:0:0:0:
232,304,23344,1,0,0:0:0:0:
328,296,23731,5,0,0:0:0:0:
328,224,24118,1,0,0:0:0:0:
328,160,24506,1,8,0:0:0:0:
144,96,25280,6,0,B|264:112|272:144|272:144|336:160,1,200,4|0,0:0|0:0,0:0:0:0:
336,56,26441,1,8,0:0:0:0:
432,104,26828,2,0,L|432:208,1,100
384,288,27602,1,8,0:0:0:0:
208,208,28376,5,4,0:0:0:0:
304,216,28764,1,2,0:0:0:0:
304,128,29151,2,0,P|240:96|216:112,1,100,8|0,0:0|0:0,0:0:0:0:
142,142,29925,2,0,P|104:112|104:64,2,100,0|0|8,0:0|0:0|0:0,0:0:0:0:
208,160,31473,5,4,0:0:0:0:
160,208,31860,1,0,0:0:0:0:
200,264,32247,1,8,0:0:0:0:
264,272,32635,1,0,0:0:0:0:
352,288,33022,6,0,P|368:224|336:200,1,100
296,160,33796,2,0,L|280:96,3,50,8|0|0|0,0:0|0:0|0:0|0:0,0:0:0:0:
288,64,34570,5,4,0:0:0:0:
376,112,34957,1,8,0:0:0:0:
424,232,35344,2,0,L|368:240,1,50
328,248,35731,1,0,0:0:0:0:
311,135,36118,6,0,P|236:89|193:128,1,150
168,160,36893,1,0,0:0:0:0:
112,240,37280,1,8,0:0:0:0:
208,304,37667,6,0,P|280:320|304:296,1,100
384,256,38441,2,0,L|392:328,2,50,0|0|8,0:0|0:0|0:0,0:0:0:0:
392,136,39215,5,0,0:0:0:0:
287,128,39602,1,0,0:0:0:0:
183,133,39989,1,0,0:0:0:0:
80,144,40376,1,8,0:0:0:0:
120,232,40764,5,4,0:0:0:0:
192,296,41151,1,0,0:0:0:0:
208,200,41538,2,0,P|272:224|264:256,1,100,0|8,0:0|0:0,0:0:0:0:
361,234,42312,5,0,0:0:0:0:
200,112,43086,1,0,0:0:0:0:
118,184,43473,1,8,0:0:0:0:
104,280,43860,6,0,P|208:280|296:216,2,200,0|8|0,0:0|0:0|0:0,0:0:0:0:
64,184,45796,1,0,0:0:0:0:
152,136,46183,1,0,0:0:0:0:
412,86,46957,5,4,0:0:0:0:
418,178,47344,1,8,0:0:0:0:
388,269,47731,1,0,0:0:0:0:
296,315,48118,1,8,0:0:0:0:
296,216,48506,6,0,P|272:176|216:152,1,100,0|8,0:0|0:0,0:0:0:0:
136,213,49280,1,0,0:0:0:0:
72,328,50054,6,0,L|72:224,1,100,8|0,0:0|0:0,0:0:0:0:
72,128,50828,2,0,L|192:128,1,100,8|0,0:0|0:0,0:0:0:0:
264,128,51602,6,0,L|264:248,1,100,8|0,0:0|0:0,0:0:0:0:
264,328,52376,1,8,0:0:0:0:
110,301,53151,5,4,0:0:0:0:
112,192,53538,2,0,P|112:136|152:136,2,100,0|8|0,0:0|0:0|0:0,0:0:0:0:
208,160,54699,5,4,0:0:0:0:
216,256,55086,2,0,P|304:256|320:240,2,100,0|8|0,0:0|0:0|0:0,0:0:0:0:
121,211,56247,5,4,0:0:0:0:
32,120,56635,2,0,P|96:96|96:64,2,100,0|8|0,0:0|0:0|0:0,0:0:0:0:
208,128,57796,6,0,L|208:200,3,50,4|0|0|0,0:0|0:0|0:0|0:0,0:0:0:0:
208,232,58570,1,4,0:0:0:0:
288,280,58957,1,4,0:0:0:0:
368,248,59344,5,4,0:0:0:0:
400,152,59731,2,0,P|400:80|368:64,1,100,0|0,0:0|0:0,0:0:0:0:
288,96,60506,1,8,0:0:0:0:
208,160,60893,5,4,0:0:0:0:
163,239,61280,2,0,L|64:232,1,100,0|0,0:0|0:0,0:0:0:0:
112,320,62054,1,8,0:0:0:0:
216,328,62441,5,4,0:0:0:0:
256,240,62828,2,0,P|272:184|248:144,1,100
168,128,63602,1,8,0:0:0:0:
80,120,63989,6,0,P|48:152|56:168,3,50,4|0|8|0,0:0|0:0|0:0|0:0,0:0:0:0:
48,200,64764,2,0,P|56:232|88:240,3,50,0|0|8|0,0:0|0:0|0:0|0:0,0:0:0:0:
112,256,65538,5,4,0:0:0:0:
208,216,65925,1,0,0:0:0:0:
280,144,66312,1,0,0:0:0:0:
280,144,66506,1,0,0:0:0:0:
280,144,66699,1,8,0:0:0:0:
181,119,67086,5,0,0:0:0:0:
104,184,67473,2,0,P|104:248|144:264,1,100
208,318,68247,1,8,0:0:0:0:
325,318,68635,5,4,0:0:0:0:
384,216,69022,1,0,0:0:0:0:
320,144,69409,2,0,L|280:104,2,50,0|0|8,0:0|0:0|0:0,0:0:0:0:
200,112,70183,6,0,L|152:128,2,50,0|0|0,0:0|0:0|0:0,0:0:0:0:
240,200,70957,2,0,L|192:224,2,50,0|0|0,0:0|0:0|0:0,0:0:0:0:
192,304,71731,5,4,0:0:0:0:
248,208,72118,1,0,0:0:0:0:
312,128,72505,1,0,0:0:0:0:
312,128,72699,1,0,0:0:0:0:
312,128,72892,1,8,0:0:0:0:
181,119,73279,5,0,0:0:0:0:
64,192,73666,2,0,P|64:256|104:272,1,100
176,296,74440,1,8,0:0:0:0:
288,304,74828,5,4,0:0:0:0:
368,232,75215,1,0,0:0:0:0:
320,144,75602,2,0,L|280:104,2,50,0|0|8,0:0|0:0|0:0,0:0:0:0:
200,112,76376,6,0,L|152:128,2,50,0|0|0,0:0|0:0|0:0,0:0:0:0:
240,200,77150,2,0,L|192:224,2,50,0|0|0,0:0|0:0|0:0,0:0:0:0:
288,320,77925,6,0,P|328:312|328:288,3,50,0|0|0|0,0:0|0:0|0:0|0:0,0:0:0:0:
416,312,78699,2,0,P|416:280|392:264,3,50,0|0|0|0,0:0|0:0|0:0|0:0,0:0:0:0:
376,216,79473,6,0,L|336:176,1,50,8|0,0:0|0:0,0:0:0:0:
288,160,79860,2,0,L|216:152,1,50,8|0,0:0|0:0,0:0:0:0:
176,152,80247,6,0,P|168:192|184:216,4,50,8|0|8|0|4,0:0|0:0|0:0|0:0|0:0,0:0:0:0:
328,152,81409,5,0,0:0:0:0:
248,224,81796,2,0,L|184:200,2,50,8|0|0,0:0|0:0|0:0,0:0:0:0:
128,160,82570,5,4,0:0:0:0:
208,112,82957,2,0,L|312:64,1,100,0|8,0:0|0:0,0:0:0:0:
352,64,83537,1,0,0:0:0:0:
400,80,83731,1,0,0:0:0:0:
376,240,84118,6,0,L|272:288,1,100,0|0,0:0|0:0,0:0:0:0:
144,288,84893,1,8,0:0:0:0:
160,240,85086,1,0,0:0:0:0:
192,200,85280,1,0,0:0:0:0:
240,88,85667,6,0,P|272:72|288:96,3,50,4|0|0|0,0:0|0:0|0:0|0:0,0:0:0:0:
400,112,86441,2,0,L|432:208,1,100,4|4,0:0|0:0,0:0:0:0:
328,152,87215,5,0,0:0:0:0:
216,152,87602,1,0,0:0:0:0:
304,256,87989,2,0,L|248:240,2,50,8|0|0,0:0|0:0|0:0,0:0:0:0:
400,280,88763,5,4,0:0:0:0:
323,331,89151,2,0,P|275:337|240:304,1,100,0|8,0:0|0:0,0:0:0:0:
224,272,89730,1,0,0:0:0:0:
224,224,89924,1,0,0:0:0:0:
128,256,90312,6,0,L|24:264,1,100,4|0,0:0|0:0,0:0:0:0:
104,176,91086,1,8,0:0:0:0:
120,120,91279,1,0,0:0:0:0:
160,96,91473,1,0,0:0:0:0:
240,88,91860,6,0,P|272:72|288:96,3,50,4|0|0|0,0:0|0:0|0:0|0:0,0:0:0:0:
336,72,92635,2,0,L|392:72,2,50,4|0|4,0:0|0:0|0:0,0:0:0:0:
432,152,93409,5,0,0:0:0:0:
336,136,93796,1,0,0:0:0:0:
264,200,94183,2,0,L|200:176,2,50,8|0|0,0:0|0:0|0:0,0:0:0:0:
112,112,94957,5,4,0:0:0:0:
208,112,95344,2,0,L|312:64,1,100,0|8,0:0|0:0,0:0:0:0:
352,64,95924,1,0,0:0:0:0:
408,88,96118,1,0,0:0:0:0:
376,240,96505,6,0,L|272:288,1,100,0|0,0:0|0:0,0:0:0:0:
192,256,97280,1,8,0:0:0:0:
192,256,97473,1,0,0:0:0:0:
192,256,97667,1,0,0:0:0:0:
240,88,98054,6,0,P|272:72|288:96,3,50,4|0|0|0,0:0|0:0|0:0|0:0,0:0:0:0:
344,96,98828,2,0,L|400:184,1,100,4|4,0:0|0:0,0:0:0:0:
304,160,99602,5,0,0:0:0:0:
248,200,99989,1,0,0:0:0:0:
184,224,100376,2,0,L|128:208,2,50,8|0|0,0:0|0:0|0:0,0:0:0:0:
112,112,101150,5,4,0:0:0:0:
208,80,101538,2,0,P|256:64|296:104,1,100,0|8,0:0|0:0,0:0:0:0:
291,91,102117,1,0,0:0:0:0:
291,91,102311,1,0,0:0:0:0:
264,248,102699,6,0,L|160:256,1,100,4|0,0:0|0:0,0:0:0:0:
104,176,103473,1,8,0:0:0:0:
120,120,103666,1,0,0:0:0:0:
160,96,103860,1,0,0:0:0:0:
240,88,104247,6,0,P|264:104|288:96,3,50,4|0|4|0,0:0|0:0|0:0|0:0,0:0:0:0:
352,128,105022,2,0,P|368:160|360:192,3,50
256,192,105796,12,0,107344,0:0:0:0:
