osu file format v13

[General]
AudioFilename: [Cytus] SHK - Halloween Party.mp3
AudioLeadIn: 0
PreviewTime: 53151
Countdown: 1
SampleSet: Normal
StackLeniency: 0.7
Mode: 0
LetterboxInBreaks: 1
WidescreenStoryboard: 1

[Editor]
Bookmarks: 82860
DistanceSpacing: 0.8
BeatDivisor: 4
GridSize: 8
TimelineZoom: 1

[Metadata]
Title:Halloween Party
TitleUnicode:Halloween Party
Artist:SHK
ArtistUnicode:SHK
Creator:batwoman3
Version:Insane
Source:Cytus
Tags:Cytus SHK Halloween Party
BeatmapID:606617
BeatmapSetID:266181

[Difficulty]
HPDrainRate:6
CircleSize:4
OverallDifficulty:7
ApproachRate:7.5
SliderMultiplier:1.4
SliderTickRate:1

[Events]
//Background and Video events
0,0,"halloween party cytus.png",0,0
//Break Periods
//Storyboard Layer 0 (Background)
//Storyboard Layer 1 (Fail)
//Storyboard Layer 2 (Pass)
//Storyboard Layer 3 (Foreground)
//Storyboard Sound Samples

[TimingPoints]
6699.55824725112,387.096774193548,4,1,0,60,1,0
20538,-100,4,3,0,60,0,0
22183,-100,4,1,0,60,0,0
53151,-66.6666666666667,4,1,0,60,0,1
65538,-66.6666666666667,4,1,0,60,0,0
77925,-66.6666666666667,4,2,0,30,0,0
79473,-66.6666666666667,4,1,0,60,0,0
81022,-66.6666666666667,4,1,0,60,0,1
105796,-66.6666666666667,4,1,0,60,0,0

[Colours]
Combo1 : 255,255,0
Combo2 : 255,128,0
Combo3 : 225,73,0
Combo4 : 255,179,102

[HitObjects]
64,320,6699,5,0,0:0:0:0:
112,248,6893,1,8,0:0:0:0:
56,176,7086,2,0,L|104:112,1,70,0|8,0:0|0:0,0:0:0:0:
192,96,7473,1,0,0:0:0:0:
152,176,7667,1,8,0:0:0:0:
208,248,7860,2,0,L|160:320,1,70,0|8,0:0|0:0,0:0:0:0:
264,312,8247,6,0,L|312:240,1,70,0|8,0:0|0:0,0:0:0:0:
424,312,8635,2,0,L|384:240,1,70,0|8,0:0|0:0,0:0:0:0:
264,96,9022,2,0,L|304:176,1,70,0|8,0:0|0:0,0:0:0:0:
424,96,9409,2,0,L|392:160,1,70,0|8,0:0|0:0,0:0:0:0:
112,128,9796,5,0,0:0:0:0:
168,192,9989,1,8,0:0:0:0:
248,128,10183,2,0,P|288:152|296:192,1,70,0|8,0:0|0:0,0:0:0:0:
272,248,10570,1,0,0:0:0:0:
208,312,10764,1,8,0:0:0:0:
304,328,10957,2,0,L|352:264,1,70,0|8,0:0|0:0,0:0:0:0:
376,128,11344,6,0,L|288:152,1,70,0|8,0:0|0:0,0:0:0:0:
240,160,11731,2,0,L|168:176,1,70,0|8,0:0|0:0,0:0:0:0:
80,224,12118,2,0,L|152:256,1,70,0|8,0:0|0:0,0:0:0:0:
224,256,12506,2,8,L|264:256,3,35,0|2|8|2,0:0|0:0|0:0|0:0,0:0:0:0:
352,256,12893,6,0,L|352:176,1,70,4|8,0:0|0:0,0:0:0:0:
224,256,13280,2,0,L|224:184,1,70,0|8,0:0|0:0,0:0:0:0:
352,80,13667,1,0,0:0:0:0:
256,80,13860,1,8,0:0:0:0:
160,80,14054,1,0,0:0:0:0:
144,104,14151,1,2,0:0:0:0:
136,128,14247,1,8,0:0:0:0:
136,160,14344,1,2,0:0:0:0:
136,184,14441,6,0,L|160:256,1,70,0|8,0:0|0:0,0:0:0:0:
240,288,14828,1,0,0:0:0:0:
312,288,15022,1,8,0:0:0:0:
240,288,15215,2,0,L|312:288,1,70,0|8,0:0|0:0,0:0:0:0:
304,192,15602,1,0,0:0:0:0:
280,160,15699,1,2,0:0:0:0:
240,136,15796,2,0,L|192:128,1,35,8|2,0:0|0:0,0:0:0:0:
120,208,15989,5,0,0:0:0:0:
192,112,16183,1,8,0:0:0:0:
240,216,16376,1,0,0:0:0:0:
304,112,16570,1,8,0:0:0:0:
360,216,16764,2,0,L|304:296,1,70,0|8,0:0|0:0,0:0:0:0:
209,292,17151,2,0,L|176:304,3,35,0|2|8|2,0:0|0:0|0:0|0:0,0:0:0:0:
136,336,17538,5,12,0:0:0:0:
136,48,17731,1,12,0:0:0:0:
376,48,17925,1,12,0:0:0:0:
376,336,18118,1,12,0:0:0:0:
256,384,18312,5,12,0:0:0:0:
64,192,18506,1,12,0:0:0:0:
256,0,18699,1,12,0:0:0:0:
448,192,18893,1,12,0:0:0:0:
256,192,19086,5,12,0:0:0:0:
256,192,19183,12,0,20247,0:0:0:0:
184,136,20635,6,0,L|248:128,3,35,0|0|0|0,0:0|0:0|0:0|0:0,0:0:0:0:
384,160,21022,2,0,L|384:208,3,35,0|0|0|0,0:0|0:0|0:0|0:0,0:0:0:0:
336,328,21409,5,8,0:0:0:0:
288,336,21506,1,0,0:0:0:0:
240,336,21602,1,0,0:0:0:0:
192,328,21699,1,0,0:0:0:0:
152,304,21796,1,2,0:0:0:0:
120,264,21893,1,0,0:0:0:0:
112,216,21989,1,0,0:0:0:0:
112,168,22086,1,0,0:0:0:0:
112,120,22183,5,0,0:0:0:0:
256,128,22376,2,0,L|256:176,2,35,0|0|8,0:0|0:0|0:0,0:0:0:0:
400,120,22764,1,0,0:0:0:0:
256,232,22957,2,0,L|160:232,2,70,0|0|8,0:0|0:0|0:0,0:0:0:0:
360,232,23538,1,0,0:0:0:0:
112,88,23731,5,0,0:0:0:0:
128,184,23925,1,0,0:0:0:0:
80,360,24312,1,0,0:0:0:0:
424,112,24893,5,8,0:0:0:0:
392,328,25280,5,4,0:0:0:0:
232,320,25473,1,0,0:0:0:0:
192,320,25570,2,0,L|152:320,1,35,0|8,0:0|0:0,0:0:0:0:
72,328,25860,1,0,0:0:0:0:
88,144,26054,6,0,P|96:184|128:200,2,70,0|0|8,0:0|0:0|0:0,0:0:0:0:
118,198,26635,1,0,0:0:0:0:
256,128,26828,5,0,0:0:0:0:
256,128,27022,1,0,0:0:0:0:
256,328,27409,1,0,0:0:0:0:
72,336,27989,5,8,0:0:0:0:
424,336,28376,6,0,P|432:272|416:240,1,70,4|0,0:0|0:0,0:0:0:0:
416,232,28667,1,0,0:0:0:0:
392,192,28764,2,0,L|320:152,1,70,8|0,0:0|0:0,0:0:0:0:
208,96,29151,5,0,0:0:0:0:
208,168,29344,2,0,P|264:152|272:128,1,70,0|8,0:0|0:0,0:0:0:0:
144,96,29731,1,0,0:0:0:0:
88,320,29925,6,0,L|176:288,1,70
112,184,30506,1,0,0:0:0:0:
88,64,31086,5,8,0:0:0:0:
400,168,31473,5,4,0:0:0:0:
304,144,31667,1,0,0:0:0:0:
304,144,31764,1,0,0:0:0:0:
304,144,31860,1,8,0:0:0:0:
304,256,32054,1,0,0:0:0:0:
208,136,32247,6,0,L|208:224,1,70
160,256,32635,2,0,L|224:192,1,70,8|0,0:0|0:0,0:0:0:0:
120,96,33022,6,0,L|136:184,1,70
48,320,33409,1,8,0:0:0:0:
200,344,33602,1,0,0:0:0:0:
320,320,33796,5,0,0:0:0:0:
336,280,33893,1,0,0:0:0:0:
352,240,33989,1,0,0:0:0:0:
368,200,34086,1,0,0:0:0:0:
384,160,34183,1,8,0:0:0:0:
344,160,34280,1,0,0:0:0:0:
304,160,34376,1,0,0:0:0:0:
264,160,34473,1,0,0:0:0:0:
224,160,34570,6,4,P|176:88|144:80,1,105,4|0,0:0|0:0,0:0:0:0:
112,80,34957,1,8,0:0:0:0:
88,160,35151,2,0,P|88:240|152:288,1,140
208,304,35731,1,8,0:0:0:0:
208,152,36118,6,0,P|272:96|312:144,1,140,0|8,0:0|0:0,0:0:0:0:
392,152,36699,1,0,0:0:0:0:
352,192,36796,1,0,0:0:0:0:
344,240,36893,2,0,P|288:296|232:264,1,140,0|8,0:0|0:0,0:0:0:0:
224,248,37667,5,4,0:0:0:0:
237,169,37957,2,0,L|272:176,1,35,0|8,0:0|0:0,0:0:0:0:
352,224,38247,2,0,P|320:304|248:296,1,140
224,296,38828,1,8,0:0:0:0:
176,304,39022,2,0,L|176:248,1,35
80,256,39215,6,0,L|152:192,1,70
272,256,39602,2,0,L|208:184,1,70,8|0,0:0|0:0,0:0:0:0:
168,112,39989,1,0,0:0:0:0:
288,128,40183,2,0,P|336:168|336:192,2,70,0|8|0,0:0|0:0|0:0,0:0:0:0:
136,208,40764,5,4,0:0:0:0:
280,192,40957,2,0,L|328:208,2,35,0|0|8,0:0|0:0|0:0,0:0:0:0:
392,296,41344,1,0,0:0:0:0:
152,104,41731,2,0,L|200:184,1,70,0|8,0:0|0:0,0:0:0:0:
352,120,42312,5,0,0:0:0:0:
320,256,42893,1,0,0:0:0:0:
280,288,42989,1,0,0:0:0:0:
232,296,43086,1,2,0:0:0:0:
224,208,43473,1,8,0:0:0:0:
160,144,43667,1,0,0:0:0:0:
200,112,43764,1,0,0:0:0:0:
248,112,43860,1,4,0:0:0:0:
224,208,44054,6,0,L|200:288,2,70,0|8|0,0:0|0:0|0:0,0:0:0:0:
248,112,44635,1,0,0:0:0:0:
336,152,44828,2,0,L|424:200,2,70,0|8|0,0:0|0:0|0:0,0:0:0:0:
168,104,45409,6,0,P|112:88|88:112,3,70,0|0|0|0,0:0|0:0|0:0|0:0,0:0:0:0:
320,280,46183,2,0,P|352:296|384:280,2,70,0|0|0,0:0|0:0|0:0,0:0:0:0:
160,144,46957,5,0,0:0:0:0:
104,224,47151,2,0,L|88:264,2,35,0|0|10,0:0|0:0|0:0,0:0:0:0:
256,152,47538,2,0,L|304:160,2,35,2|2|0,0:0|0:0|0:0,0:0:0:0:
104,64,47925,6,0,L|80:32,2,35,0|0|10,0:0|0:0|0:0,0:0:0:0:
208,232,48312,2,2,L|232:264,1,35
253,296,48506,1,0,0:0:0:0:
214,131,48699,1,0,0:0:0:0:
342,209,48893,1,8,0:0:0:0:
173,215,49086,1,0,0:0:0:0:
302,132,49280,1,8,0:0:0:0:
88,152,50054,6,0,P|88:200|120:224,1,70
128,232,50344,1,0,0:0:0:0:
168,240,50441,2,8,P|208:240|240:208,1,70,8|2,0:0|0:0,0:0:0:0:
248,192,50731,1,2,0:0:0:0:
272,152,50828,6,0,P|312:136|336:160,1,70
352,176,51118,1,0,0:0:0:0:
352,216,51215,2,8,P|336:264|296:280,1,70,8|2,0:0|0:0,0:0:0:0:
288,280,51506,1,2,0:0:0:0:
288,232,51602,1,8,0:0:0:0:
328,368,51796,1,0,0:0:0:0:
208,288,51989,1,8,0:0:0:0:
368,296,52183,1,0,0:0:0:0:
240,368,52376,1,8,0:0:0:0:
176,160,52764,5,10,0:0:0:0:
152,200,52860,1,2,0:0:0:0:
144,240,52957,1,2,0:0:0:0:
152,280,53054,1,2,0:0:0:0:
176,320,53151,5,4,0:0:0:0:
368,336,53344,1,0,0:0:0:0:
368,288,53441,1,0,0:0:0:0:
368,240,53538,1,8,0:0:0:0:
280,192,53731,1,2,0:0:0:0:
208,88,53925,6,0,L|96:96,2,105.000004005432,0|0|8,0:0|0:0|0:0,0:0:0:0:
320,88,54506,1,0,0:0:0:0:
280,192,54699,5,4,0:0:0:0:
232,272,54893,2,0,L|288:288,2,52.5000020027161,0|0|8,0:0|0:0|0:0,0:0:0:0:
144,240,55280,1,0,0:0:0:0:
160,144,55473,5,0,0:0:0:0:
268,149,55667,2,0,L|316:290,1,105.000004005432,0|8,0:0|0:0,0:0:0:0:
411,248,56054,1,0,0:0:0:0:
292,243,56247,5,4,0:0:0:0:
160,236,56441,1,0,0:0:0:0:
168,280,56538,2,0,L|178:334,1,52.5000020027161,0|8,0:0|0:0,0:0:0:0:
86,273,56828,1,0,0:0:0:0:
100,106,57022,6,0,L|211:172,1,105.000004005432
312,176,57409,2,0,L|208:240,1,105.000004005432,8|0,0:0|0:0,0:0:0:0:
144,312,57796,5,0,0:0:0:0:
200,304,57893,1,0,0:0:0:0:
240,264,57989,1,0,0:0:0:0:
256,216,58086,1,0,0:0:0:0:
272,168,58183,5,8,0:0:0:0:
288,120,58280,1,0,0:0:0:0:
328,80,58376,1,0,0:0:0:0:
376,80,58473,1,0,0:0:0:0:
416,120,58570,6,2,L|416:192,3,52.5000020027161,4|2|2|2,0:0|0:0|0:0|0:0,0:0:0:0:
424,216,58957,5,12,0:0:0:0:
432,264,59054,1,2,0:0:0:0:
416,312,59151,1,2,0:0:0:0:
368,336,59247,1,2,0:0:0:0:
320,336,59344,5,12,0:0:0:0:
208,320,59538,2,8,L|144:280,1,52.5000020027161
136,248,59731,1,0,0:0:0:0:
64,320,59925,1,0,0:0:0:0:
120,88,60118,5,0,0:0:0:0:
184,176,60312,1,8,0:0:0:0:
256,88,60506,1,0,0:0:0:0:
312,176,60699,1,8,0:0:0:0:
272,256,60893,5,4,0:0:0:0:
136,176,61086,2,0,L|176:120,2,52.5000020027161,0|0|8,0:0|0:0|0:0,0:0:0:0:
144,272,61473,1,0,0:0:0:0:
240,160,61667,6,0,L|328:224,2,105.000004005432,0|0|8,0:0|0:0|0:0,0:0:0:0:
168,96,62247,1,0,0:0:0:0:
400,96,62441,6,0,B|336:80|336:80|344:152,1,105.000004005432,4|0,0:0|0:0,0:0:0:0:
352,168,62731,1,0,0:0:0:0:
368,216,62828,2,0,P|392:264|352:304,1,105.000004005432,8|0,0:0|0:0,0:0:0:0:
320,320,63215,5,0,0:0:0:0:
208,320,63409,1,0,0:0:0:0:
208,216,63602,2,0,L|96:216,1,105.000004005432,8|0,0:0|0:0,0:0:0:0:
88,312,63989,5,0,0:0:0:0:
80,272,64086,1,0,0:0:0:0:
80,224,64183,1,0,0:0:0:0:
96,184,64280,1,0,0:0:0:0:
128,152,64376,5,8,0:0:0:0:
168,128,64473,2,0,L|224:120,2,52.5000020027161
256,128,64764,2,0,L|320:160,3,52.5000020027161,0|2|2|2,0:0|0:0|0:0|0:0,0:0:0:0:
216,200,65151,2,0,L|224:264,3,52.5000020027161,8|2|2|2,0:0|0:0|0:0|0:0,0:0:0:0:
336,216,65538,5,0,0:0:0:0:
320,72,65828,1,0,0:0:0:0:
320,72,65925,2,0,P|256:64|264:128,1,105.000004005432,8|0,0:0|0:0,0:0:0:0:
192,128,66506,1,0,0:0:0:0:
248,200,66699,1,8,0:0:0:0:
136,240,67086,6,0,P|224:304|296:240,1,210.000008010865,0|8,0:0|0:0,0:0:0:0:
360,176,67667,1,0,0:0:0:0:
344,128,67764,1,0,0:0:0:0:
304,96,67860,2,0,P|224:56|208:152,1,210.000008010865,0|8,0:0|0:0,0:0:0:0:
120,144,68635,6,0,P|176:216|248:208,1,157.500006008148
256,240,69022,2,0,P|304:280|352:264,1,105.000004005432,8|0,0:0|0:0,0:0:0:0:
392,208,69602,1,0,0:0:0:0:
280,152,69796,1,8,0:0:0:0:
160,96,69989,1,0,0:0:0:0:
136,136,70086,1,0,0:0:0:0:
128,184,70183,5,0,0:0:0:0:
240,224,70473,2,0,L|296:208,1,52.5000020027161,0|8,0:0|0:0,0:0:0:0:
376,128,70764,1,0,0:0:0:0:
312,320,70957,5,0,0:0:0:0:
200,320,71151,1,0,0:0:0:0:
312,200,71344,5,8,0:0:0:0:
200,200,71538,1,0,0:0:0:0:
104,264,71731,5,4,0:0:0:0:
104,168,71925,2,0,L|112:104,2,52.5000020027161,0|0|8,0:0|0:0|0:0,0:0:0:0:
200,120,72312,1,0,0:0:0:0:
352,120,72699,2,0,L|360:224,1,105.000004005432,0|8,0:0|0:0,0:0:0:0:
256,224,73280,5,0,0:0:0:0:
128,128,73860,1,0,0:0:0:0:
104,176,73957,1,0,0:0:0:0:
112,216,74054,1,0,0:0:0:0:
264,128,74441,1,8,0:0:0:0:
376,120,74635,2,0,L|384:184,1,52.5000020027161,0|0,0:0|0:0,0:0:0:0:
344,248,74828,5,0,0:0:0:0:
288,192,75118,2,0,L|216:192,1,52.5000020027161,0|8,0:0|0:0,0:0:0:0:
256,88,75409,1,0,0:0:0:0:
168,256,75796,1,0,0:0:0:0:
168,168,75989,1,8,0:0:0:0:
256,208,76183,2,0,L|192:208,1,52.5000020027161
320,240,76376,6,0,P|352:176|304:88,1,157.500006008148
312,56,76764,1,8,0:0:0:0:
240,64,76957,1,0,0:0:0:0:
120,96,77151,6,0,L|144:144,3,52.5000020027161
144,184,77538,1,8,0:0:0:0:
144,232,77635,1,0,0:0:0:0:
144,272,77731,1,0,0:0:0:0:
168,312,77828,1,0,0:0:0:0:
344,296,77925,5,0,0:0:0:0:
384,272,78022,1,0,0:0:0:0:
408,224,78118,1,0,0:0:0:0:
424,176,78215,1,0,0:0:0:0:
416,128,78312,2,0,L|368:64,3,52.5000020027161,0|0|0|0,0:0|0:0|0:0|0:0,0:0:0:0:
352,64,78699,5,0,0:0:0:0:
304,56,78796,1,0,0:0:0:0:
256,64,78893,1,0,0:0:0:0:
216,96,78989,1,0,0:0:0:0:
200,136,79086,1,0,0:0:0:0:
200,184,79183,1,0,0:0:0:0:
224,224,79280,1,0,0:0:0:0:
232,272,79376,1,0,0:0:0:0:
112,312,79473,6,0,L|112:240,1,52.5000020027161,4|2,0:0|0:0,0:0:0:0:
112,224,79667,2,2,L|112:160,1,52.5000020027161
136,120,79860,1,0,0:0:0:0:
176,80,79957,1,2,0:0:0:0:
232,64,80054,1,2,0:0:0:0:
288,72,80151,1,2,0:0:0:0:
400,104,80247,6,0,L|368:120,7,26.2500010013581,8|0|0|0|0|0|0|0,0:0|0:0|0:0|0:0|0:0|0:0|0:0|0:0,0:0:0:0:
400,168,80635,2,0,L|360:152,1,26.2500010013581,8|0,0:0|0:0,0:0:0:0:
384,216,80731,2,0,L|336:216,1,26.2500010013581
376,272,80828,2,0,L|336:248,1,26.2500010013581
328,296,80925,2,0,L|320:256,1,26.2500010013581
272,296,81022,5,0,0:0:0:0:
296,216,81215,2,0,L|232:216,1,52.5000020027161,2|0,0:0|0:0,0:0:0:0:
200,216,81409,1,8,0:0:0:0:
296,112,81602,2,0,L|176:112,1,105.000004005432
96,112,81989,1,2,0:0:0:0:
168,216,82183,1,8,0:0:0:0:
168,312,82376,1,0,0:0:0:0:
296,304,82570,6,0,P|336:248|328:208,1,105.000004005432,4|2,0:0|0:0,0:0:0:0:
320,176,82860,1,0,0:0:0:0:
312,136,82957,2,0,B|344:96|344:96|280:40,1,105.000004005432,8|2,0:0|0:0,0:0:0:0:
168,56,83344,5,0,0:0:0:0:
168,136,83538,2,0,B|112:120|112:120|88:184,2,105.000004005432,0|0|0,0:0|0:0|0:0,0:0:0:0:
128,240,84118,6,0,P|128:296|184:320,1,105.000004005432
208,328,84409,1,2,0:0:0:0:
264,320,84506,1,8,0:0:0:0:
360,328,84699,1,2,0:0:0:0:
352,184,84893,6,0,L|248:224,1,105.000004005432
248,120,85280,2,2,L|360:80,1,105.000004005432,8|2,0:0|0:0,0:0:0:0:
440,144,85667,5,4,0:0:0:0:
448,200,85764,1,0,0:0:0:0:
440,256,85860,1,0,0:0:0:0:
400,296,85957,1,2,0:0:0:0:
352,312,86054,5,8,0:0:0:0:
296,304,86151,1,0,0:0:0:0:
256,264,86247,1,0,0:0:0:0:
200,264,86344,1,0,0:0:0:0:
152,288,86441,5,4,0:0:0:0:
96,280,86538,1,0,0:0:0:0:
64,232,86635,1,2,0:0:0:0:
64,176,86731,1,0,0:0:0:0:
96,128,86828,5,12,0:0:0:0:
144,112,86925,1,2,0:0:0:0:
200,120,87022,1,2,0:0:0:0:
256,128,87118,1,2,0:0:0:0:
304,136,87215,5,4,0:0:0:0:
392,200,87409,2,2,L|344:224,1,52.5000020027161
304,240,87602,2,0,P|232:280|192:248,1,105.000004005432,8|0,0:0|0:0,0:0:0:0:
216,176,87989,1,0,0:0:0:0:
144,240,88183,1,2,0:0:0:0:
136,136,88376,1,8,0:0:0:0:
64,192,88570,1,0,0:0:0:0:
72,288,88764,5,4,0:0:0:0:
208,296,88957,2,0,L|272:296,2,52.5000020027161,0|0|8,0:0|0:0|0:0,0:0:0:0:
328,296,89344,1,0,0:0:0:0:
328,200,89538,1,0,0:0:0:0:
416,248,89731,1,0,0:0:0:0:
416,152,89925,1,8,0:0:0:0:
328,104,90118,1,0,0:0:0:0:
240,96,90312,6,0,P|152:64|136:88,1,105.000004005432
120,88,90602,1,2,0:0:0:0:
96,128,90699,1,8,0:0:0:0:
96,224,90893,1,2,0:0:0:0:
176,288,91086,2,0,L|296:288,1,105.000004005432
368,240,91473,1,8,0:0:0:0:
368,336,91667,1,0,0:0:0:0:
344,152,91860,6,0,L|272:160,3,52.5000020027161,4|0|2|0,0:0|0:0|0:0|0:0,0:0:0:0:
224,96,92247,2,0,L|224:152,3,52.5000020027161,8|2|0|0,0:0|0:0|0:0|0:0,0:0:0:0:
264,240,92635,2,0,L|200:232,3,52.5000020027161,4|2|2|0,0:0|0:0|0:0|0:0,0:0:0:0:
128,128,93022,2,0,L|120:200,3,52.5000020027161,12|2|0|0,0:0|0:0|0:0|0:0,0:0:0:0:
136,264,93409,5,4,0:0:0:0:
240,264,93602,2,2,L|248:328,2,52.5000020027161,0|0|8,0:0|0:0|0:0,0:0:0:0:
344,272,93989,1,2,0:0:0:0:
384,184,94183,2,0,P|336:144|288:176,1,105.000004005432,2|0,0:0|0:0,0:0:0:0:
216,152,94570,2,0,L|104:160,1,105.000004005432,8|2,0:0|0:0,0:0:0:0:
240,256,94957,5,4,0:0:0:0:
312,144,95151,2,0,L|384:200,2,52.5000020027161,0|0|8,0:0|0:0|0:0,0:0:0:0:
176,136,95538,2,0,P|168:208|112:224,1,105.000004005432
168,304,95925,2,0,P|232:272|280:304,1,105.000004005432,0|8,0:0|0:0,0:0:0:0:
312,344,96312,1,2,0:0:0:0:
224,344,96506,6,0,P|175:372|112:344,1,105.000004005432,0|2,0:0|0:0,0:0:0:0:
89,335,96796,1,0,0:0:0:0:
79,290,96893,2,0,P|110:227|66:194,1,105.000004005432,8|0,0:0|0:0,0:0:0:0:
312,120,97280,6,0,L|356:226,1,105.000004005432,2|0,0:0|0:0,0:0:0:0:
218,117,97667,2,0,L|183:227,1,105.000004005432,8|0,0:0|0:0,0:0:0:0:
368,280,98054,5,4,0:0:0:0:
336,312,98151,1,2,0:0:0:0:
288,328,98247,1,0,0:0:0:0:
240,320,98344,1,0,0:0:0:0:
200,288,98441,5,8,0:0:0:0:
184,240,98538,1,0,0:0:0:0:
184,192,98635,1,2,0:0:0:0:
200,152,98731,1,0,0:0:0:0:
232,128,98828,6,0,L|288:128,3,52.5000020027161,4|0|0|0,0:0|0:0|0:0|0:0,0:0:0:0:
328,128,99215,1,12,0:0:0:0:
376,112,99312,1,2,0:0:0:0:
392,64,99409,1,2,0:0:0:0:
368,16,99506,1,2,0:0:0:0:
312,16,99602,6,0,P|232:0|216:24,1,105.000004005432,4|0,0:0|0:0,0:0:0:0:
192,32,99893,1,0,0:0:0:0:
168,64,99989,2,0,P|152:88|136:184,2,105.000004005432
136,160,100570,2,0,P|144:224|184:256,1,105.000004005432,0|8,0:0|0:0,0:0:0:0:
216,320,100957,1,0,0:0:0:0:
256,248,101151,5,4,0:0:0:0:
208,168,101344,1,0,0:0:0:0:
248,144,101441,1,0,0:0:0:0:
296,152,101538,1,8,0:0:0:0:
296,64,101731,2,0,P|232:40|184:72,1,105.000004005432
120,104,102118,2,0,L|216:176,1,105.000004005432,0|8,0:0|0:0,0:0:0:0:
256,248,102506,1,0,0:0:0:0:
256,336,102699,5,4,0:0:0:0:
352,296,102893,2,0,L|352:232,2,52.5000020027161,2|0|8,0:0|0:0|0:0,0:0:0:0:
208,208,103280,2,2,P|256:176|304:224,1,105.000004005432,0|0,0:0|0:0,0:0:0:0:
328,112,103667,1,0,0:0:0:0:
240,88,103860,1,8,0:0:0:0:
152,136,104054,1,0,0:0:0:0:
96,264,104247,5,4,0:0:0:0:
128,312,104344,1,0,0:0:0:0:
184,328,104441,1,0,0:0:0:0:
248,328,104538,1,0,0:0:0:0:
304,320,104635,5,4,0:0:0:0:
360,344,104731,1,0,0:0:0:0:
416,328,104828,1,0,0:0:0:0:
440,272,104925,1,0,0:0:0:0:
424,216,105022,5,4,0:0:0:0:
376,184,105118,1,2,0:0:0:0:
320,184,105215,1,2,0:0:0:0:
280,144,105312,1,2,0:0:0:0:
288,88,105409,5,12,0:0:0:0:
328,48,105506,1,0,0:0:0:0:
384,48,105602,1,0,0:0:0:0:
432,88,105699,1,0,0:0:0:0:
448,152,105796,5,0,0:0:0:0:
256,192,105893,12,4,107344,0:0:0:0:
