osu file format v13

[General]
AudioFilename: [Cytus] SHK - Halloween Party.mp3
AudioLeadIn: 0
PreviewTime: 53151
Countdown: 1
SampleSet: Normal
StackLeniency: 0.7
Mode: 0
LetterboxInBreaks: 1
WidescreenStoryboard: 1

[Editor]
DistanceSpacing: 1
BeatDivisor: 2
GridSize: 4
TimelineZoom: 1

[Metadata]
Title:Halloween Party
TitleUnicode:Halloween Party
Artist:SHK
ArtistUnicode:SHK
Creator:batwoman3
Version:Easy
Source:Cytus
Tags:Cytus SHK Halloween Party
BeatmapID:612349
BeatmapSetID:266181

[Difficulty]
HPDrainRate:3
CircleSize:3
OverallDifficulty:2
ApproachRate:4
SliderMultiplier:0.8
SliderTickRate:1

[Events]
//Background and Video events
0,0,"halloween party cytus.png",0,0
//Break Periods
2,19286,20863
2,65737,76605
//Storyboard Layer 0 (Background)
//Storyboard Layer 1 (Fail)
//Storyboard Layer 2 (Pass)
//Storyboard Layer 3 (Foreground)
//Storyboard Sound Samples

[TimingPoints]
6699.55824725112,387.096774193548,4,1,0,60,1,0
53151,-100,4,1,0,60,0,1
65538,-100,4,1,0,60,0,0
77925,-100,4,2,0,30,0,0
79473,-100,4,1,0,60,0,0
81022,-100,4,1,0,60,0,1
105796,-100,4,2,0,60,0,0
110054,-100,4,2,0,40,0,0

[Colours]
Combo1 : 255,192,0
Combo2 : 255,137,81
Combo3 : 232,116,0
Combo4 : 255,186,117

[HitObjects]
260,224,6699,5,0,0:0:0:0:
112,160,7473,2,0,P|136:96|224:80,1,160,8|0,0:0|0:0,0:0:0:0:
344,176,9022,2,0,P|419:164|450:93,1,160,8|0,0:0|0:0,0:0:0:0:
296,44,10569,1,8,0:0:0:0:
144,100,11344,1,0,0:0:0:0:
88,252,12118,2,0,P|72:308|80:324,2,80,8|0|4,0:0|0:0|0:0,0:0:0:0:
240,300,13667,5,8,0:0:0:0:
316,160,14441,1,0,0:0:0:0:
156,156,15215,2,0,P|140:124|220:60,1,160,8|0,0:0|0:0,0:0:0:0:
380,80,16764,1,8,0:0:0:0:
272,196,17538,6,0,P|188:180|120:216,2,160,12|12|12,0:0|0:0|0:0,0:0:0:0:
83,271,22183,6,0,P|81:201|152:135,1,160
232,268,23731,2,0,P|280:284|368:228,1,160,0|8,0:0|0:0,0:0:0:0:
492,332,25280,2,0,P|484:248|452:164,1,160,0|0,0:0|0:0,0:0:0:0:
328,88,26828,1,0,0:0:0:0:
176,136,27602,2,0,L|156:324,1,160,8|0,0:0|0:0,0:0:0:0:
260,168,29151,6,0,P|292:124|396:56,1,160,0|0,0:0|0:0,0:0:0:0:
384,224,30699,2,0,L|384:264,1,40,8|0,0:0|0:0,0:0:0:0:
280,320,31474,2,0,B|248:352|248:352|152:272,1,160
96,132,33022,1,0,0:0:0:0:
248,188,33796,1,8,0:0:0:0:
344,316,34570,6,0,P|417:240|362:111,1,240,0|2,0:0|0:0,0:0:0:0:
300,108,36118,2,0,P|223:182|249:243,1,160,0|10,0:0|0:0,0:0:0:0:
96,308,37667,2,0,P|276:312|352:180,1,320
220,116,39989,1,8,0:0:0:0:
200,276,40764,6,0,P|136:260|80:184,1,160
212,96,42312,2,8,B|244:16|244:16|324:16,1,160,0|8,0:0|0:0,0:0:0:0:
476,36,43860,2,0,B|444:116|444:116|364:116,1,160,0|0,0:0|0:0,0:0:0:0:
244,212,45409,2,0,B|144:200|128:296,1,160,0|0,0:0|0:0,0:0:0:0:
208,296,46570,1,8,0:0:0:0:
256,192,46957,12,8,48506,0:0:0:0:
328,232,50054,6,0,P|256:292|176:304,3,160,0|0|0|8,0:0|0:0|0:0|0:0,0:0:0:0:
32,300,53151,6,0,B|32:268|32:268|32:236|56:212|56:212|176:116,1,240,4|8,0:0|0:0,0:0:0:0:
240,80,54699,2,0,B|280:56|280:56|328:72|328:72|320:216,1,240,4|8,0:0|0:0,0:0:0:0:
380,288,56247,2,0,P|292:296|244:164,1,240,4|8,0:0|0:0,0:0:0:0:
292,112,57796,2,0,P|230:26|157:29,2,160,4|4|4,0:0|0:0|0:0,0:0:0:0:
396,236,60118,5,0,0:0:0:0:
240,264,60893,2,0,P|267:284|400:320,2,160,4|8|4,0:0|0:0|0:0,0:0:0:0:
84,296,63215,1,2,0:0:0:0:
132,144,63989,2,0,P|156:104|292:72,2,160,4|8|4,0:0|0:0|0:0,0:0:0:0:
256,192,77925,12,4,79473,0:0:0:0:
213,77,81022,6,0,P|264:21|290:100,1,160,4|0,0:0|0:0,0:0:0:0:
444,148,82570,2,0,P|499:199|420:225,1,160,4|8,0:0|0:0,0:0:0:0:
304,312,84118,2,0,P|252:367|226:288,1,160,4|0,0:0|0:0,0:0:0:0:
256,160,85667,1,4,0:0:0:0:
96,144,86441,2,0,L|0:136,2,80,12|4|4,0:0|0:0|0:0,0:0:0:0:
220,44,87989,6,0,P|268:48|320:160,1,160,8|0,0:0|0:0,0:0:0:0:
452,232,89538,2,0,P|422:304|348:324,1,160,8|0,0:0|0:0,0:0:0:0:
320,168,91086,1,8,0:0:0:0:
160,188,91860,2,0,P|130:116|56:97,2,160,0|8|0,0:0|0:0|0:0,0:0:0:0:
264,308,94183,6,0,P|276:348|292:364,2,40,8|0|0,0:0|0:0|0:0,0:0:0:0:
236,232,94957,2,0,P|280:133|356:133,1,160,0|8,0:0|0:0,0:0:0:0:
480,136,96506,2,0,P|436:37|360:37,1,160,0|8,0:0|0:0,0:0:0:0:
304,160,98054,2,0,L|304:328,2,160,4|12|4,0:0|0:0|0:0,0:0:0:0:
168,240,100376,5,8,0:0:0:0:
104,92,101151,1,0,0:0:0:0:
260,60,101925,1,8,0:0:0:0:
416,88,102699,1,0,0:0:0:0:
328,220,103473,2,0,P|240:224|164:192,1,160,8|0,0:0|0:0,0:0:0:0:
288,308,105022,2,0,P|240:324|124:296,1,160,8|0,0:0|0:0,0:0:0:0:
256,192,107344,12,4,110441,0:0:0:0:
