osu file format v13

[General]
AudioFilename: Halloween Party.mp3
AudioLeadIn: 0
PreviewTime: -1
Countdown: 0
SampleSet: Normal
StackLeniency: 0.7
Mode: 0
LetterboxInBreaks: 1
WidescreenStoryboard: 0

[Editor]
DistanceSpacing: 0.5
BeatDivisor: 4
GridSize: 4
TimelineZoom: 1

[Metadata]
Title:Halloween Party
TitleUnicode:Halloween Party
Artist:SHK
ArtistUnicode:SHK
Creator:Zejky
Version:Insane
Source:
Tags:
BeatmapID:554023
BeatmapSetID:239657

[Difficulty]
HPDrainRate:4
CircleSize:4
OverallDifficulty:6
ApproachRate:8
SliderMultiplier:2.2
SliderTickRate:2

[Events]
//Background and Video events
0,0,"BG.png",0,0
//Break Periods
//Storyboard Layer 0 (Background)
//Storyboard Layer 1 (Fail)
//Storyboard Layer 2 (Pass)
//Storyboard Layer 3 (Foreground)
//Storyboard Sound Samples
//Background Colour Transformations
3,100,163,162,255

[TimingPoints]
137,387.096774193548,4,2,0,70,1,0
4782,-133.333333333333,4,2,0,70,0,0
10588,-133.333333333333,4,1,0,70,0,0
10975,-133.333333333333,4,3,0,70,0,0
17169,-200,4,2,0,70,0,0
18717,-133.333333333333,4,1,0,50,0,0
19491,-133.333333333333,4,3,0,70,0,0
20266,-100,4,2,0,70,0,0
50846,-100,4,1,0,70,0,0
51233,-66.6666666666667,4,1,0,70,0,1
63620,-100,4,2,0,70,0,0
76007,-100,4,3,0,50,0,0
76395,-100,4,3,0,60,0,0
76782,-100,4,3,0,70,0,0
77556,-100,4,1,0,70,0,0
79104,-66.6666666666667,4,1,0,70,0,1
103878,-66.6666666666667,4,2,0,70,0,1
104653,-200,4,2,0,70,0,0

[Colours]
Combo1 : 187,0,0
Combo2 : 255,128,128
Combo3 : 202,224,201
Combo4 : 162,162,162
Combo5 : 219,155,36

[HitObjects]
152,120,4782,5,2,0:0:0:0:
152,120,4975,2,0,L|64:120,1,82.5000031471254,2|0,0:0|0:0,0:0:0:0:
32,192,5362,2,0,L|120:192,1,82.5000031471254,2|0,0:0|0:0,0:0:0:0:
160,260,5749,2,0,L|248:260,1,82.5000031471254,2|0,0:0|0:0,0:0:0:0:
312,304,6136,1,2,0:0:0:0:
436,304,6330,5,2,0:0:0:0:
436,180,6524,2,0,P|396:168|352:184,1,82.5000031471254,2|0,0:0|0:0,0:0:0:0:
288,224,6911,2,0,P|236:236|200:224,1,82.5000031471254,2|0,0:0|0:0,0:0:0:0:
140,184,7298,2,0,P|84:164|56:168,1,82.5000031471254,2|0,0:0|0:0,0:0:0:0:
84,248,7685,1,2,0:0:0:0:
196,112,7878,5,2,0:0:0:0:
196,112,8072,2,0,B|236:88|236:88|280:92,1,82.5000031471254,2|0,0:0|0:0,0:0:0:0:
348,120,8459,2,0,B|404:112|404:112|440:80,1,82.5000031471254,2|0,0:0|0:0,0:0:0:0:
484,148,8846,2,0,B|492:184|492:184|480:236,1,82.5000031471254,2|0,0:0|0:0,0:0:0:0:
408,264,9233,1,2,0:0:0:0:
284,264,9427,5,2,0:0:0:0:
284,264,9620,2,0,L|284:348,1,82.5000031471254,2|0,0:0|0:0,0:0:0:0:
348,216,10007,2,0,L|348:124,1,82.5000031471254,2|0,0:0|0:0,0:0:0:0:
404,28,10395,1,2,0:0:0:0:
432,144,10588,5,0,0:0:0:0:
396,148,10685,1,0,0:0:0:0:
360,152,10782,1,0,0:0:0:0:
324,156,10878,1,0,0:0:0:0:
288,160,10975,6,0,L|232:96,1,82.5000031471254,2|0,0:0|0:0,0:0:0:0:
248,312,11362,2,0,L|192:248,1,82.5000031471254,2|0,0:0|0:0,0:0:0:0:
396,148,11749,2,0,L|340:84,1,82.5000031471254,2|0,0:0|0:0,0:0:0:0:
356,308,12136,2,0,L|300:244,1,82.5000031471254,2|0,0:0|0:0,0:0:0:0:
144,108,12524,5,2,0:0:0:0:
144,108,12717,1,0,0:0:0:0:
332,152,12911,1,2,0:0:0:0:
332,152,13104,1,0,0:0:0:0:
252,328,13298,1,2,0:0:0:0:
252,328,13491,1,0,0:0:0:0:
236,132,13685,1,2,0:0:0:0:
236,132,13878,1,0,0:0:0:0:
332,152,14072,6,0,P|376:184|384:224,1,82.5000031471254,2|0,0:0|0:0,0:0:0:0:
344,300,14459,2,0,P|300:268|292:228,1,82.5000031471254,2|0,0:0|0:0,0:0:0:0:
236,132,14846,2,0,P|192:112|152:112,1,82.5000031471254,2|0,0:0|0:0,0:0:0:0:
92,232,15233,2,0,P|136:252|176:252,1,82.5000031471254,2|0,0:0|0:0,0:0:0:0:
252,232,15620,5,2,0:0:0:0:
456,88,15814,1,2,0:0:0:0:
300,116,16007,1,2,0:0:0:0:
412,188,16201,1,2,0:0:0:0:
372,40,16395,1,2,0:0:0:0:
348,272,16588,1,2,0:0:0:0:
204,148,16782,1,2,0:0:0:0:
504,168,16975,1,2,0:0:0:0:
412,188,17169,6,0,B|424:216|420:248|472:248|464:284|464:284|496:296|496:296|500:320,2,165,2|0|0,0:0|0:0|0:0,0:0:0:0:
400,40,18717,5,0,0:0:0:0:
396,44,18814,1,0,0:0:0:0:
392,48,18911,1,0,0:0:0:0:
388,52,19007,1,0,0:0:0:0:
384,56,19104,1,0,0:0:0:0:
380,60,19201,1,0,0:0:0:0:
376,64,19298,1,0,0:0:0:0:
372,68,19395,1,0,0:0:0:0:
356,84,19491,5,2,0:0:0:0:
340,100,19588,1,2,0:0:0:0:
320,116,19685,1,2,0:0:0:0:
304,132,19782,1,2,0:0:0:0:
288,148,19878,1,2,0:0:0:0:
272,164,19975,1,2,0:0:0:0:
256,180,20072,1,2,0:0:0:0:
236,196,20169,1,2,0:0:0:0:
212,216,20266,5,2,0:0:0:0:
288,292,20459,1,2,0:0:0:0:
136,360,20653,1,0,0:0:0:0:
112,168,20846,1,2,0:0:0:0:
112,168,21040,1,2,0:0:0:0:
212,216,21233,1,0,0:0:0:0:
120,272,21427,1,2,0:0:0:0:
216,92,21620,1,2,0:0:0:0:
336,252,21814,5,2,0:0:0:0:
120,272,22007,1,0,0:0:0:0:
224,204,22201,1,2,0:0:0:0:
224,204,22395,6,0,L|336:204,2,110,2|0|2,0:0|0:0|0:0,0:0:0:0:
224,204,22975,1,2,0:0:0:0:
80,88,23362,5,2,0:0:0:0:
192,88,23556,1,2,0:0:0:0:
320,160,23749,1,0,0:0:0:0:
432,160,23943,1,2,0:0:0:0:
344,280,24136,1,2,0:0:0:0:
232,280,24330,1,0,0:0:0:0:
128,356,24524,1,2,0:0:0:0:
16,356,24718,1,2,0:0:0:0:
192,88,24911,5,2,0:0:0:0:
192,88,25104,2,0,L|292:20,1,110,0|2,0:0|0:0,0:0:0:0:
320,160,25491,2,0,L|220:228,1,110,2|0,0:0|0:0,0:0:0:0:
288,344,25878,1,2,0:0:0:0:
288,344,25975,1,2,0:0:0:0:
288,344,26072,1,2,0:0:0:0:
360,264,26266,1,0,0:0:0:0:
480,288,26459,5,2,0:0:0:0:
424,192,26652,5,2,0:0:0:0:
372,96,26846,1,0,0:0:0:0:
224,24,27039,1,2,0:0:0:0:
172,120,27232,1,2,0:0:0:0:
116,216,27426,1,0,0:0:0:0:
264,140,27620,1,2,0:0:0:0:
276,248,27813,1,2,0:0:0:0:
288,356,28007,1,2,0:0:0:0:
264,140,28201,2,0,P|316:124|384:136,1,110,0|2,0:0|0:0,0:0:0:0:
116,216,28588,2,0,P|88:168|88:112,1,110,2|0,0:0|0:0,0:0:0:0:
276,248,28975,2,0,P|248:304|192:336,2,110,2|2|0,0:0|0:0|0:0,0:0:0:0:
264,140,29556,5,2,0:0:0:0:
264,140,29749,1,2,0:0:0:0:
444,88,29943,1,0,0:0:0:0:
444,88,30136,1,2,0:0:0:0:
388,184,30330,1,2,0:0:0:0:
228,32,30524,1,0,0:0:0:0:
388,184,30717,1,2,0:0:0:0:
228,32,30911,1,2,0:0:0:0:
264,140,31104,1,2,0:0:0:0:
228,244,31298,6,0,L|200:360,1,110,0|2,0:0|0:0,0:0:0:0:
388,184,31685,1,2,0:0:0:0:
228,32,31878,1,2,0:0:0:0:
200,52,31975,1,2,0:0:0:0:
172,72,32072,1,2,0:0:0:0:
144,92,32169,1,2,0:0:0:0:
116,112,32266,1,2,0:0:0:0:
92,132,32362,1,2,0:0:0:0:
64,152,32459,1,2,0:0:0:0:
40,172,32556,1,2,0:0:0:0:
12,192,32653,6,0,B|40:256|40:256|136:220|136:220|104:292|108:320|208:360|208:360|296:304|276:208|212:208,1,550,2|0,0:0|0:0,0:0:0:0:
168,120,33814,2,0,P|200:64|248:48,1,110,2|0,0:0|0:0,0:0:0:0:
319,108,34201,2,0,B|323:133|296:164|296:164|332:192|340:264|340:264|248:312|192:272,1,330,2|2,0:0|0:0,0:0:0:0:
172,256,34878,1,2,0:0:0:0:
152,244,34975,2,0,B|164:208|164:208|208:196|248:220|248:220|290:217|320:192|320:192|372:150|372:150|400:184|400:184|448:152,1,330,2|0,0:0|0:0,0:0:0:0:
468,244,35749,2,0,B|456:300|448:308|448:312|396:344|396:344|380:348|312:356|276:364|216:356|204:320|316:296|356:304|376:320|420:272|360:256|272:292|208:280|148:376|20:340,1,660,2|0,0:0|0:0,0:0:0:0:
24,152,37104,1,2,0:0:0:0:
52,168,37201,1,2,0:0:0:0:
80,176,37298,5,2,0:0:0:0:
172,116,37491,1,0,0:0:0:0:
168,228,37685,1,2,0:0:0:0:
296,48,37878,1,0,0:0:0:0:
316,156,38072,1,2,0:0:0:0:
424,28,38266,1,2,0:0:0:0:
488,116,38459,1,2,0:0:0:0:
480,144,38556,1,2,0:0:0:0:
468,172,38653,1,2,0:0:0:0:
460,196,38749,1,2,0:0:0:0:
452,216,38846,6,0,B|428:280|356:276|348:224|348:224|368:288|308:320|308:320|300:236|256:220|256:220|192:200|164:232|96:288|160:364|172:380|220:384|260:364,1,660,2|0,0:0|0:0,0:0:0:0:
228,296,40201,1,2,0:0:0:0:
228,296,40395,2,0,B|208:156|336:112|336:112|366:149|424:136,1,330,2|2,0:0|0:0,0:0:0:0:
452,124,41072,1,2,0:0:0:0:
476,104,41169,2,0,B|456:48|432:40|432:40|300:0|180:108,1,330,2|0,0:0|0:0,0:0:0:0:
136,184,41943,2,0,B|84:216|148:364|164:384|308:380|372:348|412:268|396:192|344:120|228:80|136:176|124:268|232:312|284:248|284:216,1,660,2|0,0:0|0:0,0:0:0:0:
380,88,43298,1,2,0:0:0:0:
380,88,43395,1,2,0:0:0:0:
380,88,43491,2,0,B|324:72|368:32|424:40|456:88|416:152|372:168|292:128|248:4|192:104,1,330,2|2,0:0|0:0,0:0:0:0:
192,96,44169,1,2,0:0:0:0:
192,96,44266,2,0,B|136:136|104:268|152:264|224:208|196:176|160:196,1,220,2|0,0:0|0:0,0:0:0:0:
340,336,45040,5,2,0:0:0:0:
340,336,45136,1,2,0:0:0:0:
340,336,45233,1,0,0:0:0:0:
484,200,45427,1,2,0:0:0:0:
484,200,45524,1,2,0:0:0:0:
484,200,45620,1,0,0:0:0:0:
312,64,45814,1,2,0:0:0:0:
312,64,45911,1,2,0:0:0:0:
312,64,46007,1,0,0:0:0:0:
368,184,46201,1,2,0:0:0:0:
368,184,46298,1,2,0:0:0:0:
368,184,46395,1,0,0:0:0:0:
292,264,46588,5,2,0:0:0:0:
440,80,46782,1,2,0:0:0:0:
484,200,46975,1,2,0:0:0:0:
312,64,47169,1,2,0:0:0:0:
340,336,47362,1,2,0:0:0:0:
69,231,48136,5,2,0:0:0:0:
83,223,48233,1,2,0:0:0:0:
97,215,48330,1,0,0:0:0:0:
239,64,48524,1,2,0:0:0:0:
237,80,48620,1,2,0:0:0:0:
235,96,48717,1,0,0:0:0:0:
276,320,48911,1,2,0:0:0:0:
292,316,49007,1,2,0:0:0:0:
308,312,49104,1,0,0:0:0:0:
440,144,49298,1,2,0:0:0:0:
448,160,49395,1,2,0:0:0:0:
456,176,49491,1,0,0:0:0:0:
408,320,49685,5,2,0:0:0:0:
344,144,49878,1,2,0:0:0:0:
220,248,50072,1,2,0:0:0:0:
112,88,50266,1,2,0:0:0:0:
112,88,50459,1,2,0:0:0:0:
296,36,50846,5,0,0:0:0:0:
288,48,50943,1,0,0:0:0:0:
280,60,51040,1,0,0:0:0:0:
272,72,51136,1,0,0:0:0:0:
264,84,51233,5,4,0:0:0:0:
432,104,51427,1,0,0:0:0:0:
440,136,51524,1,0,0:0:0:0:
448,168,51620,2,0,P|436:252|352:300,1,165.000006294251,8|0,0:0|0:0,0:0:0:0:
137,296,52007,2,0,P|73:247|64:168,1,165.000006294251
256,108,52395,2,0,L|256:284,1,165.000006294251,8|0,0:0|0:0,0:0:0:0:
256,356,52782,5,4,0:0:0:0:
344,192,52975,1,0,0:0:0:0:
352,232,53072,1,0,0:0:0:0:
360,272,53169,1,8,0:0:0:0:
436,236,53362,1,0,0:0:0:0:
256,356,53556,1,0,0:0:0:0:
436,236,53749,1,0,0:0:0:0:
256,108,53943,1,8,0:0:0:0:
212,176,54136,1,0,0:0:0:0:
168,244,54330,5,4,0:0:0:0:
396,96,54524,1,0,0:0:0:0:
380,136,54620,1,0,0:0:0:0:
364,176,54717,1,8,0:0:0:0:
192,48,54911,1,0,0:0:0:0:
220,124,55104,1,0,0:0:0:0:
248,200,55298,1,0,0:0:0:0:
100,348,55491,1,8,0:0:0:0:
140,112,55685,1,0,0:0:0:0:
100,348,55878,5,4,0:0:0:0:
116,308,55975,1,0,0:0:0:0:
144,280,56072,1,0,0:0:0:0:
184,268,56169,1,0,0:0:0:0:
224,268,56266,1,8,0:0:0:0:
252,300,56362,1,0,0:0:0:0:
260,340,56459,1,0,0:0:0:0:
232,372,56556,1,0,0:0:0:0:
200,348,56653,5,12,0:0:0:0:
200,308,56749,1,0,0:0:0:0:
224,268,56846,1,0,0:0:0:0:
260,244,56943,1,0,0:0:0:0:
300,228,57040,1,12,0:0:0:0:
340,232,57136,1,0,0:0:0:0:
376,252,57233,1,0,0:0:0:0:
408,276,57330,1,0,0:0:0:0:
448,292,57427,6,0,P|496:208|476:132,1,165.000006294251,4|0,0:0|0:0,0:0:0:0:
460,112,57717,1,0,0:0:0:0:
432,84,57814,2,0,P|352:112|248:76,1,165.000006294251,8|0,0:0|0:0,0:0:0:0:
192,216,58201,2,0,P|112:192|12:212,1,165.000006294251
32,203,58588,1,8,0:0:0:0:
148,348,58782,1,0,0:0:0:0:
288,256,58975,6,0,P|324:168|272:100,1,165.000006294251,4|0,0:0|0:0,0:0:0:0:
264,140,59266,1,0,0:0:0:0:
280,176,59362,2,0,B|336:188|360:136|360:108|360:108|424:64,1,165.000006294251,8|0,0:0|0:0,0:0:0:0:
464,276,59749,2,0,L|288:344,1,165.000006294251
156,208,60136,1,8,0:0:0:0:
196,280,60330,1,0,0:0:0:0:
388,148,60524,5,4,0:0:0:0:
288,56,60717,1,0,0:0:0:0:
252,76,60814,1,0,0:0:0:0:
212,92,60911,2,0,P|120:80|92:16,1,165.000006294251,8|0,0:0|0:0,0:0:0:0:
128,128,61298,2,0,L|100:300,1,165.000006294251
304,352,61685,2,0,L|280:188,1,165.000006294251,8|0,0:0|0:0,0:0:0:0:
472,92,62072,5,4,0:0:0:0:
472,132,62169,1,0,0:0:0:0:
452,168,62266,1,0,0:0:0:0:
416,192,62362,1,0,0:0:0:0:
376,204,62459,1,12,0:0:0:0:
336,188,62556,1,0,0:0:0:0:
304,160,62653,1,0,0:0:0:0:
268,140,62749,1,0,0:0:0:0:
228,128,62846,5,12,0:0:0:0:
252,120,62943,1,0,0:0:0:0:
276,108,63040,1,0,0:0:0:0:
292,88,63136,1,0,0:0:0:0:
296,64,63233,1,12,0:0:0:0:
288,40,63330,1,0,0:0:0:0:
272,20,63427,1,0,0:0:0:0:
248,12,63524,1,0,0:0:0:0:
224,8,63620,5,2,0:0:0:0:
140,80,63814,1,2,0:0:0:0:
56,148,64007,1,2,0:0:0:0:
120,236,64201,1,0,0:0:0:0:
140,80,64395,1,2,0:0:0:0:
232,140,64588,1,2,0:0:0:0:
324,200,64782,1,0,0:0:0:0:
416,260,64975,1,0,0:0:0:0:
208,348,65169,5,2,0:0:0:0:
120,236,65362,1,2,0:0:0:0:
208,348,65556,1,2,0:0:0:0:
324,200,65749,1,0,0:0:0:0:
120,236,65943,1,2,0:0:0:0:
152,132,66136,1,2,0:0:0:0:
240,64,66330,1,0,0:0:0:0:
348,52,66524,1,0,0:0:0:0:
436,308,66717,5,2,0:0:0:0:
296,220,66911,1,2,0:0:0:0:
436,128,67104,1,2,0:0:0:0:
296,220,67298,1,0,0:0:0:0:
176,108,67491,1,2,0:0:0:0:
40,204,67685,1,2,0:0:0:0:
176,108,67878,1,0,0:0:0:0:
180,328,68072,1,0,0:0:0:0:
340,72,68266,5,2,0:0:0:0:
412,156,68459,1,2,0:0:0:0:
432,264,68653,1,2,0:0:0:0:
392,368,68846,1,0,0:0:0:0:
412,156,69040,1,2,0:0:0:0:
316,104,69233,1,2,0:0:0:0:
204,112,69427,1,0,0:0:0:0:
112,172,69620,1,0,0:0:0:0:
272,344,69814,5,2,0:0:0:0:
164,344,70007,1,2,0:0:0:0:
272,344,70201,1,2,0:0:0:0:
368,208,70395,1,0,0:0:0:0:
480,208,70588,1,2,0:0:0:0:
368,208,70782,1,2,0:0:0:0:
260,208,70975,1,0,0:0:0:0:
272,344,71169,1,0,0:0:0:0:
248,72,71363,5,2,0:0:0:0:
294,172,71556,1,2,0:0:0:0:
194,218,71749,1,2,0:0:0:0:
149,119,71943,1,0,0:0:0:0:
297,283,72136,1,2,0:0:0:0:
376,360,72330,1,2,0:0:0:0:
453,283,72522,1,0,0:0:0:0:
376,205,72717,1,0,0:0:0:0:
136,179,72911,5,2,0:0:0:0:
412,176,73104,1,2,0:0:0:0:
100,208,73298,1,2,0:0:0:0:
336,244,73491,1,0,0:0:0:0:
176,140,73685,1,2,0:0:0:0:
272,340,73878,1,2,0:0:0:0:
240,44,74072,1,0,0:0:0:0:
440,144,74266,1,0,0:0:0:0:
72,240,74459,5,2,0:0:0:0:
328,360,74653,1,0,0:0:0:0:
184,360,74846,1,2,0:0:0:0:
256,92,75040,1,0,0:0:0:0:
168,248,75233,1,2,0:0:0:0:
440,240,75427,1,2,0:0:0:0:
256,180,75620,1,2,0:0:0:0:
344,248,75814,1,2,0:0:0:0:
256,264,76007,5,0,0:0:0:0:
256,268,76104,1,0,0:0:0:0:
256,272,76201,1,0,0:0:0:0:
256,276,76298,1,0,0:0:0:0:
256,280,76395,1,0,0:0:0:0:
256,284,76491,1,0,0:0:0:0:
256,288,76588,1,0,0:0:0:0:
256,292,76685,1,0,0:0:0:0:
256,296,76782,1,0,0:0:0:0:
256,300,76878,1,0,0:0:0:0:
256,304,76975,1,0,0:0:0:0:
256,308,77072,1,0,0:0:0:0:
256,312,77169,1,0,0:0:0:0:
256,316,77266,1,0,0:0:0:0:
256,320,77362,1,0,0:0:0:0:
256,324,77459,1,0,0:0:0:0:
288,348,77556,5,0,0:0:0:0:
308,340,77653,1,0,0:0:0:0:
344,348,77749,1,0,0:0:0:0:
360,332,77846,1,0,0:0:0:0:
404,332,77943,1,0,0:0:0:0:
408,312,78040,1,0,0:0:0:0:
444,292,78136,1,0,0:0:0:0:
432,272,78233,1,0,0:0:0:0:
456,236,78330,1,0,0:0:0:0:
436,228,78427,1,0,0:0:0:0:
420,180,78524,5,0,0:0:0:0:
436,164,78620,1,0,0:0:0:0:
408,128,78717,1,0,0:0:0:0:
428,124,78814,1,0,0:0:0:0:
432,80,78911,1,0,0:0:0:0:
452,88,79007,1,0,0:0:0:0:
480,56,79104,6,0,B|416:32|416:32|368:48|368:48|312:32,1,165.000006294251,4|0,0:0|0:0,0:0:0:0:
296,56,79395,1,0,0:0:0:0:
268,72,79491,2,0,B|236:100|236:100|256:160|256:160|236:216,1,165.000006294251,8|0,0:0|0:0,0:0:0:0:
128,336,79878,2,0,P|100:252|136:184,1,165.000006294251
268,72,80266,2,0,P|296:156|260:224,1,165.000006294251,8|0,0:0|0:0,0:0:0:0:
464,348,80653,5,4,0:0:0:0:
428,156,80846,1,0,0:0:0:0:
428,156,80943,1,0,0:0:0:0:
428,156,81040,2,0,P|328:128|260:152,1,165.000006294251,8|0,0:0|0:0,0:0:0:0:
272,144,81427,1,0,0:0:0:0:
228,248,81620,1,0,0:0:0:0:
132,316,81814,1,8,0:0:0:0:
464,348,82007,1,0,0:0:0:0:
132,316,82201,5,4,0:0:0:0:
208,136,82395,1,0,0:0:0:0:
208,136,82491,1,0,0:0:0:0:
208,136,82588,1,8,0:0:0:0:
444,96,82782,1,0,0:0:0:0:
400,184,82975,1,0,0:0:0:0:
264,356,83169,1,0,0:0:0:0:
236,260,83362,1,8,0:0:0:0:
464,348,83556,1,0,0:0:0:0:
444,96,83749,5,4,0:0:0:0:
428,56,83846,1,0,0:0:0:0:
372,68,83943,1,0,0:0:0:0:
332,60,84040,1,0,0:0:0:0:
296,104,84136,1,12,0:0:0:0:
260,128,84233,1,0,0:0:0:0:
284,176,84330,1,0,0:0:0:0:
268,216,84427,1,0,0:0:0:0:
292,252,84524,5,12,0:0:0:0:
260,264,84620,1,0,0:0:0:0:
232,312,84717,1,0,0:0:0:0:
200,284,84814,1,0,0:0:0:0:
148,292,84911,1,12,0:0:0:0:
156,252,85007,1,0,0:0:0:0:
104,248,85104,1,0,0:0:0:0:
124,212,85201,1,0,0:0:0:0:
88,192,85298,6,0,P|100:108|184:64,1,165.000006294251,4|0,0:0|0:0,0:0:0:0:
200,84,85588,1,0,0:0:0:0:
240,96,85685,2,0,P|344:88|400:32,1,165.000006294251,8|0,0:0|0:0,0:0:0:0:
484,216,86072,2,0,P|392:188|300:208,1,165.000006294251
368,268,86459,1,8,0:0:0:0:
172,332,86653,1,0,0:0:0:0:
240,96,86846,5,4,0:0:0:0:
484,216,87040,1,0,0:0:0:0:
484,216,87136,1,0,0:0:0:0:
484,216,87233,2,0,P|392:188|300:208,1,165.000006294251,8|0,0:0|0:0,0:0:0:0:
172,332,87620,1,0,0:0:0:0:
48,236,87814,1,0,0:0:0:0:
368,268,88007,1,8,0:0:0:0:
240,96,88201,1,0,0:0:0:0:
284,352,88395,5,4,0:0:0:0:
48,236,88588,1,0,0:0:0:0:
48,236,88685,1,0,0:0:0:0:
48,236,88782,2,0,P|32:144|96:68,1,165.000006294251,8|0,0:0|0:0,0:0:0:0:
172,332,89169,2,0,P|72:368|-16:352,1,165.000006294251
300,200,89556,2,0,P|336:280|324:368,1,165.000006294251,8|0,0:0|0:0,0:0:0:0:
164,172,89943,5,4,0:0:0:0:
184,136,90040,1,0,0:0:0:0:
216,112,90136,1,0,0:0:0:0:
252,92,90233,1,0,0:0:0:0:
292,84,90330,1,12,0:0:0:0:
332,84,90427,1,0,0:0:0:0:
372,88,90524,1,0,0:0:0:0:
412,100,90620,1,0,0:0:0:0:
444,128,90717,5,12,0:0:0:0:
408,148,90814,1,0,0:0:0:0:
368,148,90911,1,0,0:0:0:0:
328,136,91007,1,0,0:0:0:0:
292,116,91104,1,12,0:0:0:0:
256,92,91201,1,0,0:0:0:0:
224,64,91298,1,0,0:0:0:0:
184,52,91395,1,0,0:0:0:0:
144,56,91491,6,0,P|68:100|64:192,1,165.000006294251,4|0,0:0|0:0,0:0:0:0:
72,208,91782,1,0,0:0:0:0:
104,236,91878,1,8,0:0:0:0:
184,352,92072,1,0,0:0:0:0:
272,168,92266,1,0,0:0:0:0:
312,292,92459,1,0,0:0:0:0:
136,88,92653,1,8,0:0:0:0:
212,256,92846,1,0,0:0:0:0:
464,88,93040,5,4,0:0:0:0:
312,292,93233,1,0,0:0:0:0:
348,268,93330,1,0,0:0:0:0:
384,256,93427,2,0,B|432:252|472:280|472:280|468:300|368:340,1,165.000006294251,8|0,0:0|0:0,0:0:0:0:
212,256,93814,2,0,P|232:180|320:160,1,165.000006294251
156,352,94201,2,0,P|72:316|56:232,1,165.000006294251,8|0,0:0|0:0,0:0:0:0:
136,36,94588,1,4,0:0:0:0:
216,220,94782,1,0,0:0:0:0:
188,248,94878,1,0,0:0:0:0:
148,264,94975,2,0,P|144:184|216:140,1,165.000006294251,8|0,0:0|0:0,0:0:0:0:
156,352,95362,2,0,P|72:316|56:232,1,165.000006294251
216,220,95749,2,0,P|304:200|380:240,1,165.000006294251,8|0,0:0|0:0,0:0:0:0:
312,360,96136,5,4,0:0:0:0:
288,328,96233,1,0,0:0:0:0:
252,308,96330,1,0,0:0:0:0:
220,296,96427,1,0,0:0:0:0:
180,296,96524,1,8,0:0:0:0:
140,308,96620,1,0,0:0:0:0:
100,296,96717,1,0,0:0:0:0:
76,264,96814,1,0,0:0:0:0:
88,224,96911,5,12,0:0:0:0:
128,232,97007,1,0,0:0:0:0:
160,204,97104,1,0,0:0:0:0:
200,216,97201,1,0,0:0:0:0:
236,196,97298,1,12,0:0:0:0:
276,212,97395,1,0,0:0:0:0:
312,192,97491,1,0,0:0:0:0:
352,204,97588,1,0,0:0:0:0:
392,192,97685,6,0,P|448:112|424:32,1,165.000006294251,4|0,0:0|0:0,0:0:0:0:
396,56,97975,1,0,0:0:0:0:
356,68,98072,2,0,P|264:88|196:52,1,165.000006294251,8|0,0:0|0:0,0:0:0:0:
236,196,98459,2,0,P|308:264|296:344,1,165.000006294251
305,324,98846,2,0,L|124:348,1,165.000006294251,8|0,0:0|0:0,0:0:0:0:
68,144,99233,5,4,0:0:0:0:
288,52,99427,1,0,0:0:0:0:
288,52,99524,1,0,0:0:0:0:
288,52,99620,1,8,0:0:0:0:
244,124,99814,1,0,0:0:0:0:
384,208,100007,1,0,0:0:0:0:
300,204,100201,1,0,0:0:0:0:
360,356,100395,1,8,0:0:0:0:
292,312,100588,1,0,0:0:0:0:
152,244,100782,5,4,0:0:0:0:
384,208,100975,1,0,0:0:0:0:
384,208,101072,1,0,0:0:0:0:
384,208,101169,1,8,0:0:0:0:
212,356,101362,1,0,0:0:0:0:
364,88,101556,1,0,0:0:0:0:
284,68,101749,1,0,0:0:0:0:
204,44,101943,1,8,0:0:0:0:
124,20,102136,1,0,0:0:0:0:
32,240,102330,5,4,0:0:0:0:
72,228,102427,1,0,0:0:0:0:
104,204,102524,1,0,0:0:0:0:
132,176,102620,1,0,0:0:0:0:
144,216,102717,5,12,0:0:0:0:
184,204,102814,1,0,0:0:0:0:
224,200,102911,1,0,0:0:0:0:
264,208,103007,1,0,0:0:0:0:
264,168,103104,5,12,0:0:0:0:
296,144,103201,1,0,0:0:0:0:
320,112,103298,1,0,0:0:0:0:
340,76,103395,1,0,0:0:0:0:
360,112,103491,5,12,0:0:0:0:
400,104,103588,1,0,0:0:0:0:
440,104,103685,1,0,0:0:0:0:
480,112,103782,1,0,0:0:0:0:
476,128,103878,5,0,0:0:0:0:
472,144,103975,1,0,0:0:0:0:
468,160,104072,1,0,0:0:0:0:
464,176,104169,1,0,0:0:0:0:
460,192,104266,1,0,0:0:0:0:
456,208,104362,1,0,0:0:0:0:
452,224,104459,1,0,0:0:0:0:
448,240,104556,1,0,0:0:0:0:
444,256,104653,6,0,L|208:280,1,220,0|4,0:0|0:0,0:0:0:0:
256,192,105524,12,0,108524,0:0:0:0:
