osu file format v14

[General]
AudioFilename: [Cytus] SHK - Halloween Party.mp3
AudioLeadIn: 0
PreviewTime: 77448
Countdown: 0
SampleSet: Soft
StackLeniency: 0.5
Mode: 0
LetterboxInBreaks: 1
WidescreenStoryboard: 1

[Editor]
Bookmarks: 17163,20260,32647,45034,48131,51227,63614,76001,79098,103872,108518
DistanceSpacing: 0.8
BeatDivisor: 4
GridSize: 4
TimelineZoom: 1

[Metadata]
Title:Halloween Party
TitleUnicode:Halloween Party
Artist:SHK
ArtistUnicode:SHK
Creator:Timorisu
Version:Normal
Source:Cytus
Tags:soundholick chapter 10 ten the new world 할로윈 파티 사이터스
BeatmapID:476927
BeatmapSetID:199719

[Difficulty]
HPDrainRate:4
CircleSize:3
OverallDifficulty:4
ApproachRate:5
SliderMultiplier:1.4
SliderTickRate:1

[Events]
//Background and Video events
0,0,"hwp.png",0,0
//Break Periods
2,63809,74796
//Storyboard Layer 0 (Background)
//Storyboard Layer 1 (Fail)
//Storyboard Layer 2 (Pass)
//Storyboard Layer 3 (Foreground)
//Storyboard Sound Samples

[TimingPoints]
-1422,387.096774193548,4,2,0,75,1,0
4771,-100,4,2,0,75,0,0
18707,-100,4,2,0,35,0,0
19481,-100,4,2,0,50,0,0
20255,-100,4,2,0,75,0,0
51223,-100,4,2,0,75,0,1
63610,-100,4,2,0,75,0,0
75997,-100,4,2,0,35,0,0
77545,-100,4,2,0,75,0,0
79094,-100,4,2,0,75,0,1
91457,-100,4,2,0,75,0,0
91481,-100,4,2,0,75,0,1
103868,-100,4,2,0,75,0,0
104061,-100,4,2,0,50,0,0

[Colours]
Combo1 : 255,196,17
Combo2 : 255,140,26
Combo3 : 255,207,17
Combo4 : 255,157,26

[HitObjects]
256,191,4771,5,0,0:0:0:0:
256,191,4964,2,0,P|321:213|387:192,1,140,2|2,0:0|0:0,0:0:0:0:
322,98,5738,2,0,P|256:76|190:97,1,140,2|2,0:0|0:0,0:0:0:0:
104,168,6513,2,0,L|-5:255,1,140,2|2,0:0|0:0,0:0:0:0:
64,344,7287,2,0,L|173:256,1,140,2|2,0:0|0:0,0:0:0:0:
256,192,8061,6,0,P|321:170|387:191,1,140,2|2,0:0|0:0,0:0:0:0:
322,286,8835,2,0,P|256:307|190:286,1,140,2|2,0:0|0:0,0:0:0:0:
104,216,9610,2,0,L|-5:128,1,140,2|2,0:0|0:0,0:0:0:0:
64,40,10384,2,0,L|173:127,1,140,2|2,0:0|0:0,0:0:0:0:
256,191,11158,6,0,P|321:213|387:192,1,140,2|2,0:0|0:0,0:0:0:0:
322,98,11932,2,0,P|256:76|190:97,1,140,2|2,0:0|0:0,0:0:0:0:
104,168,12707,2,0,L|-5:255,1,140,2|2,0:0|0:0,0:0:0:0:
64,344,13481,2,0,L|173:256,1,140,2|2,0:0|0:0,0:0:0:0:
256,192,14255,6,0,P|321:170|387:191,1,140,2|2,0:0|0:0,0:0:0:0:
322,286,15029,2,0,P|256:307|190:286,1,140,2|2,0:0|0:0,0:0:0:0:
148,252,15609,2,0,L|98:203,2,70,0|0|0,1:0|1:0|1:0,0:0:0:0:
156,140,16384,2,0,L|106:91,2,70,0|0|0,1:0|1:0|1:0,0:0:0:0:
256,192,17158,1,4,1:0:0:0:
256,192,17835,12,0,19480,3:0:0:0:
256,192,20255,5,6,0:0:0:0:
256,192,20448,1,0,0:0:0:0:
256,192,20642,2,0,P|191:167|127:192,1,140,10|2,0:0|0:0,0:0:0:0:
192,284,21416,2,0,P|256:308|320:283,1,140,10|2,0:0|0:0,0:0:0:0:
360,248,21996,2,0,P|424:223|488:247,1,140,0|2,0:0|0:0,0:0:0:0:
412,72,22964,1,10,0:0:0:0:
488,136,23351,5,6,0:0:0:0:
488,136,23545,1,0,0:0:0:0:
488,136,23738,2,0,P|512:71|487:7,1,140,10|2,0:0|0:0,0:0:0:0:
380,44,24513,2,0,L|247:88,1,140,10|2,0:0|0:0,0:0:0:0:
192,104,25093,2,0,P|129:75|100:12,1,140,0|2,0:0|0:0,0:0:0:0:
0,132,26061,1,10,0:0:0:0:
60,216,26448,5,6,0:0:0:0:
60,216,26642,1,0,0:0:0:0:
60,216,26835,2,0,L|158:314,1,140,10|2,0:0|0:0,0:0:0:0:
256,260,27609,1,10,0:0:0:0:
353,314,27996,1,2,0:0:0:0:
353,314,28190,2,0,P|420:333|487:314,1,140,0|2,0:0|0:0,0:0:0:0:
388,192,29158,1,10,0:0:0:0:
452,104,29545,5,6,0:0:0:0:
452,104,29738,1,0,0:0:0:0:
452,104,29932,2,0,P|388:82|323:105,1,140,10|2,0:0|0:0,0:0:0:0:
220,56,30707,1,10,0:0:0:0:
237,168,31094,1,2,0:0:0:0:
237,168,31287,2,0,P|168:157|119:109,1,140,0|2,0:0|0:0,0:0:0:0:
68,272,32255,1,10,0:0:0:0:
4,360,32642,6,0,P|67:384|131:360,1,140,4|8,1:0|0:0,0:0:0:0:
172,320,33222,1,0,0:0:0:0:
208,280,33416,2,0,P|271:254|335:277,1,140,0|8,1:0|0:0,0:0:0:0:
420,356,34190,5,0,1:0:0:0:
436,244,34577,1,8,0:0:0:0:
348,176,34964,1,0,1:0:0:0:
331,285,35351,1,8,0:0:0:0:
331,285,35545,1,8,0:0:0:0:
331,285,35738,6,0,P|269:256|240:194,1,140,4|8,1:0|0:0,0:0:0:0:
220,84,36513,2,0,P|157:112|128:174,1,140,0|8,1:0|0:0,0:0:0:0:
240,194,37287,5,2,0:0:0:0:
240,194,37480,1,2,0:0:0:0:
240,194,37674,2,0,P|302:165|331:103,1,140,10|2,0:0|0:0,0:0:0:0:
220,84,38448,1,8,0:0:0:0:
220,84,38641,1,0,1:0:0:0:
220,84,38835,6,0,P|157:112|128:174,1,140,4|8,1:0|0:0,0:0:0:0:
132,288,39609,1,0,1:0:0:0:
231,341,39996,1,8,0:0:0:0:
231,341,40190,1,8,0:0:0:0:
231,341,40384,5,0,1:0:0:0:
228,228,40771,1,8,0:0:0:0:
128,174,41158,2,0,P|157:112|220:84,1,140,0|8,1:0|0:0,0:0:0:0:
331,103,41932,6,0,P|302:165|240:194,1,140,4|8,1:0|0:0,0:0:0:0:
220,84,42706,2,0,P|249:22|312:-8,1,140,0|8,1:0|0:0,0:0:0:0:
416,32,43480,5,2,0:0:0:0:
436,140,43867,1,10,0:0:0:0:
331,103,44255,1,2,0:0:0:0:
351,211,44642,1,10,0:0:0:0:
246,174,45029,6,0,L|114:126,1,140,4|0,1:0|1:0,0:0:0:0:
84,236,45803,2,0,L|215:283,1,140,0|0,1:0|1:0,0:0:0:0:
321,321,46577,2,0,L|386:344,4,70,0|0|0|0|4,1:0|1:0|1:0|1:0|1:0,0:0:0:0:
244,112,48125,6,0,L|112:64,1,140,4|0,1:0|1:0,0:0:0:0:
82,174,48899,2,0,L|213:221,1,140,0|0,1:0|1:0,0:0:0:0:
319,259,49673,2,0,L|384:282,4,70,0|0|0|0|4,1:0|1:0|1:0|1:0|1:0,0:0:0:0:
212,220,50835,2,0,B|176:216|176:216|142:222|142:222|108:216|108:216|74:222|74:222,1,140,0|4,0:0|1:0,0:0:0:0:
20,236,51416,5,0,1:0:0:0:
0,184,51609,2,0,P|0:115|45:64,1,140,8|0,0:0|1:0,0:0:0:0:
100,52,52190,1,0,1:0:0:0:
156,40,52384,2,0,P|220:62|254:122,1,140,8|4,0:0|1:0,0:0:0:0:
256,236,53158,5,8,0:0:0:0:
256,348,53545,1,0,1:0:0:0:
256,348,53738,1,0,1:0:0:0:
256,348,53932,2,0,P|322:332|366:279,1,140,8|4,0:0|1:0,0:0:0:0:
384,228,54513,5,0,1:0:0:0:
400,176,54706,2,0,P|443:122|510:107,1,140,8|0,0:0|1:0,0:0:0:0:
496,208,55480,1,8,0:0:0:0:
456,300,55867,6,0,B|420:296|420:296|388:304|388:304|352:296|352:296|320:304|320:304|284:296|284:296|248:304,1,210,4|2,1:0|0:0,0:0:0:0:
212,304,56642,1,4,1:0:0:0:
112,256,57029,1,4,1:0:0:0:
4,284,57416,5,4,1:0:0:0:
4,284,57610,1,0,1:0:0:0:
4,284,57803,2,0,P|4:215|49:164,1,140,8|0,0:0|1:0,0:0:0:0:
152,120,58577,1,8,0:0:0:0:
252,72,58964,5,4,1:0:0:0:
252,72,59158,1,0,1:0:0:0:
252,72,59351,2,0,P|320:73|370:119,2,140,8|0|8,0:0|1:0|0:0,0:0:0:0:
152,120,60513,5,4,1:0:0:0:
152,120,60706,1,0,1:0:0:0:
152,120,60900,2,0,P|199:168|267:173,1,140,8|0,0:0|1:0,0:0:0:0:
324,160,61480,1,0,1:0:0:0:
380,148,61674,2,0,P|448:149|498:195,1,140,8|4,0:0|1:0,0:0:0:0:
404,256,62448,5,4,1:0:0:0:
296,224,62835,2,0,B|260:217|260:217|231:201|231:201|195:198|195:198|166:182|166:182|129:180|129:180|96:162|96:162|63:160|63:160|34:145,1,280,8|4,0:0|1:0,0:0:0:0:
256,192,75996,12,0,78319,1:0:0:0:
256,192,79093,5,4,1:0:0:0:
256,192,79287,1,0,1:0:0:0:
256,192,79481,2,0,P|191:167|127:192,1,140,8|0,0:0|1:0,0:0:0:0:
192,284,80255,1,8,0:0:0:0:
80,292,80642,5,4,1:0:0:0:
80,292,80835,1,0,1:0:0:0:
80,292,81029,2,0,P|31:245|18:177,1,140,8|0,0:0|1:0,0:0:0:0:
128,191,81803,1,8,0:0:0:0:
84,88,82190,5,4,1:0:0:0:
84,88,82383,1,0,1:0:0:0:
84,88,82577,2,0,P|152:81|211:116,1,140,8|0,0:0|1:0,0:0:0:0:
252,156,83158,1,0,1:0:0:0:
288,196,83351,2,0,P|347:231|415:224,1,140,8|4,0:0|1:0,0:0:0:0:
512,168,84125,5,2,0:0:0:0:
412,112,84513,1,4,1:0:0:0:
508,56,84900,1,4,1:0:0:0:
408,4,85288,5,4,1:0:0:0:
408,4,85480,1,0,1:0:0:0:
408,4,85674,2,0,P|343:28|305:85,1,140,8|0,0:0|1:0,0:0:0:0:
256,180,86448,1,8,0:0:0:0:
204,88,86835,5,4,1:0:0:0:
204,88,87029,1,0,1:0:0:0:
204,88,87222,2,0,P|166:31|102:8,1,140,8|0,0:0|1:0,0:0:0:0:
100,116,87996,1,8,0:0:0:0:
4,60,88384,5,4,1:0:0:0:
4,60,88577,1,0,1:0:0:0:
4,60,88771,2,0,P|-9:127|19:190,1,140,8|0,0:0|1:0,0:0:0:0:
44,220,89351,1,0,1:0:0:0:
72,252,89545,2,0,P|100:314|87:382,1,140,8|4,0:0|1:0,0:0:0:0:
196,368,90319,5,4,1:0:0:0:
284,300,90706,1,4,1:0:0:0:
176,268,91093,1,4,1:0:0:0:
256,192,91480,5,4,1:0:0:0:
256,192,91674,1,0,1:0:0:0:
256,192,91868,2,0,P|321:167|385:192,1,140,8|0,0:0|1:0,0:0:0:0:
320,284,92642,1,0,1:0:0:0:
432,292,93029,5,4,1:0:0:0:
432,292,93222,1,0,1:0:0:0:
432,292,93416,2,0,P|481:245|494:177,1,140,8|0,0:0|1:0,0:0:0:0:
384,191,94190,1,0,1:0:0:0:
428,88,94577,5,4,1:0:0:0:
428,88,94770,1,0,1:0:0:0:
428,88,94964,2,0,P|360:81|301:116,1,140,8|0,0:0|1:0,0:0:0:0:
260,156,95545,1,8,0:0:0:0:
224,196,95738,2,0,P|165:231|97:224,1,140,0|4,1:0|1:0,0:0:0:0:
0,168,96512,5,2,0:0:0:0:
108,120,96900,1,4,1:0:0:0:
12,64,97287,1,4,1:0:0:0:
100,4,97675,5,4,1:0:0:0:
108,5,97867,1,0,1:0:0:0:
116,5,98061,2,0,P|181:29|219:86,1,140,8|0,0:0|1:0,0:0:0:0:
264,180,98835,1,0,1:0:0:0:
306,85,99222,5,4,1:0:0:0:
306,85,99416,1,0,1:0:0:0:
306,85,99609,2,0,P|344:28|409:4,1,140,8|0,0:0|1:0,0:0:0:0:
412,116,100383,1,0,1:0:0:0:
508,60,100771,5,4,1:0:0:0:
508,60,100964,1,0,1:0:0:0:
508,60,101158,2,0,P|521:127|493:190,1,140,8|0,0:0|1:0,0:0:0:0:
468,220,101738,1,8,0:0:0:0:
440,252,101932,2,0,P|412:314|425:382,1,140,0|4,1:0|1:0,0:0:0:0:
316,352,102706,5,4,1:0:0:0:
208,324,103093,1,4,1:0:0:0:
100,296,103480,1,4,1:0:0:0:
176,216,103867,5,4,1:0:0:0:
256,192,104061,12,4,108513,0:0:0:0:
