osu file format v14

[General]
AudioFilename: [Cytus] SHK - Halloween Party.mp3
AudioLeadIn: 0
PreviewTime: 77448
Countdown: 0
SampleSet: Soft
StackLeniency: 0.5
Mode: 0
LetterboxInBreaks: 1
WidescreenStoryboard: 1

[Editor]
Bookmarks: 17163,20260,32647,45034,48131,51227,63614,76001,79098,103872,108518
DistanceSpacing: 1
BeatDivisor: 4
GridSize: 4
TimelineZoom: 1

[Metadata]
Title:Halloween Party
TitleUnicode:Halloween Party
Artist:SHK
ArtistUnicode:SHK
Creator:Timorisu
Version:Easy
Source:Cytus
Tags:soundholick chapter 10 ten the new world 할로윈 파티 사이터스
BeatmapID:476825
BeatmapSetID:199719

[Difficulty]
HPDrainRate:2
CircleSize:3
OverallDifficulty:2
ApproachRate:3
SliderMultiplier:0.999999999999999
SliderTickRate:1

[Events]
//Background and Video events
0,0,"hwp.png",0,0
//Break Periods
2,63810,74556
//Storyboard Layer 0 (Background)
//Storyboard Layer 1 (Fail)
//Storyboard Layer 2 (Pass)
//Storyboard Layer 3 (Foreground)
//Storyboard Sound Samples

[TimingPoints]
-1422,387.096774193548,4,2,0,75,1,0
4771,-100,4,2,0,75,0,0
18707,-100,4,2,0,35,0,0
20255,-100,4,2,0,75,0,0
51223,-100,4,2,0,75,0,1
63610,-100,4,2,0,75,0,0
75997,-100,4,2,0,35,0,0
77545,-100,4,2,0,75,0,0
79094,-100,4,2,0,75,0,1
91457,-100,4,2,0,75,0,0
91481,-100,4,2,0,75,0,1
103868,-100,4,2,0,75,0,0
104255,-100,4,2,0,50,0,0

[Colours]
Combo1 : 255,196,17
Combo2 : 255,140,26
Combo3 : 255,207,17
Combo4 : 255,157,26

[HitObjects]
188,116,4964,5,2,0:0:0:0:
256,192,5352,2,0,P|278:235|320:262,1,99.9999999999999,2|2,0:0|0:0,0:0:0:0:
352,168,6126,2,0,P|329:124|287:97,1,99.9999999999999,2|2,0:0|0:0,0:0:0:0:
188,116,6900,1,2,0:0:0:0:
95,158,7287,2,0,P|126:197|172:216,1,99.9999999999999,2|2,0:0|0:0,0:0:0:0:
124,308,8061,6,0,P|171:320|219:308,1,99.9999999999999,2|2,0:0|0:0,0:0:0:0:
308,260,8835,2,0,P|355:247|403:260,1,99.9999999999999,2|2,0:0|0:0,0:0:0:0:
474,189,9609,2,0,P|461:141|473:93,1,99.9999999999999,2|2,0:0|0:0,0:0:0:0:
402,22,10384,2,0,P|354:34|306:22,1,99.9999999999999,2|2,0:0|0:0,0:0:0:0:
235,92,11158,6,0,P|247:140|235:188,1,99.9999999999999,2|2,0:0|0:0,0:0:0:0:
148,140,11932,2,0,P|135:188|147:236,1,99.9999999999999,2|2,0:0|0:0,0:0:0:0:
232,288,12706,2,0,L|317:339,1,99.9999999999999,2|2,0:0|0:0,0:0:0:0:
364,252,13480,2,0,L|278:200,1,99.9999999999999,2|2,0:0|0:0,0:0:0:0:
272,100,14255,6,0,P|259:51|271:3,1,99.9999999999999,2|2,0:0|0:0,0:0:0:0:
359,51,15029,2,0,L|420:136,1,99.9999999999999,2|2,0:0|0:0,0:0:0:0:
432,180,15609,6,0,B|388:204|388:204|344:180|344:180|300:204|300:204|256:180|256:180|212:204|212:204|168:184|168:184|124:208|124:208|80:184,1,400,0|4,1:0|1:0,0:0:0:0:
256,192,17352,12,0,18707,3:0:0:0:
264,91,20255,5,6,0:0:0:0:
255,192,20642,2,0,P|171:238|88:192,1,200,10|10,0:0|0:0,0:0:0:0:
172,136,21803,1,2,0:0:0:0:
264,91,22190,2,0,P|344:144|342:240,1,200,8|10,0:0|0:0,0:0:0:0:
256,192,23351,5,6,0:0:0:0:
168,144,23738,2,0,P|166:239|246:292,1,200,10|10,0:0|0:0,0:0:0:0:
256,192,24900,2,0,P|269:143|256:95,1,99.9999999999999,2|8,0:0|0:0,0:0:0:0:
168,48,25674,2,0,P|120:59|84:93,1,99.9999999999999,0|10,0:0|0:0,0:0:0:0:
88,192,26448,6,0,P|172:238|256:192,1,200,6|2,0:0|0:0,0:0:0:0:
172,136,27609,1,10,0:0:0:0:
84,96,27996,2,0,P|4:149|6:245,1,200,2|0,0:0|0:0,0:0:0:0:
48,336,29158,1,10,0:0:0:0:
139,293,29545,6,0,P|186:281|234:292,1,99.9999999999999,6|10,0:0|0:0,0:0:0:0:
324,344,30319,2,0,P|371:356|419:344,1,99.9999999999999,2|10,0:0|0:0,0:0:0:0:
500,283,31093,2,0,P|527:189|496:96,1,200,2|0,0:0|0:3,0:0:0:0:
404,56,32255,1,10,0:0:0:0:
312,96,32642,5,4,1:0:0:0:
220,136,33029,2,0,P|136:182|52:136,1,200,8|8,0:0|0:0,0:0:0:0:
136,80,34190,1,0,1:0:0:0:
228,36,34577,1,8,0:0:0:0:
312,96,34964,1,0,1:0:0:0:
300,196,35351,1,8,0:0:0:0:
208,240,35738,6,0,P|284:298|374:265,1,200,4|0,1:0|1:0,0:0:0:0:
300,196,36900,2,0,P|223:137|133:170,1,200,8|10,0:0|0:0,0:0:0:0:
80,252,38061,1,2,0:0:0:0:
180,260,38448,1,8,0:0:0:0:
124,344,38835,5,4,1:0:0:0:
24,336,39222,2,0,P|-20:250|24:166,1,200,8|8,0:0|0:0,0:0:0:0:
113,120,40384,1,0,1:0:0:0:
201,72,40770,2,0,P|296:82|339:168,1,200,8|8,0:0|0:0,0:0:0:0:
440,188,41932,5,4,1:0:0:0:
376,264,42319,2,0,P|280:254|237:168,1,200,8|8,0:0|0:0,0:0:0:0:
201,72,43480,1,2,0:0:0:0:
116,20,43867,1,10,0:0:0:0:
68,108,44255,1,2,0:0:0:0:
153,160,44642,1,10,0:0:0:0:
63,207,45029,6,0,P|97:244|143:260,1,99.9999999999999,4|0,1:0|1:0,0:0:0:0:
244,260,45803,2,0,P|290:244|323:207,1,99.9999999999999,0|0,1:0|1:0,0:0:0:0:
315,107,46577,2,0,P|269:123|236:160,2,99.9999999999999,0|0|4,1:0|1:0|1:0,0:0:0:0:
496,192,48125,6,0,P|448:204|400:191,1,99.9999999999999,4|0,1:0|1:0,0:0:0:0:
300,192,48900,2,0,P|252:179|204:191,1,99.9999999999999,0|0,1:0|1:0,0:0:0:0:
104,192,49674,2,0,P|56:204|8:191,2,99.9999999999999,0|0|4,1:0|1:0|1:0,0:0:0:0:
152,104,50835,1,0,0:0:0:0:
204,191,51222,6,0,P|193:239|160:276,2,99.9999999999999,4|8|0,1:0|0:0|1:0,0:0:0:0:
152,104,52384,1,8,0:0:0:0:
252,104,52771,1,4,1:0:0:0:
304,188,53158,2,0,P|337:151|349:103,2,99.9999999999999,8|0|8,0:0|1:0|0:0,0:0:0:0:
206,187,54319,1,4,1:0:0:0:
256,276,54706,2,0,P|244:324|210:360,1,99.9999999999999,8|0,0:0|1:0,0:0:0:0:
113,360,55481,1,8,0:0:0:0:
157,275,55868,5,4,1:0:0:0:
206,188,56255,1,2,0:0:0:0:
256,276,56642,1,4,1:0:0:0:
306,188,57029,1,4,1:0:0:0:
355,275,57416,5,4,1:0:0:0:
406,187,57803,2,0,P|361:103|265:95,1,200,8|8,0:0|0:0,0:0:0:0:
172,132,58964,1,4,1:0:0:0:
135,223,59351,2,0,P|75:149|106:58,1,200,8|8,0:0|0:0,0:0:0:0:
172,132,60513,1,4,1:0:0:0:
236,208,60900,2,0,P|330:194|368:106,1,200,8|8,0:0|0:0,0:0:0:0:
272,116,62061,5,4,1:0:0:0:
172,132,62448,1,4,1:0:0:0:
135,223,62835,2,0,P|154:269|193:300,1,99.9999999999999,8|2,0:0|0:0,0:0:0:0:
236,208,63610,1,4,1:0:0:0:
256,192,75996,12,4,77545,0:1:0:0:
344,92,79093,5,4,1:0:0:0:
339,192,79480,2,0,P|255:237|171:191,1,200,8|8,0:0|0:0,0:0:0:0:
256,136,80642,1,4,1:0:0:0:
168,92,81029,2,0,P|86:141|84:237,1,200,8|8,0:0|0:0,0:0:0:0:
168,300,82190,2,4,L|256:252,1,99.9999999999999,4|8,1:0|0:0,0:0:0:0:
344,300,82964,2,0,L|432:252,1,99.9999999999999,0|8,1:0|0:0,0:0:0:0:
428,147,83738,6,0,P|395:111|348:98,1,99.9999999999999,4|2,1:0|0:0,0:0:0:0:
256,136,84512,1,4,1:0:0:0:
340,191,84900,1,4,1:0:0:0:
256,236,85287,5,4,1:0:0:0:
171,192,85674,2,0,P|173:287|256:335,1,200,8|8,0:0|0:0,0:0:0:0:
256,236,86835,1,4,1:0:0:0:
340,190,87222,2,0,P|339:95|256:48,1,200,8|8,0:0|0:0,0:0:0:0:
256,144,88384,1,4,1:0:0:0:
171,190,88771,2,0,P|172:95|256:48,1,200,8|8,0:0|0:0,0:0:0:0:
256,144,89932,5,4,1:0:0:0:
256,244,90319,1,4,1:0:0:0:
170,287,90706,1,4,1:0:0:0:
171,190,91093,1,4,1:0:0:0:
256,144,91480,5,4,1:0:0:0:
344,100,91867,2,0,P|425:149|427:245,1,200,8|0,0:0|1:0,0:0:0:0:
344,300,93029,2,4,L|256:252,1,99.9999999999999,4|8,1:0|0:0,0:0:0:0:
168,300,93803,2,0,L|80:252,1,99.9999999999999,0|0,1:0|1:0,0:0:0:0:
84,147,94577,2,0,P|117:111|164:96,2,99.9999999999999,4|8|0,1:0|0:0|1:0,0:0:0:0:
171,199,95739,1,0,1:0:0:0:
256,144,96126,6,0,L|343:192,1,99.9999999999999,4|2,1:0|0:0,0:0:0:0:
343,291,96900,2,0,L|256:244,1,99.9999999999999,4|4,1:0|1:0,0:0:0:0:
256,144,97674,5,4,1:0:0:0:
171,199,98061,2,0,P|173:295|255:343,1,200,8|0,0:0|1:0,0:0:0:0:
256,244,99222,1,4,1:0:0:0:
340,201,99609,2,0,P|339:296|256:344,1,200,8|0,0:0|1:0,0:0:0:0:
256,244,100771,2,0,L|256:140,1,99.9999999999999,4|8,1:0|0:0,0:0:0:0:
340,100,101545,2,0,L|340:200,1,99.9999999999999,0|0,1:0|1:0,0:0:0:0:
256,244,102319,5,4,1:0:0:0:
172,200,102706,1,4,1:0:0:0:
172,104,103093,1,4,1:0:0:0:
256,52,103480,1,4,1:0:0:0:
256,152,103867,5,4,1:0:0:0:
256,192,104255,12,0,108513,0:0:0:0:
