osu file format v14

[General]
AudioFilename: [Cytus] SHK - Halloween Party.mp3
AudioLeadIn: 0
PreviewTime: -1
Countdown: 0
SampleSet: Normal
StackLeniency: 0.7
Mode: 0
LetterboxInBreaks: 0
WidescreenStoryboard: 0

[Editor]
DistanceSpacing: 1.2
BeatDivisor: 4
GridSize: 4
TimelineZoom: 1

[Metadata]
Title:Halloween Party
TitleUnicode:Halloween Party
Artist:SHK
ArtistUnicode:SHK
Creator:Beat Nitro
Version:Spooky
Source:
Tags:
BeatmapID:652851
BeatmapSetID:289656

[Difficulty]
HPDrainRate:7
CircleSize:4
OverallDifficulty:7
ApproachRate:8
SliderMultiplier:1.4
SliderTickRate:1

[Events]
//Background and Video events
0,0,"Cytus_SHK_-_Halloween_Party.jpg",0,0
//Break Periods
2,34349,46174
2,65704,77044
//Storyboard Layer 0 (Background)
//Storyboard Layer 1 (Fail)
//Storyboard Layer 2 (Pass)
//Storyboard Layer 3 (Foreground)
//Storyboard Sound Samples

[TimingPoints]
6666,387.096774193548,4,1,0,100,1,0

[Colours]
Combo1 : 255,255,255
Combo2 : 0,0,64
Combo3 : 255,128,0
Combo4 : 255,255,0

[HitObjects]
85,67,6666,5,0,0:0:0:0:
168,70,6859,1,0,0:0:0:0:
166,153,7053,1,0,0:0:0:0:
82,147,7246,1,0,0:0:0:0:
79,230,7440,1,0,0:0:0:0:
77,313,7633,1,0,0:0:0:0:
160,313,7827,1,0,0:0:0:0:
166,229,8020,1,0,0:0:0:0:
249,228,8214,5,0,0:0:0:0:
248,311,8407,1,0,0:0:0:0:
331,311,8601,1,0,0:0:0:0:
323,227,8795,1,0,0:0:0:0:
326,143,8988,1,0,0:0:0:0:
241,143,9182,1,0,0:0:0:0:
251,59,9375,1,0,0:0:0:0:
334,61,9569,1,0,0:0:0:0:
417,60,9762,5,0,0:0:0:0:
500,61,9956,1,0,0:0:0:0:
496,144,10149,1,0,0:0:0:0:
412,140,10343,1,0,0:0:0:0:
409,223,10536,1,0,0:0:0:0:
492,223,10730,1,0,0:0:0:0:
490,306,10923,1,0,0:0:0:0:
406,308,11117,1,0,0:0:0:0:
322,311,11310,5,0,0:0:0:0:
323,227,11504,1,0,0:0:0:0:
330,142,11698,1,0,0:0:0:0:
335,58,11891,1,0,0:0:0:0:
251,54,12085,1,0,0:0:0:0:
246,137,12278,1,0,0:0:0:0:
238,220,12472,1,0,0:0:0:0:
234,303,12665,1,0,0:0:0:0:
150,307,12859,5,0,0:0:0:0:
79,262,13052,1,0,0:0:0:0:
144,209,13246,1,0,0:0:0:0:
83,150,13439,1,0,0:0:0:0:
152,102,13633,1,0,0:0:0:0:
216,47,13827,1,0,0:0:0:0:
292,77,14020,1,0,0:0:0:0:
323,105,14117,1,0,0:0:0:0:
334,145,14214,1,0,0:0:0:0:
311,180,14311,1,0,0:0:0:0:
277,204,14407,5,0,0:0:0:0:
345,253,14601,1,0,0:0:0:0:
282,308,14794,1,0,0:0:0:0:
356,347,14988,1,0,0:0:0:0:
418,301,15181,1,0,0:0:0:0:
442,267,15278,1,0,0:0:0:0:
454,227,15375,1,0,0:0:0:0:
455,185,15472,1,0,0:0:0:0:
444,144,15569,1,0,0:0:0:0:
422,107,15665,1,0,0:0:0:0:
386,84,15762,1,0,0:0:0:0:
344,74,15859,1,0,0:0:0:0:
303,98,15956,5,0,0:0:0:0:
245,159,16149,1,0,0:0:0:0:
301,221,16343,1,0,0:0:0:0:
240,279,16536,1,0,0:0:0:0:
308,327,16730,1,0,0:0:0:0:
381,286,16923,1,0,0:0:0:0:
415,261,17020,1,0,0:0:0:0:
448,236,17117,1,0,0:0:0:0:
414,211,17214,1,0,0:0:0:0:
376,191,17310,6,0,L|300:157,1,70
228,154,17698,2,0,L|150:204,1,70
107,134,18085,2,0,L|87:231,1,70
120,281,18473,2,0,L|215:303,1,70
270,279,18860,1,0,0:0:0:0:
256,192,20504,12,0,22149,0:0:0:0:
89,62,22536,5,0,0:0:0:0:
166,94,22730,1,0,0:0:0:0:
227,150,22924,1,0,0:0:0:0:
244,232,23117,1,0,0:0:0:0:
195,300,23311,1,0,0:0:0:0:
120,338,23504,1,0,0:0:0:0:
74,267,23698,1,0,0:0:0:0:
101,210,23891,1,0,0:0:0:0:
254,99,24278,5,0,0:0:0:0:
259,350,24859,1,0,0:0:0:0:
426,341,25246,1,0,0:0:0:0:
352,300,25440,1,0,0:0:0:0:
290,243,25633,1,0,0:0:0:0:
276,160,25827,1,0,0:0:0:0:
321,89,26020,1,0,0:0:0:0:
401,65,26214,1,0,0:0:0:0:
484,52,26407,1,0,0:0:0:0:
486,136,26601,1,0,0:0:0:0:
440,206,26795,1,0,0:0:0:0:
396,251,26988,1,0,0:0:0:0:
257,299,27375,5,0,0:0:0:0:
201,264,27569,2,0,B|247:165|247:165|160:57,1,245
140,86,28343,1,0,0:0:0:0:
203,140,28537,1,0,0:0:0:0:
271,188,28730,1,0,0:0:0:0:
347,222,28924,1,0,0:0:0:0:
289,283,29117,1,0,0:0:0:0:
225,339,29311,1,0,0:0:0:0:
153,294,29504,1,0,0:0:0:0:
211,233,29698,1,0,0:0:0:0:
274,177,29892,1,0,0:0:0:0:
293,116,30085,1,0,0:0:0:0:
104,99,30472,5,0,0:0:0:0:
175,340,31053,1,0,0:0:0:0:
333,283,31440,1,0,0:0:0:0:
262,238,31633,1,0,0:0:0:0:
332,191,31827,1,0,0:0:0:0:
398,241,32021,1,0,0:0:0:0:
469,284,32214,1,0,0:0:0:0:
400,332,32408,1,0,0:0:0:0:
333,283,32601,1,0,0:0:0:0:
398,241,32795,1,0,0:0:0:0:
332,191,32988,1,0,0:0:0:0:
278,157,33182,1,0,0:0:0:0:
91,123,33569,1,0,0:0:0:0:
342,108,34149,1,0,0:0:0:0:
255,28,46924,5,0,0:0:0:0:
253,111,47117,1,0,0:0:0:0:
257,194,47311,1,0,0:0:0:0:
258,277,47504,1,0,0:0:0:0:
256,360,47698,1,0,0:0:0:0:
258,277,47892,1,0,0:0:0:0:
257,194,48085,5,0,0:0:0:0:
252,110,48278,1,0,0:0:0:0:
255,28,48472,1,0,0:0:0:0:
143,42,48666,1,0,0:0:0:0:
72,87,48859,1,0,0:0:0:0:
60,170,49053,1,0,0:0:0:0:
17,190,49246,1,0,0:0:0:0:
61,188,50020,5,0,0:0:0:0:
144,184,50214,1,0,0:0:0:0:
227,187,50407,1,0,0:0:0:0:
310,188,50601,1,0,0:0:0:0:
393,189,50795,1,0,0:0:0:0:
476,189,50988,1,0,0:0:0:0:
392,188,51182,1,0,0:0:0:0:
310,188,51375,5,0,0:0:0:0:
227,187,51569,1,0,0:0:0:0:
142,185,51762,1,0,0:0:0:0:
58,185,51956,1,0,0:0:0:0:
88,263,52149,1,0,0:0:0:0:
171,266,52343,1,0,0:0:0:0:
338,268,52730,1,0,0:0:0:0:
372,244,52827,1,0,0:0:0:0:
389,205,52924,1,0,0:0:0:0:
380,163,53020,1,0,0:0:0:0:
353,130,53117,5,0,0:0:0:0:
272,105,53311,1,0,0:0:0:0:
230,104,53407,1,0,0:0:0:0:
189,116,53504,1,0,0:0:0:0:
108,139,53698,2,0,L|83:220,3,70
162,243,54472,5,0,0:0:0:0:
204,319,54666,1,0,0:0:0:0:
280,316,54859,1,0,0:0:0:0:
319,301,54955,1,0,0:0:0:0:
355,278,55052,1,0,0:0:0:0:
404,212,55246,1,0,0:0:0:0:
351,146,55439,2,0,L|270:113,3,70
204,139,56214,5,0,0:0:0:0:
127,174,56408,1,0,0:0:0:0:
110,212,56504,1,0,0:0:0:0:
99,252,56601,1,0,0:0:0:0:
162,308,56795,2,0,L|259:317,3,70
310,286,57569,1,0,0:0:0:0:
367,224,57763,5,0,0:0:0:0:
362,182,57859,1,0,0:0:0:0:
332,151,57956,1,0,0:0:0:0:
290,153,58053,1,0,0:0:0:0:
267,188,58150,1,0,0:0:0:0:
297,216,58246,1,0,0:0:0:0:
335,200,58343,1,0,0:0:0:0:
357,164,58440,1,0,0:0:0:0:
359,122,58537,5,0,0:0:0:0:
329,91,58633,1,0,0:0:0:0:
288,78,58730,1,0,0:0:0:0:
246,71,58827,1,0,0:0:0:0:
204,73,58924,1,0,0:0:0:0:
168,95,59021,1,0,0:0:0:0:
140,126,59117,1,0,0:0:0:0:
123,164,59214,1,0,0:0:0:0:
122,206,59311,5,0,0:0:0:0:
135,288,59504,1,0,0:0:0:0:
168,313,59601,1,0,0:0:0:0:
206,296,59698,1,0,0:0:0:0:
287,275,59892,2,0,L|365:274,3,70
417,216,60666,1,0,0:0:0:0:
376,142,60859,5,0,0:0:0:0:
292,132,61053,1,0,0:0:0:0:
254,113,61150,1,0,0:0:0:0:
251,71,61246,1,0,0:0:0:0:
167,68,61440,2,0,L|123:137,3,70
118,210,62214,1,0,0:0:0:0:
165,279,62408,5,0,0:0:0:0:
248,280,62601,1,0,0:0:0:0:
288,268,62698,1,0,0:0:0:0:
315,236,62795,1,0,0:0:0:0:
325,152,62988,1,0,0:0:0:0:
267,90,63182,1,0,0:0:0:0:
187,117,63375,1,0,0:0:0:0:
173,199,63569,1,0,0:0:0:0:
209,274,63762,1,0,0:0:0:0:
289,296,63956,6,0,L|340:308,1,35
297,270,64149,2,0,L|341:279,1,35
302,246,64343,2,0,L|351:257,1,35
308,221,64536,2,0,L|352:229,1,35
316,194,64730,2,0,L|360:207,1,35
324,170,64924,2,0,L|363:184,1,35
333,147,65117,2,0,L|383:164,1,35
339,126,65311,2,0,L|399:146,1,35
345,104,65504,1,0,0:0:0:0:
256,192,77794,12,0,79440,0:0:0:0:
230,149,79633,5,0,0:0:0:0:
261,120,79730,1,0,0:0:0:0:
299,103,79827,1,0,0:0:0:0:
340,110,79924,1,0,0:0:0:0:
380,121,80020,1,0,0:0:0:0:
406,153,80117,1,0,0:0:0:0:
383,188,80214,1,0,0:0:0:0:
341,195,80311,1,0,0:0:0:0:
299,196,80407,2,0,L|281:220,12,17.5
216,183,81182,5,0,0:0:0:0:
192,148,81278,1,0,0:0:0:0:
181,188,81375,1,0,0:0:0:0:
102,158,81569,1,0,0:0:0:0:
122,76,81762,2,0,L|208:74,1,70
246,137,82149,2,0,L|341:136,1,70
397,157,82536,5,0,0:0:0:0:
377,238,82730,1,0,0:0:0:0:
338,221,82827,1,0,0:0:0:0:
343,262,82924,1,0,0:0:0:0:
262,286,83117,1,0,0:0:0:0:
213,217,83311,2,0,L|294:180,1,70
280,104,83698,2,0,L|194:73,1,70
130,85,84085,5,0,0:0:0:0:
69,144,84278,1,0,0:0:0:0:
57,184,84375,1,0,0:0:0:0:
95,166,84472,1,0,0:0:0:0:
178,156,84666,1,0,0:0:0:0:
260,169,84859,2,0,L|316:207,1,35
247,191,85053,2,0,L|274:226,1,35
226,212,85246,2,0,L|226:250,1,35
198,215,85440,2,0,L|168:258,1,35
185,284,85634,5,0,0:0:0:0:
226,292,85731,1,0,0:0:0:0:
262,271,85828,1,0,0:0:0:0:
291,241,85924,1,0,0:0:0:0:
315,206,86021,1,0,0:0:0:0:
324,165,86118,1,0,0:0:0:0:
316,123,86215,1,0,0:0:0:0:
289,90,86311,1,0,0:0:0:0:
247,84,86408,5,0,0:0:0:0:
207,97,86505,1,0,0:0:0:0:
184,132,86602,1,0,0:0:0:0:
212,163,86699,1,0,0:0:0:0:
253,161,86795,1,0,0:0:0:0:
294,156,86892,1,0,0:0:0:0:
332,139,86989,1,0,0:0:0:0:
372,127,87086,1,0,0:0:0:0:
413,123,87182,5,0,0:0:0:0:
445,167,87375,1,0,0:0:0:0:
458,206,87472,1,0,0:0:0:0:
427,234,87569,1,0,0:0:0:0:
343,235,87762,1,0,0:0:0:0:
266,270,87956,2,0,L|263:349,1,70
220,267,88343,2,0,L|223:188,1,70
138,189,88730,5,0,0:0:0:0:
176,114,88924,1,0,0:0:0:0:
212,93,89020,1,0,0:0:0:0:
242,121,89117,1,0,0:0:0:0:
326,129,89311,1,0,0:0:0:0:
408,142,89504,2,0,L|500:141,1,70
408,188,89891,2,0,L|325:187,1,70
260,219,90278,5,0,0:0:0:0:
193,270,90472,1,0,0:0:0:0:
151,271,90569,1,0,0:0:0:0:
116,247,90666,1,0,0:0:0:0:
112,163,90859,1,0,0:0:0:0:
160,94,91053,2,0,L|223:38,1,70
195,129,91440,2,0,L|147:186,1,70
232,199,91827,5,0,0:0:0:0:
264,172,91924,1,0,0:0:0:0:
269,130,92020,1,0,0:0:0:0:
260,88,92117,1,0,0:0:0:0:
228,60,92214,1,0,0:0:0:0:
188,72,92311,1,0,0:0:0:0:
173,111,92407,1,0,0:0:0:0:
190,149,92504,1,0,0:0:0:0:
230,158,92601,5,0,0:0:0:0:
271,161,92698,1,0,0:0:0:0:
312,157,92795,1,0,0:0:0:0:
348,137,92891,1,0,0:0:0:0:
389,142,92988,1,0,0:0:0:0:
416,173,93085,1,0,0:0:0:0:
408,214,93181,1,0,0:0:0:0:
368,229,93278,1,0,0:0:0:0:
326,237,93375,5,0,0:0:0:0:
284,235,93569,1,0,0:0:0:0:
284,276,93666,1,0,0:0:0:0:
284,235,93762,1,0,0:0:0:0:
182,209,93956,1,0,0:0:0:0:
118,292,94149,2,0,L|100:208,1,70
120,119,94536,2,0,L|197:157,1,70
285,129,94924,5,0,0:0:0:0:
387,106,95117,1,0,0:0:0:0:
438,96,95214,1,0,0:0:0:0:
386,107,95311,1,0,0:0:0:0:
347,204,95504,1,0,0:0:0:0:
244,226,95698,2,0,L|186:148,1,70
102,202,96085,2,0,L|138:275,1,70
151,161,96472,5,0,0:0:0:0:
167,57,96666,1,0,0:0:0:0:
219,51,96762,1,0,0:0:0:0:
198,99,96859,1,0,0:0:0:0:
199,203,97053,1,0,0:0:0:0:
278,271,97246,2,0,L|318:182,1,70
218,150,97633,2,0,L|299:188,1,70
368,120,98020,5,0,0:0:0:0:
342,165,98117,1,0,0:0:0:0:
297,193,98214,1,0,0:0:0:0:
245,183,98311,1,0,0:0:0:0:
208,144,98407,1,0,0:0:0:0:
198,99,98504,1,0,0:0:0:0:
231,58,98601,1,0,0:0:0:0:
282,47,98698,1,0,0:0:0:0:
332,61,98795,5,0,0:0:0:0:
380,81,98891,1,0,0:0:0:0:
423,110,98988,1,0,0:0:0:0:
444,157,99085,1,0,0:0:0:0:
432,208,99182,1,0,0:0:0:0:
401,250,99278,1,0,0:0:0:0:
351,268,99375,1,0,0:0:0:0:
300,283,99472,1,0,0:0:0:0:
258,278,99569,5,0,0:0:0:0:
108,264,99763,1,0,0:0:0:0:
39,275,99859,1,0,0:0:0:0:
62,209,99956,1,0,0:0:0:0:
108,76,100150,1,0,0:0:0:0:
181,195,100343,2,0,L|217:112,1,70
326,55,100730,2,0,L|287:140,1,70
434,93,101117,5,0,0:0:0:0:
385,224,101311,1,0,0:0:0:0:
319,199,101407,1,0,0:0:0:0:
328,268,101504,1,0,0:0:0:0:
188,288,101698,1,0,0:0:0:0:
89,188,101891,2,0,L|172:211,1,70
291,242,102278,2,0,L|220:218,1,70
215,79,102666,5,0,0:0:0:0:
354,93,102859,1,0,0:0:0:0:
300,137,102956,1,0,0:0:0:0:
359,173,103053,1,0,0:0:0:0:
495,140,103246,1,0,0:0:0:0:
427,262,103440,2,0,L|396:338,1,70
267,284,103827,2,0,L|357:258,1,70
298,249,104214,6,0,L|246:239,1,35
298,226,104408,2,0,L|272:189,1,35
314,208,104601,2,0,L|312:168,1,35
341,197,104795,2,0,L|378:170,1,35
373,214,104988,2,0,L|426:233,1,35
373,246,105182,2,0,L|409:284,1,35
358,265,105375,2,0,L|350:315,1,35
326,271,105569,2,0,L|293:300,1,35
291,256,105763,2,0,L|244:251,1,35
254,78,106536,5,0,0:0:0:0:
337,190,106729,1,0,0:0:0:0:
196,194,106923,1,0,0:0:0:0:
118,77,107116,1,0,0:0:0:0:
256,192,107310,12,0,110407,0:0:0:0:
