osu file format v14

[General]
AudioFilename: [O2Jam] SHK - (Couple Breaking).mp3
AudioLeadIn: 0
PreviewTime: 2986
Countdown: 0
SampleSet: Soft
StackLeniency: 0.7
Mode: 3
LetterboxInBreaks: 0
SpecialStyle: 0
WidescreenStoryboard: 0

[Editor]
Bookmarks: 2986,11457,15692,25398,26986,35457,42516,53810,65104,87692,90516,101810,131457
DistanceSpacing: 0.7
BeatDivisor: 4
GridSize: 8
TimelineZoom: 1.6

[Metadata]
Title:Couple Breaking
TitleUnicode:Couple Breaking
Artist:SHK
ArtistUnicode:SHK
Creator:Sky_Demon
Version:MX
Source:O2Jam U
Tags:[_S_a_k_u_r_a_] EURO BEAT AVAVA Analog
BeatmapID:376721
BeatmapSetID:153199

[Difficulty]
HPDrainRate:8
CircleSize:4
OverallDifficulty:8
ApproachRate:5
SliderMultiplier:1.30000000596046
SliderTickRate:1

[Events]
//Background and Video events
0,0,"BG 011.jpg",0,0
//Break Periods
//Storyboard Layer 0 (Background)
//Storyboard Layer 1 (Fail)
//Storyboard Layer 2 (Pass)
//Storyboard Layer 3 (Foreground)
//Storyboard Sound Samples

[TimingPoints]
1575,352.941176470588,4,2,1,20,1,0
15692,-100,4,2,1,20,0,1
41104,-100,4,2,1,20,0,0
65104,-100,4,2,1,20,0,1
87692,-100,4,2,1,20,0,0
100398,-200,4,2,1,20,0,0
100574,-66.6666666666667,4,2,1,20,0,0
100751,-200,4,2,1,20,0,0
100927,-66.6666666666667,4,2,1,20,0,0
101104,-200,4,2,1,20,0,0
101280,-66.6666666666667,4,2,1,20,0,0
101457,-200,4,2,1,20,0,0
101633,-66.6666666666667,4,2,1,20,0,0
101722,-80,4,2,1,20,0,0
101810,-100,4,2,1,20,0,1
127222,-100,4,2,1,20,0,0

[HitObjects]
448,192,1575,128,0,2633:0:0:0:0:
64,192,1575,128,0,2633:0:0:0:0:
320,192,2545,128,0,2633:0:0:0:0:
192,192,2545,128,0,2633:0:0:0:0:
64,192,2986,1,4,2:0:0:0:
448,192,2986,1,0,0:0:0:0:
192,192,2986,1,4,2:0:0:0:
320,192,2986,1,4,2:0:0:0:
448,192,3163,1,0,0:0:0:0:
64,192,3339,1,0,0:0:0:0:
320,192,3339,1,0,0:0:0:0:
448,192,3427,1,0,0:0:0:0:
192,192,3516,1,0,0:0:0:0:
320,192,3692,1,0,0:0:0:0:
448,192,3692,1,0,0:0:0:0:
192,192,3869,1,0,0:0:0:0:
320,192,3957,1,0,0:0:0:0:
64,192,4045,1,0,0:0:0:0:
192,192,4045,1,0,0:0:0:0:
192,192,4222,1,0,0:0:0:0:
320,192,4222,1,0,0:0:0:0:
64,192,4398,1,0,1:0:0:0:
192,192,4398,1,0,1:0:0:0:
448,192,4398,1,0,1:0:0:0:
64,192,4574,1,0,0:0:0:0:
448,192,4574,1,0,0:0:0:0:
320,192,4751,1,0,0:0:0:0:
64,192,4839,1,0,0:0:0:0:
448,192,4927,1,0,0:0:0:0:
320,192,4927,1,0,0:0:0:0:
192,192,5104,1,0,0:0:0:0:
448,192,5280,1,0,0:0:0:0:
192,192,5280,1,0,0:0:0:0:
64,192,5369,1,0,0:0:0:0:
320,192,5457,1,0,0:0:0:0:
192,192,5633,1,0,0:0:0:0:
320,192,5810,1,0,1:0:0:0:
448,192,5810,1,0,1:0:0:0:
64,192,5810,1,0,1:0:0:0:
192,192,5986,1,0,0:0:0:0:
64,192,6163,1,0,0:0:0:0:
320,192,6163,1,0,0:0:0:0:
448,192,6251,1,0,0:0:0:0:
192,192,6339,1,0,0:0:0:0:
64,192,6516,1,0,0:0:0:0:
320,192,6516,1,0,0:0:0:0:
192,192,6692,1,0,0:0:0:0:
320,192,6780,1,0,0:0:0:0:
64,192,6869,1,0,0:0:0:0:
448,192,6869,1,0,0:0:0:0:
192,192,7045,1,0,0:0:0:0:
320,192,7045,1,0,0:0:0:0:
64,192,7222,1,0,1:0:0:0:
192,192,7222,1,0,1:0:0:0:
448,192,7222,1,0,1:0:0:0:
320,192,7398,1,0,0:0:0:0:
192,192,7398,1,0,0:0:0:0:
320,192,7574,1,0,0:0:0:0:
192,192,7663,1,0,0:0:0:0:
64,192,7751,1,0,0:0:0:0:
448,192,7751,1,0,0:0:0:0:
192,192,7927,1,0,0:0:0:0:
448,192,8104,1,0,0:0:0:0:
64,192,8104,1,0,0:0:0:0:
320,192,8192,1,0,0:0:0:0:
192,192,8280,1,0,0:0:0:0:
320,192,8457,1,0,0:0:0:0:
64,192,8633,1,4,2:0:0:0:
448,192,8633,1,0,2:0:0:0:
320,192,8633,1,4,2:0:0:0:
192,192,8633,1,4,2:0:0:0:
192,192,8810,1,0,0:0:0:0:
320,192,8986,1,0,0:0:0:0:
448,192,8986,1,0,0:0:0:0:
64,192,9074,1,0,0:0:0:0:
320,192,9163,1,0,0:0:0:0:
448,192,9339,1,0,0:0:0:0:
192,192,9339,1,0,0:0:0:0:
320,192,9516,1,0,0:0:0:0:
192,192,9604,1,0,0:0:0:0:
64,192,9692,1,0,0:0:0:0:
448,192,9692,1,0,0:0:0:0:
64,192,9869,1,0,0:0:0:0:
320,192,9869,1,0,0:0:0:0:
448,192,10045,1,0,1:0:0:0:
192,192,10045,1,0,1:0:0:0:
64,192,10045,1,0,1:0:0:0:
320,192,10222,1,0,0:0:0:0:
192,192,10222,1,0,0:0:0:0:
64,192,10398,1,0,0:0:0:0:
192,192,10486,1,0,0:0:0:0:
448,192,10574,1,0,0:0:0:0:
320,192,10574,1,0,0:0:0:0:
64,192,10751,1,0,1:0:0:0:
320,192,10751,1,0,1:0:0:0:
192,192,10751,1,0,1:0:0:0:
448,192,10927,1,0,0:0:0:0:
64,192,10927,1,0,0:0:0:0:
320,192,11016,1,0,0:0:0:0:
192,192,11104,1,0,0:0:0:0:
64,192,11280,1,0,0:0:0:0:
448,192,11280,1,0,0:0:0:0:
192,192,11457,1,0,1:0:0:0:
448,192,11457,1,0,1:0:0:0:
320,192,11457,1,0,1:0:0:0:
64,192,11633,1,0,0:0:0:0:
192,192,11810,1,0,1:0:0:0:
448,192,11810,1,0,1:0:0:0:
320,192,11810,1,0,1:0:0:0:
64,192,11898,1,0,0:0:0:0:
320,192,11986,1,0,0:0:0:0:
64,192,12163,1,0,1:0:0:0:
448,192,12163,1,0,1:0:0:0:
320,192,12163,1,0,1:0:0:0:
448,192,12339,1,0,0:0:0:0:
64,192,12339,1,0,0:0:0:0:
192,192,12427,1,0,0:0:0:0:
448,192,12516,1,0,1:0:0:0:
320,192,12516,1,0,1:0:0:0:
64,192,12516,1,0,1:0:0:0:
320,192,12692,1,0,0:0:0:0:
192,192,12692,1,0,0:0:0:0:
320,192,12869,1,0,1:0:0:0:
192,192,12869,1,0,1:0:0:0:
64,192,12869,1,0,1:0:0:0:
448,192,12957,1,0,1:0:0:0:
192,192,13045,1,0,1:0:0:0:
448,192,13133,1,0,1:0:0:0:
64,192,13222,1,0,1:0:0:0:
192,192,13222,1,0,1:0:0:0:
320,192,13310,1,0,1:0:0:0:
64,192,13398,1,0,1:0:0:0:
448,192,13398,1,0,1:0:0:0:
320,192,13486,1,0,1:0:0:0:
192,192,13574,1,4,2:0:0:0:
64,192,13574,1,4,2:0:0:0:
448,192,13574,1,4,2:0:0:0:
320,192,13663,1,0,1:0:0:0:
192,192,13751,1,0,1:0:0:0:
64,192,13839,1,4,2:0:0:0:
320,192,13839,1,4,2:0:0:0:
448,192,13839,1,4,2:0:0:0:
192,192,13927,1,0,1:0:0:0:
320,192,14016,1,0,1:0:0:0:
448,192,14104,1,4,2:0:0:0:
192,192,14104,1,4,2:0:0:0:
64,192,14104,1,4,2:0:0:0:
320,192,14192,1,0,0:0:0:0:
64,192,14280,128,4,15692:2:0:0:0:
192,192,14280,1,4,2:0:0:0:
448,192,14280,1,4,2:0:0:0:
448,192,15692,1,0,2:0:0:0:
192,192,15692,1,4,2:0:0:0:
320,192,15692,1,4,2:0:0:0:
448,192,15869,1,0,0:0:0:0:
64,192,16045,1,0,0:0:0:0:
320,192,16045,1,0,1:0:0:0:
192,192,16133,1,0,0:0:0:0:
448,192,16222,1,0,0:0:0:0:
320,192,16310,1,0,0:0:0:0:
448,192,16398,1,0,0:0:0:0:
64,192,16398,1,0,1:0:0:0:
192,192,16574,1,0,0:0:0:0:
448,192,16663,1,0,0:0:0:0:
64,192,16751,1,0,0:0:0:0:
320,192,16751,1,0,1:0:0:0:
192,192,16927,1,0,0:0:0:0:
448,192,16927,1,0,0:0:0:0:
64,192,17016,1,0,0:0:0:0:
320,192,17104,1,0,1:0:0:0:
448,192,17280,1,0,0:0:0:0:
64,192,17280,1,0,0:0:0:0:
192,192,17457,1,0,1:0:0:0:
448,192,17545,1,0,0:0:0:0:
320,192,17633,1,0,0:0:0:0:
64,192,17633,1,0,0:0:0:0:
448,192,17722,1,0,0:0:0:0:
192,192,17810,1,0,1:0:0:0:
64,192,17986,1,0,0:0:0:0:
448,192,17986,1,0,0:0:0:0:
192,192,18074,1,0,0:0:0:0:
320,192,18163,1,0,1:0:0:0:
64,192,18339,1,0,0:0:0:0:
448,192,18427,1,0,0:0:0:0:
64,192,18516,1,0,1:0:0:0:
320,192,18516,1,0,0:0:0:0:
192,192,18692,1,0,0:0:0:0:
192,192,18869,1,0,0:0:0:0:
320,192,18869,1,0,1:0:0:0:
64,192,18957,1,0,0:0:0:0:
448,192,19045,1,0,0:0:0:0:
192,192,19133,1,0,0:0:0:0:
448,192,19222,1,0,1:0:0:0:
64,192,19222,1,0,0:0:0:0:
192,192,19398,1,0,0:0:0:0:
448,192,19486,1,0,0:0:0:0:
320,192,19574,1,0,1:0:0:0:
64,192,19574,1,0,0:0:0:0:
192,192,19751,1,0,0:0:0:0:
448,192,19751,1,0,0:0:0:0:
64,192,19839,1,0,0:0:0:0:
320,192,19927,1,0,1:0:0:0:
64,192,20104,1,0,0:0:0:0:
448,192,20104,1,0,0:0:0:0:
320,192,20280,1,0,1:0:0:0:
64,192,20369,1,0,0:0:0:0:
192,192,20457,1,0,0:0:0:0:
448,192,20457,1,0,0:0:0:0:
64,192,20545,1,0,0:0:0:0:
320,192,20633,1,0,1:0:0:0:
448,192,20810,1,0,0:0:0:0:
192,192,20810,1,0,0:0:0:0:
64,192,20898,1,0,0:0:0:0:
320,192,20986,1,0,1:0:0:0:
192,192,21163,1,0,0:0:0:0:
320,192,21251,1,0,0:0:0:0:
64,192,21339,1,0,2:0:0:0:
192,192,21339,1,4,2:0:0:0:
448,192,21339,1,4,2:0:0:0:
448,192,21516,1,0,0:0:0:0:
320,192,21692,1,0,1:0:0:0:
192,192,21692,1,0,0:0:0:0:
64,192,21780,1,0,0:0:0:0:
448,192,21869,1,0,0:0:0:0:
64,192,21957,1,0,0:0:0:0:
192,192,22045,1,0,0:0:0:0:
448,192,22045,1,0,1:0:0:0:
320,192,22222,1,0,0:0:0:0:
64,192,22310,1,0,0:0:0:0:
320,192,22398,1,0,1:0:0:0:
448,192,22398,1,0,0:0:0:0:
64,192,22574,1,0,0:0:0:0:
192,192,22574,1,0,0:0:0:0:
448,192,22751,1,0,1:0:0:0:
320,192,22927,1,0,0:0:0:0:
192,192,22927,1,0,0:0:0:0:
64,192,23104,1,0,1:0:0:0:
448,192,23192,1,0,0:0:0:0:
64,192,23280,1,0,0:0:0:0:
320,192,23280,1,0,0:0:0:0:
192,192,23457,1,0,1:0:0:0:
192,192,23633,1,0,0:0:0:0:
448,192,23633,1,0,0:0:0:0:
320,192,23722,1,0,0:0:0:0:
64,192,23810,1,0,1:0:0:0:
320,192,23986,1,0,0:0:0:0:
64,192,23986,1,0,0:0:0:0:
448,192,24163,1,0,1:0:0:0:
192,192,24163,1,0,0:0:0:0:
320,192,24339,1,0,0:0:0:0:
448,192,24516,1,0,1:0:0:0:
64,192,24516,1,0,0:0:0:0:
192,192,24604,1,0,0:0:0:0:
448,192,24692,1,0,0:0:0:0:
192,192,24780,1,0,0:0:0:0:
320,192,24869,1,0,1:0:0:0:
64,192,25045,1,0,0:0:0:0:
192,192,25045,1,0,0:0:0:0:
448,192,25133,1,0,0:0:0:0:
192,192,25222,1,0,0:0:0:0:
320,192,25222,1,0,1:0:0:0:
448,192,25398,128,2,26280:0:0:0:0:
64,192,25398,1,0,0:0:0:0:
320,192,25574,1,0,1:0:0:0:
192,192,25574,1,0,0:0:0:0:
64,192,25751,1,0,0:0:0:0:
192,192,25927,1,0,1:0:0:0:
320,192,26016,1,0,0:0:0:0:
192,192,26104,1,0,0:0:0:0:
320,192,26192,1,0,0:0:0:0:
64,192,26280,128,2,26633:0:0:0:0:
192,192,26280,1,0,1:0:0:0:
448,192,26457,1,0,0:0:0:0:
320,192,26545,1,0,0:0:0:0:
448,192,26633,128,2,26986:0:0:0:0:
192,192,26633,1,0,1:0:0:0:
320,192,26810,1,0,0:0:0:0:
64,192,26986,1,4,2:0:0:0:
320,192,26986,1,0,2:0:0:0:
192,192,26986,1,4,2:0:0:0:
320,192,27163,1,0,0:0:0:0:
64,192,27339,1,0,1:0:0:0:
448,192,27427,1,0,0:0:0:0:
192,192,27516,1,0,0:0:0:0:
320,192,27604,1,0,0:0:0:0:
448,192,27692,1,0,1:0:0:0:
64,192,27869,1,0,0:0:0:0:
192,192,27869,1,0,0:0:0:0:
448,192,27957,1,0,0:0:0:0:
192,192,28045,1,0,1:0:0:0:
64,192,28222,1,0,0:0:0:0:
320,192,28222,1,0,0:0:0:0:
448,192,28398,128,2,28751:0:0:0:0:
192,192,28398,1,0,1:0:0:0:
64,192,28574,1,0,0:0:0:0:
320,192,28751,128,2,29104:0:0:0:0:
192,192,28751,1,0,1:0:0:0:
64,192,28839,1,0,0:0:0:0:
192,192,28927,1,0,0:0:0:0:
64,192,29016,1,0,0:0:0:0:
448,192,29104,1,0,1:0:0:0:
192,192,29104,128,2,29457:0:0:0:0:
448,192,29280,1,0,0:0:0:0:
320,192,29369,1,0,0:0:0:0:
448,192,29457,1,0,1:0:0:0:
64,192,29457,128,2,29810:0:0:0:0:
320,192,29633,1,0,0:0:0:0:
448,192,29810,1,0,0:0:0:0:
192,192,29810,1,0,1:0:0:0:
320,192,29986,1,0,0:0:0:0:
192,192,30163,1,0,1:0:0:0:
320,192,30251,1,0,0:0:0:0:
448,192,30339,1,0,0:0:0:0:
64,192,30427,1,0,0:0:0:0:
448,192,30516,1,0,0:0:0:0:
192,192,30516,1,0,1:0:0:0:
320,192,30692,1,0,0:0:0:0:
64,192,30780,1,0,0:0:0:0:
448,192,30780,1,0,0:0:0:0:
192,192,30869,1,0,1:0:0:0:
320,192,31045,1,0,0:0:0:0:
64,192,31045,1,0,0:0:0:0:
448,192,31222,128,2,31574:0:0:0:0:
192,192,31222,1,0,1:0:0:0:
64,192,31398,1,0,0:0:0:0:
320,192,31574,128,2,31927:0:0:0:0:
192,192,31574,1,0,1:0:0:0:
64,192,31663,1,0,0:0:0:0:
192,192,31751,1,0,0:0:0:0:
64,192,31839,1,0,0:0:0:0:
192,192,31927,128,2,32280:0:0:0:0:
448,192,31927,1,0,1:0:0:0:
320,192,32104,1,0,0:0:0:0:
448,192,32192,1,0,0:0:0:0:
64,192,32280,128,2,32633:0:0:0:0:
320,192,32280,1,0,1:0:0:0:
448,192,32457,1,0,0:0:0:0:
448,192,32633,1,0,2:0:0:0:
192,192,32633,1,4,2:0:0:0:
320,192,32633,1,4,2:0:0:0:
320,192,32810,1,0,0:0:0:0:
320,192,32986,1,0,1:0:0:0:
64,192,32986,1,0,1:0:0:0:
192,192,32986,1,0,1:0:0:0:
448,192,33074,1,0,0:0:0:0:
64,192,33163,1,0,0:0:0:0:
192,192,33251,1,0,0:0:0:0:
448,192,33339,1,0,0:0:0:0:
320,192,33339,1,0,0:0:0:0:
64,192,33339,1,0,0:0:0:0:
320,192,33516,1,0,0:0:0:0:
448,192,33516,1,0,0:0:0:0:
192,192,33516,1,0,0:0:0:0:
64,192,33604,1,0,0:0:0:0:
448,192,33692,1,0,1:0:0:0:
192,192,33869,1,0,0:0:0:0:
320,192,33869,1,0,0:0:0:0:
64,192,33869,1,0,0:0:0:0:
448,192,34045,1,0,1:0:0:0:
64,192,34045,1,0,1:0:0:0:
320,192,34045,1,0,1:0:0:0:
192,192,34222,1,0,0:0:0:0:
320,192,34398,1,0,1:0:0:0:
64,192,34398,1,0,1:0:0:0:
192,192,34398,1,0,1:0:0:0:
448,192,34574,1,0,0:0:0:0:
192,192,34751,1,0,1:0:0:0:
64,192,34751,1,0,1:0:0:0:
320,192,34751,1,0,1:0:0:0:
320,192,34927,1,0,0:0:0:0:
448,192,34927,1,0,0:0:0:0:
64,192,34927,1,0,0:0:0:0:
192,192,35016,1,0,0:0:0:0:
448,192,35104,1,0,1:0:0:0:
320,192,35280,1,0,0:0:0:0:
192,192,35280,1,0,0:0:0:0:
64,192,35280,1,0,0:0:0:0:
448,192,35457,1,0,1:0:0:0:
64,192,35457,1,0,1:0:0:0:
320,192,35633,1,0,0:0:0:0:
64,192,35810,1,0,1:0:0:0:
320,192,35810,1,0,1:0:0:0:
448,192,35898,1,0,0:0:0:0:
192,192,35986,1,0,0:0:0:0:
64,192,36074,1,0,0:0:0:0:
448,192,36163,1,0,1:0:0:0:
320,192,36163,1,0,1:0:0:0:
64,192,36339,1,0,0:0:0:0:
448,192,36427,1,0,0:0:0:0:
320,192,36516,1,0,1:0:0:0:
192,192,36516,1,0,1:0:0:0:
320,192,36692,1,0,0:0:0:0:
64,192,36869,1,0,1:0:0:0:
448,192,36869,1,0,1:0:0:0:
192,192,37045,1,0,0:0:0:0:
448,192,37222,1,0,1:0:0:0:
192,192,37222,1,0,1:0:0:0:
64,192,37310,1,0,0:0:0:0:
320,192,37398,1,0,0:0:0:0:
192,192,37486,1,0,0:0:0:0:
64,192,37574,1,0,1:0:0:0:
448,192,37574,1,0,1:0:0:0:
192,192,37751,1,0,0:0:0:0:
448,192,37839,1,0,0:0:0:0:
320,192,37927,1,0,1:0:0:0:
64,192,37927,1,0,1:0:0:0:
192,192,38104,1,0,0:0:0:0:
448,192,38280,1,4,2:0:0:0:
192,192,38280,1,0,2:0:0:0:
64,192,38280,1,4,2:0:0:0:
320,192,38457,1,0,0:0:0:0:
64,192,38457,1,0,0:0:0:0:
320,192,38633,1,0,0:0:0:0:
64,192,38722,1,0,0:0:0:0:
448,192,38722,1,0,0:0:0:0:
320,192,38810,1,0,0:0:0:0:
320,192,38986,1,0,0:0:0:0:
64,192,38986,1,0,0:0:0:0:
320,192,39163,1,0,0:0:0:0:
64,192,39251,1,0,0:0:0:0:
448,192,39251,1,0,0:0:0:0:
320,192,39339,1,0,0:0:0:0:
320,192,39516,1,0,0:0:0:0:
64,192,39516,1,0,0:0:0:0:
192,192,39692,1,0,0:0:0:0:
320,192,39780,1,0,0:0:0:0:
448,192,39869,1,0,0:0:0:0:
64,192,39869,1,0,0:0:0:0:
192,192,39957,1,0,0:0:0:0:
320,192,40045,1,0,0:0:0:0:
64,192,40133,1,0,0:0:0:0:
192,192,40133,1,0,0:0:0:0:
320,192,40222,1,0,0:0:0:0:
448,192,40310,1,0,0:0:0:0:
320,192,40398,1,4,2:0:0:0:
192,192,40398,1,4,2:0:0:0:
64,192,40398,1,0,2:0:0:0:
64,192,40574,1,0,0:0:0:0:
448,192,40663,1,0,2:0:0:0:
320,192,40663,1,4,2:0:0:0:
192,192,40663,1,4,2:0:0:0:
64,192,40927,1,0,2:0:0:0:
192,192,40927,1,4,2:0:0:0:
320,192,40927,1,4,2:0:0:0:
64,192,41104,1,0,2:0:0:0:
320,192,41104,1,4,2:0:0:0:
192,192,41104,1,4,2:0:0:0:
448,192,41104,128,0,42516:1:0:0:0:
320,192,42516,1,4,0:0:0:0:
192,192,42516,1,0,1:0:0:0:
64,192,42516,1,0,1:0:0:0:
448,192,42692,1,0,0:0:0:0:
320,192,42869,1,0,1:0:0:0:
192,192,42869,1,0,1:0:0:0:
64,192,42869,1,0,1:0:0:0:
320,192,43045,1,0,0:0:0:0:
64,192,43222,1,0,1:0:0:0:
448,192,43222,1,0,1:0:0:0:
192,192,43398,1,0,0:0:0:0:
448,192,43574,1,0,1:0:0:0:
320,192,43574,1,0,1:0:0:0:
192,192,43574,1,0,1:0:0:0:
64,192,43751,1,0,0:0:0:0:
448,192,43839,1,0,1:0:0:0:
320,192,43839,1,0,1:0:0:0:
64,192,43927,1,0,1:0:0:0:
192,192,43927,1,0,1:0:0:0:
448,192,43927,1,0,1:0:0:0:
192,192,44104,1,0,0:0:0:0:
64,192,44280,1,0,1:0:0:0:
192,192,44280,1,0,1:0:0:0:
320,192,44280,1,0,1:0:0:0:
448,192,44457,1,0,0:0:0:0:
320,192,44633,1,0,1:0:0:0:
64,192,44633,1,0,1:0:0:0:
320,192,44810,1,0,0:0:0:0:
448,192,44986,1,0,1:0:0:0:
64,192,44986,1,0,1:0:0:0:
192,192,44986,1,0,1:0:0:0:
320,192,45163,1,0,0:0:0:0:
64,192,45251,1,0,1:0:0:0:
192,192,45251,1,0,0:0:0:0:
64,192,45339,1,0,1:0:0:0:
448,192,45339,1,0,1:0:0:0:
192,192,45339,1,0,1:0:0:0:
448,192,45516,1,0,0:0:0:0:
64,192,45692,1,0,1:0:0:0:
192,192,45692,1,0,1:0:0:0:
320,192,45692,1,0,1:0:0:0:
320,192,45869,1,0,0:0:0:0:
448,192,46045,1,0,0:1:0:0:
64,192,46045,1,0,0:1:0:0:
192,192,46222,1,0,0:0:0:0:
192,192,46398,1,0,1:0:0:0:
320,192,46398,1,0,1:0:0:0:
64,192,46398,1,0,1:0:0:0:
448,192,46574,1,0,0:0:0:0:
192,192,46663,1,0,1:0:0:0:
64,192,46663,1,0,1:0:0:0:
448,192,46751,1,0,1:0:0:0:
320,192,46751,1,0,1:0:0:0:
64,192,46751,1,0,1:0:0:0:
320,192,46927,1,0,0:0:0:0:
64,192,47104,1,0,1:0:0:0:
192,192,47104,1,0,1:0:0:0:
448,192,47104,1,0,1:0:0:0:
320,192,47280,1,0,0:0:0:0:
448,192,47457,1,0,1:0:0:0:
192,192,47457,1,0,1:0:0:0:
192,192,47633,1,0,0:0:0:0:
448,192,47810,1,0,1:0:0:0:
320,192,47810,1,0,1:0:0:0:
64,192,47810,1,0,1:0:0:0:
192,192,47986,1,0,0:0:0:0:
64,192,48074,1,0,0:0:0:0:
64,192,48163,1,0,2:0:0:0:
448,192,48163,1,0,2:0:0:0:
192,192,48163,1,4,2:0:0:0:
320,192,48163,1,4,2:0:0:0:
320,192,48339,1,0,0:0:0:0:
64,192,48516,1,0,1:0:0:0:
192,192,48516,1,0,1:0:0:0:
320,192,48516,1,0,1:0:0:0:
448,192,48692,1,0,0:0:0:0:
320,192,48869,1,0,1:0:0:0:
192,192,48869,1,0,1:0:0:0:
192,192,49045,1,0,0:0:0:0:
320,192,49222,1,0,1:0:0:0:
448,192,49222,1,0,1:0:0:0:
64,192,49222,1,0,1:0:0:0:
192,192,49398,1,0,0:0:0:0:
448,192,49486,1,0,1:0:0:0:
320,192,49486,1,0,1:0:0:0:
320,192,49574,1,0,1:0:0:0:
448,192,49574,1,0,1:0:0:0:
64,192,49574,1,0,1:0:0:0:
192,192,49751,1,0,0:0:0:0:
64,192,49927,1,0,1:0:0:0:
192,192,49927,1,0,1:0:0:0:
320,192,49927,1,0,1:0:0:0:
448,192,50104,1,0,0:0:0:0:
192,192,50280,1,0,1:0:0:0:
64,192,50280,1,0,1:0:0:0:
320,192,50457,1,0,0:0:0:0:
448,192,50633,1,0,1:0:0:0:
320,192,50633,1,0,1:0:0:0:
192,192,50633,1,0,1:0:0:0:
192,192,50810,1,0,0:0:0:0:
64,192,50898,1,0,0:0:0:0:
448,192,50986,1,0,2:0:0:0:
320,192,50986,1,4,2:0:0:0:
64,192,50986,1,0,2:0:0:0:
192,192,50986,1,4,2:0:0:0:
64,192,51163,1,0,0:0:0:0:
320,192,51339,1,0,1:0:0:0:
448,192,51339,1,0,1:0:0:0:
192,192,51339,1,0,1:0:0:0:
192,192,51516,1,0,0:0:0:0:
64,192,51692,1,0,1:0:0:0:
448,192,51692,1,0,1:0:0:0:
320,192,51692,1,0,1:0:0:0:
192,192,51869,1,0,0:0:0:0:
448,192,52045,1,0,1:0:0:0:
192,192,52045,1,0,1:0:0:0:
320,192,52045,1,0,1:0:0:0:
64,192,52222,1,0,0:0:0:0:
192,192,52310,1,0,0:0:0:0:
448,192,52398,1,0,2:0:0:0:
320,192,52398,1,4,2:0:0:0:
64,192,52398,1,0,2:0:0:0:
192,192,52398,1,4,2:0:0:0:
448,192,52751,1,4,2:0:0:0:
320,192,52751,1,0,2:0:0:0:
192,192,52751,1,0,2:0:0:0:
64,192,52751,1,4,2:0:0:0:
448,192,53104,1,4,2:0:0:0:
320,192,53104,1,4,2:0:0:0:
192,192,53104,1,0,1:0:0:0:
64,192,53280,1,0,1:0:0:0:
192,192,53280,1,4,2:0:0:0:
320,192,53280,1,4,2:0:0:0:
192,192,53457,1,0,1:0:0:0:
64,192,53457,1,0,1:0:0:0:
64,192,53545,1,0,1:0:0:0:
192,192,53545,1,0,1:0:0:0:
320,192,53633,1,0,1:0:0:0:
448,192,53633,1,0,1:0:0:0:
448,192,53722,1,0,1:0:0:0:
320,192,53722,1,0,1:0:0:0:
192,192,53810,1,4,2:0:0:0:
64,192,53810,1,4,2:0:0:0:
320,192,53810,1,0,2:0:0:0:
448,192,53986,1,0,0:0:0:0:
448,192,54163,1,0,1:0:0:0:
320,192,54163,1,0,1:0:0:0:
192,192,54163,1,0,1:0:0:0:
192,192,54339,1,0,0:0:0:0:
64,192,54516,1,0,1:0:0:0:
448,192,54516,1,0,1:0:0:0:
320,192,54692,1,0,0:0:0:0:
64,192,54869,1,0,1:0:0:0:
192,192,54869,1,0,1:0:0:0:
448,192,54869,1,0,1:0:0:0:
320,192,55045,1,0,0:0:0:0:
192,192,55133,1,0,1:0:0:0:
64,192,55133,1,0,1:0:0:0:
448,192,55222,1,0,1:0:0:0:
320,192,55222,1,0,1:0:0:0:
64,192,55222,1,0,1:0:0:0:
192,192,55398,1,0,0:0:0:0:
448,192,55574,1,0,1:0:0:0:
320,192,55574,1,0,1:0:0:0:
192,192,55574,1,0,1:0:0:0:
64,192,55751,1,0,0:0:0:0:
320,192,55927,1,0,1:0:0:0:
448,192,55927,1,0,1:0:0:0:
192,192,56104,1,0,0:0:0:0:
320,192,56280,1,0,1:0:0:0:
192,192,56280,1,0,1:0:0:0:
64,192,56280,1,0,1:0:0:0:
448,192,56457,1,0,0:0:0:0:
448,192,56633,1,0,2:0:0:0:
320,192,56633,1,4,2:0:0:0:
64,192,56633,1,0,2:0:0:0:
192,192,56633,1,4,2:0:0:0:
192,192,56810,1,0,0:0:0:0:
320,192,56986,1,0,1:0:0:0:
448,192,56986,1,0,1:0:0:0:
64,192,56986,1,0,1:0:0:0:
192,192,57163,1,0,0:0:0:0:
64,192,57339,1,0,1:0:0:0:
448,192,57339,1,0,1:0:0:0:
320,192,57516,1,0,0:0:0:0:
192,192,57692,1,0,1:0:0:0:
320,192,57692,1,0,1:0:0:0:
448,192,57692,1,0,1:0:0:0:
64,192,57869,1,0,1:0:0:0:
448,192,57957,1,0,1:0:0:0:
192,192,57957,1,0,1:0:0:0:
64,192,58045,1,0,1:0:0:0:
192,192,58045,1,0,1:0:0:0:
320,192,58045,1,0,0:0:0:0:
448,192,58222,1,0,0:0:0:0:
64,192,58398,1,0,1:0:0:0:
320,192,58398,1,0,1:0:0:0:
192,192,58398,1,0,1:0:0:0:
448,192,58574,1,0,0:0:0:0:
320,192,58751,1,0,1:0:0:0:
192,192,58751,1,0,1:0:0:0:
64,192,58927,1,0,0:0:0:0:
448,192,59104,1,0,1:0:0:0:
320,192,59104,1,0,1:0:0:0:
192,192,59104,1,0,1:0:0:0:
64,192,59280,1,0,0:0:0:0:
192,192,59369,1,0,0:0:0:0:
320,192,59457,1,4,2:0:0:0:
448,192,59457,128,0,60869:2:0:0:0:
64,192,59457,1,4,2:0:0:0:
192,192,59633,1,0,0:0:0:0:
320,192,59810,1,0,1:0:0:0:
192,192,59810,1,0,1:0:0:0:
64,192,59986,1,0,0:0:0:0:
192,192,60163,1,0,1:0:0:0:
320,192,60339,1,0,0:0:0:0:
192,192,60516,1,0,1:0:0:0:
320,192,60516,1,0,1:0:0:0:
64,192,60692,1,0,1:0:0:0:
320,192,60780,1,0,1:0:0:0:
192,192,60780,1,0,1:0:0:0:
64,192,60869,1,0,1:0:0:0:
192,192,61045,1,0,0:0:0:0:
192,192,61222,1,0,1:0:0:0:
448,192,61222,1,0,1:0:0:0:
64,192,61222,1,0,1:0:0:0:
320,192,61398,1,0,0:0:0:0:
64,192,61574,1,0,1:0:0:0:
192,192,61574,1,0,1:0:0:0:
448,192,61751,1,0,0:0:0:0:
192,192,61927,1,0,1:0:0:0:
320,192,61927,1,0,1:0:0:0:
64,192,61927,1,0,1:0:0:0:
448,192,62104,1,0,0:0:0:0:
64,192,62192,1,0,0:0:0:0:
448,192,62280,1,0,2:0:0:0:
320,192,62280,1,4,2:0:0:0:
192,192,62280,1,4,2:0:0:0:
64,192,62280,1,0,2:0:0:0:
320,192,62457,1,0,0:0:0:0:
192,192,62633,1,0,1:0:0:0:
64,192,62633,1,0,1:0:0:0:
448,192,62633,1,0,1:0:0:0:
192,192,62810,1,0,0:0:0:0:
320,192,62986,1,0,1:0:0:0:
64,192,62986,1,0,1:0:0:0:
192,192,63163,1,0,0:0:0:0:
448,192,63339,1,0,1:0:0:0:
320,192,63339,1,0,1:0:0:0:
192,192,63339,1,0,1:0:0:0:
64,192,63516,1,0,0:0:0:0:
192,192,63604,1,0,0:0:0:0:
64,192,63692,1,0,2:0:0:0:
192,192,63692,1,4,2:0:0:0:
320,192,63692,1,4,2:0:0:0:
448,192,63692,1,0,2:0:0:0:
448,192,64045,1,4,2:0:0:0:
320,192,64045,1,0,2:0:0:0:
192,192,64045,1,0,2:0:0:0:
64,192,64045,1,4,2:0:0:0:
64,192,64398,1,4,2:0:0:0:
192,192,64398,1,4,2:0:0:0:
320,192,64398,1,0,2:0:0:0:
448,192,64574,1,0,1:0:0:0:
320,192,64574,1,4,2:0:0:0:
192,192,64574,1,0,2:0:0:0:
192,192,64751,1,0,1:0:0:0:
64,192,64751,1,0,1:0:0:0:
192,192,64839,1,0,1:0:0:0:
64,192,64839,1,0,1:0:0:0:
448,192,64927,1,0,1:0:0:0:
320,192,64927,1,0,1:0:0:0:
448,192,65016,1,0,1:0:0:0:
320,192,65016,1,0,1:0:0:0:
192,192,65104,1,4,2:0:0:0:
64,192,65104,1,4,2:0:0:0:
320,192,65104,1,0,2:0:0:0:
320,192,65280,1,0,0:0:0:0:
192,192,65369,1,0,0:0:0:0:
64,192,65457,1,0,1:0:0:0:
448,192,65457,1,0,1:0:0:0:
192,192,65545,1,0,0:0:0:0:
320,192,65633,1,0,0:0:0:0:
448,192,65722,1,0,0:0:0:0:
320,192,65810,1,0,1:0:0:0:
64,192,65810,1,0,1:0:0:0:
192,192,65898,1,0,0:0:0:0:
320,192,65986,1,0,0:0:0:0:
448,192,66074,1,0,0:0:0:0:
320,192,66163,1,0,1:0:0:0:
64,192,66163,1,0,1:0:0:0:
192,192,66251,1,0,0:0:0:0:
64,192,66339,1,0,0:0:0:0:
192,192,66427,1,0,1:0:0:0:
320,192,66427,1,0,1:0:0:0:
64,192,66516,1,0,1:0:0:0:
448,192,66516,1,0,1:0:0:0:
192,192,66604,1,0,0:0:0:0:
320,192,66692,1,0,0:0:0:0:
448,192,66780,1,0,0:0:0:0:
320,192,66869,1,0,1:0:0:0:
64,192,66869,1,0,1:0:0:0:
192,192,66957,1,0,0:0:0:0:
320,192,67045,1,0,0:0:0:0:
448,192,67133,1,0,0:0:0:0:
64,192,67222,1,0,1:0:0:0:
320,192,67222,1,0,1:0:0:0:
192,192,67310,1,0,0:0:0:0:
64,192,67398,1,0,0:0:0:0:
192,192,67486,1,0,0:0:0:0:
448,192,67574,1,0,1:0:0:0:
64,192,67574,1,0,1:0:0:0:
320,192,67663,1,0,0:0:0:0:
192,192,67751,1,0,0:0:0:0:
64,192,67839,1,0,0:0:0:0:
448,192,67927,1,4,2:0:0:0:
192,192,67927,1,0,2:0:0:0:
320,192,67927,1,4,2:0:0:0:
64,192,68016,1,0,0:0:0:0:
192,192,68104,1,0,0:0:0:0:
320,192,68192,1,0,0:0:0:0:
448,192,68280,1,0,1:0:0:0:
64,192,68280,1,0,1:0:0:0:
320,192,68369,1,0,0:0:0:0:
192,192,68457,1,0,0:0:0:0:
64,192,68545,1,0,0:0:0:0:
448,192,68633,1,0,1:0:0:0:
192,192,68633,1,0,1:0:0:0:
320,192,68722,1,0,0:0:0:0:
448,192,68810,1,0,0:0:0:0:
320,192,68898,1,0,0:0:0:0:
448,192,68986,1,0,1:0:0:0:
64,192,68986,1,0,1:0:0:0:
192,192,69074,1,0,0:0:0:0:
320,192,69163,1,0,0:0:0:0:
448,192,69251,1,0,1:0:0:0:
192,192,69251,1,0,1:0:0:0:
320,192,69339,1,0,1:0:0:0:
64,192,69339,1,0,1:0:0:0:
192,192,69427,1,0,0:0:0:0:
320,192,69516,1,0,0:0:0:0:
448,192,69604,1,0,0:0:0:0:
320,192,69692,1,0,1:0:0:0:
64,192,69692,1,0,1:0:0:0:
192,192,69780,1,0,0:0:0:0:
64,192,69869,1,0,0:0:0:0:
192,192,69957,1,0,0:0:0:0:
448,192,70045,1,0,1:0:0:0:
64,192,70045,1,0,1:0:0:0:
320,192,70133,1,0,0:0:0:0:
192,192,70222,1,0,0:0:0:0:
64,192,70310,1,0,0:0:0:0:
192,192,70398,1,0,1:0:0:0:
448,192,70398,1,0,1:0:0:0:
320,192,70486,1,0,0:0:0:0:
192,192,70574,1,0,0:0:0:0:
320,192,70663,1,0,0:0:0:0:
64,192,70751,128,0,72163:0:0:0:0:
192,192,70751,1,0,1:0:0:0:
448,192,70751,1,0,1:0:0:0:
320,192,70927,1,0,0:0:0:0:
192,192,71016,1,0,0:0:0:0:
320,192,71104,1,0,1:0:0:0:
448,192,71104,1,0,1:0:0:0:
448,192,71280,1,0,0:0:0:0:
320,192,71457,1,0,1:0:0:0:
192,192,71545,1,0,0:0:0:0:
448,192,71633,1,0,0:0:0:0:
320,192,71722,1,0,0:0:0:0:
192,192,71810,1,0,1:0:0:0:
448,192,71810,1,0,1:0:0:0:
448,192,71986,1,0,1:0:0:0:
320,192,72074,1,0,1:0:0:0:
192,192,72074,1,0,1:0:0:0:
448,192,72163,1,0,1:0:0:0:
320,192,72251,1,0,0:0:0:0:
448,192,72339,1,0,0:0:0:0:
320,192,72427,1,0,0:0:0:0:
448,192,72516,1,0,1:0:0:0:
64,192,72516,1,0,1:0:0:0:
320,192,72604,1,0,0:0:0:0:
448,192,72692,1,0,0:0:0:0:
320,192,72780,1,0,0:0:0:0:
64,192,72869,1,0,1:0:0:0:
192,192,72869,1,0,1:0:0:0:
320,192,72957,1,0,0:0:0:0:
64,192,73045,1,0,0:0:0:0:
320,192,73133,1,0,0:0:0:0:
64,192,73222,1,0,1:0:0:0:
448,192,73222,1,0,1:0:0:0:
320,192,73310,1,0,0:0:0:0:
64,192,73398,1,0,0:0:0:0:
320,192,73486,1,0,0:0:0:0:
448,192,73574,1,4,2:0:0:0:
192,192,73574,1,4,2:0:0:0:
64,192,73574,1,4,2:0:0:0:
320,192,73663,1,0,0:0:0:0:
64,192,73751,1,0,0:0:0:0:
192,192,73839,1,0,0:0:0:0:
64,192,73927,1,0,1:0:0:0:
448,192,73927,1,0,1:0:0:0:
64,192,74104,1,0,0:0:0:0:
192,192,74192,1,0,0:0:0:0:
320,192,74280,1,0,1:0:0:0:
448,192,74280,1,0,1:0:0:0:
64,192,74369,1,0,0:0:0:0:
192,192,74457,1,0,0:0:0:0:
448,192,74545,1,0,0:0:0:0:
192,192,74633,1,0,1:0:0:0:
320,192,74633,1,0,1:0:0:0:
448,192,74722,1,0,0:0:0:0:
64,192,74810,1,0,0:0:0:0:
192,192,74898,1,0,0:0:0:0:
64,192,74986,1,4,2:0:0:0:
320,192,74986,1,4,2:0:0:0:
448,192,74986,1,4,2:0:0:0:
192,192,75074,1,0,0:0:0:0:
448,192,75163,1,0,0:0:0:0:
192,192,75251,1,0,0:0:0:0:
448,192,75339,1,0,1:0:0:0:
64,192,75339,1,0,1:0:0:0:
320,192,75427,1,0,0:0:0:0:
192,192,75516,1,0,0:0:0:0:
64,192,75604,1,0,0:0:0:0:
448,192,75692,1,4,2:0:0:0:
192,192,75692,1,4,2:0:0:0:
320,192,75692,1,4,2:0:0:0:
64,192,75780,1,0,0:0:0:0:
192,192,75869,1,0,0:0:0:0:
448,192,75957,1,4,2:0:0:0:
320,192,75957,1,4,2:0:0:0:
64,192,75957,1,0,2:0:0:0:
448,192,76222,1,0,2:0:0:0:
320,192,76222,1,4,2:0:0:0:
192,192,76222,1,4,2:0:0:0:
64,192,76398,1,4,2:0:0:0:
192,192,76398,1,4,2:0:0:0:
448,192,76398,1,0,2:0:0:0:
320,192,76486,1,0,0:0:0:0:
192,192,76574,1,0,0:0:0:0:
64,192,76663,1,0,0:0:0:0:
192,192,76751,1,0,1:0:0:0:
448,192,76751,1,0,1:0:0:0:
320,192,76839,1,0,0:0:0:0:
448,192,76927,1,0,0:0:0:0:
320,192,77016,1,0,0:0:0:0:
64,192,77104,1,0,1:0:0:0:
448,192,77104,1,0,1:0:0:0:
192,192,77192,1,0,0:0:0:0:
320,192,77280,1,0,0:0:0:0:
448,192,77369,1,0,0:0:0:0:
320,192,77457,1,0,1:0:0:0:
64,192,77457,1,0,1:0:0:0:
192,192,77545,1,0,0:0:0:0:
64,192,77633,1,0,0:0:0:0:
192,192,77722,1,0,1:0:0:0:
320,192,77722,1,0,1:0:0:0:
64,192,77810,1,0,1:0:0:0:
448,192,77810,1,0,1:0:0:0:
320,192,77898,1,0,0:0:0:0:
192,192,77986,1,0,0:0:0:0:
64,192,78074,1,0,0:0:0:0:
192,192,78163,1,0,1:0:0:0:
448,192,78163,1,0,1:0:0:0:
320,192,78251,1,0,0:0:0:0:
448,192,78339,1,0,0:0:0:0:
320,192,78427,1,0,0:0:0:0:
64,192,78516,1,0,1:0:0:0:
448,192,78516,1,0,1:0:0:0:
192,192,78604,1,0,0:0:0:0:
320,192,78692,1,0,0:0:0:0:
448,192,78780,1,0,0:0:0:0:
320,192,78869,1,0,1:0:0:0:
64,192,78869,1,0,1:0:0:0:
192,192,78957,1,0,0:0:0:0:
64,192,79045,1,0,0:0:0:0:
192,192,79133,1,0,1:0:0:0:
320,192,79133,1,0,1:0:0:0:
448,192,79222,1,0,1:0:0:0:
64,192,79222,1,0,1:0:0:0:
192,192,79310,1,0,0:0:0:0:
320,192,79398,1,0,0:0:0:0:
448,192,79486,1,0,0:0:0:0:
64,192,79574,1,0,1:0:0:0:
320,192,79574,1,0,1:0:0:0:
192,192,79663,1,0,0:0:0:0:
320,192,79751,1,0,0:0:0:0:
448,192,79839,1,0,0:0:0:0:
64,192,79927,1,0,1:0:0:0:
320,192,79927,1,0,1:0:0:0:
192,192,80016,1,0,0:0:0:0:
64,192,80104,1,0,0:0:0:0:
192,192,80192,1,0,0:0:0:0:
448,192,80280,1,0,1:0:0:0:
64,192,80280,1,0,1:0:0:0:
192,192,80369,1,0,0:0:0:0:
320,192,80457,1,0,0:0:0:0:
448,192,80545,1,0,1:0:0:0:
192,192,80545,1,0,1:0:0:0:
64,192,80633,1,0,1:0:0:0:
320,192,80633,1,0,1:0:0:0:
192,192,80722,1,0,0:0:0:0:
64,192,80810,1,0,0:0:0:0:
192,192,80898,1,0,0:0:0:0:
64,192,80986,1,0,1:0:0:0:
448,192,80986,1,0,1:0:0:0:
320,192,81074,1,0,0:0:0:0:
192,192,81163,1,0,0:0:0:0:
64,192,81251,1,0,0:0:0:0:
448,192,81339,1,0,1:0:0:0:
192,192,81339,1,0,1:0:0:0:
320,192,81427,1,0,0:0:0:0:
448,192,81516,1,0,0:0:0:0:
320,192,81604,1,0,0:0:0:0:
64,192,81692,1,0,1:0:0:0:
448,192,81692,1,0,1:0:0:0:
192,192,81780,1,0,0:0:0:0:
320,192,81869,1,0,0:0:0:0:
192,192,81957,1,0,0:0:0:0:
448,192,82045,128,0,83457:0:0:0:0:
64,192,82045,1,0,1:0:0:0:
320,192,82045,1,4,2:0:0:0:
192,192,82222,1,0,0:0:0:0:
64,192,82310,1,0,0:0:0:0:
192,192,82398,1,0,1:0:0:0:
320,192,82398,1,0,1:0:0:0:
64,192,82574,1,0,0:0:0:0:
192,192,82751,1,0,0:0:0:0:
320,192,82839,1,0,0:0:0:0:
192,192,82927,1,0,0:0:0:0:
64,192,83016,1,0,0:0:0:0:
192,192,83104,1,0,1:0:0:0:
320,192,83104,1,0,1:0:0:0:
64,192,83280,1,0,0:0:0:0:
192,192,83369,1,0,1:0:0:0:
320,192,83369,1,0,1:0:0:0:
64,192,83457,1,0,1:0:0:0:
192,192,83545,1,0,0:0:0:0:
64,192,83633,1,0,0:0:0:0:
192,192,83722,1,0,0:0:0:0:
64,192,83810,1,0,1:0:0:0:
448,192,83810,1,0,1:0:0:0:
192,192,83898,1,0,0:0:0:0:
64,192,83986,1,0,0:0:0:0:
192,192,84074,1,0,0:0:0:0:
448,192,84163,1,0,1:0:0:0:
320,192,84163,1,0,1:0:0:0:
192,192,84251,1,0,0:0:0:0:
448,192,84339,1,0,0:0:0:0:
192,192,84427,1,0,0:0:0:0:
448,192,84516,1,0,1:0:0:0:
64,192,84516,1,0,1:0:0:0:
192,192,84604,1,0,0:0:0:0:
448,192,84692,1,0,0:0:0:0:
192,192,84780,1,0,0:0:0:0:
448,192,84869,1,0,2:0:0:0:
320,192,84869,1,4,2:0:0:0:
64,192,84869,1,4,2:0:0:0:
192,192,84957,1,0,0:0:0:0:
64,192,85045,1,0,0:0:0:0:
320,192,85133,1,0,0:0:0:0:
448,192,85222,1,0,1:0:0:0:
64,192,85222,1,0,1:0:0:0:
192,192,85310,1,0,0:0:0:0:
320,192,85398,1,0,0:0:0:0:
64,192,85486,1,0,0:0:0:0:
448,192,85574,1,0,1:0:0:0:
192,192,85574,1,0,1:0:0:0:
64,192,85663,1,0,0:0:0:0:
192,192,85751,1,0,0:0:0:0:
320,192,85839,1,0,0:0:0:0:
448,192,85927,1,0,1:0:0:0:
64,192,85927,1,0,1:0:0:0:
192,192,86016,1,0,0:0:0:0:
64,192,86104,1,0,0:0:0:0:
320,192,86192,1,0,0:0:0:0:
448,192,86280,1,4,2:0:0:0:
64,192,86280,1,0,2:0:0:0:
192,192,86280,1,4,2:0:0:0:
320,192,86369,1,0,0:0:0:0:
64,192,86457,1,0,0:0:0:0:
320,192,86545,1,0,0:0:0:0:
448,192,86633,1,0,1:0:0:0:
64,192,86633,1,0,1:0:0:0:
192,192,86722,1,0,0:0:0:0:
448,192,86810,1,0,0:0:0:0:
320,192,86898,1,0,0:0:0:0:
64,192,86986,1,4,2:0:0:0:
192,192,86986,1,4,2:0:0:0:
448,192,86986,1,0,2:0:0:0:
320,192,87074,1,0,1:0:0:0:
448,192,87163,1,4,1:0:0:0:
320,192,87251,1,4,2:0:0:0:
192,192,87251,1,4,2:0:0:0:
64,192,87251,1,0,2:0:0:0:
448,192,87339,1,0,1:0:0:0:
192,192,87427,1,0,1:0:0:0:
64,192,87516,1,0,2:0:0:0:
448,192,87516,1,4,2:0:0:0:
320,192,87516,1,4,2:0:0:0:
192,192,87604,1,0,1:0:0:0:
320,192,87692,128,4,90516:2:0:0:0:
64,192,87692,1,4,2:0:0:0:
448,192,87692,1,0,2:0:0:0:
192,192,89633,128,0,90516:0:0:0:0:
64,192,90516,1,4,2:0:0:0:
448,192,90516,1,4,2:0:0:0:
320,192,90692,1,0,0:0:0:0:
448,192,90869,1,0,0:0:0:0:
192,192,90869,1,0,0:0:0:0:
64,192,90957,1,0,0:0:0:0:
320,192,91045,1,0,0:0:0:0:
64,192,91222,1,0,0:0:0:0:
448,192,91222,1,0,0:0:0:0:
192,192,91398,1,0,1:0:0:0:
448,192,91486,1,0,0:0:0:0:
320,192,91574,1,0,0:0:0:0:
64,192,91574,1,0,0:0:0:0:
192,192,91751,1,0,0:0:0:0:
448,192,91751,1,0,0:0:0:0:
64,192,91927,1,0,0:0:0:0:
320,192,92104,1,0,1:0:0:0:
192,192,92104,1,0,1:0:0:0:
320,192,92280,1,0,0:0:0:0:
64,192,92369,1,0,0:0:0:0:
448,192,92457,1,0,0:0:0:0:
192,192,92457,1,0,0:0:0:0:
320,192,92633,1,0,0:0:0:0:
320,192,92810,1,0,0:0:0:0:
64,192,92810,1,0,0:0:0:0:
448,192,92898,1,0,0:0:0:0:
192,192,92986,1,0,0:0:0:0:
192,192,93163,1,0,0:0:0:0:
448,192,93163,1,0,0:0:0:0:
320,192,93339,1,0,0:0:0:0:
64,192,93339,1,0,0:0:0:0:
448,192,93516,1,0,0:0:0:0:
192,192,93692,1,0,0:0:0:0:
448,192,93692,1,0,0:0:0:0:
64,192,93780,1,0,0:0:0:0:
320,192,93869,1,0,0:0:0:0:
64,192,94045,1,0,0:0:0:0:
448,192,94045,1,0,0:0:0:0:
320,192,94222,1,0,1:0:0:0:
64,192,94310,1,0,0:0:0:0:
192,192,94398,1,0,0:0:0:0:
448,192,94398,1,0,0:0:0:0:
64,192,94574,1,0,0:0:0:0:
448,192,94574,1,0,0:0:0:0:
192,192,94751,1,0,0:0:0:0:
320,192,94927,1,0,1:0:0:0:
64,192,94927,1,0,1:0:0:0:
320,192,95104,1,0,0:0:0:0:
64,192,95192,1,0,0:0:0:0:
192,192,95280,1,0,0:0:0:0:
448,192,95280,1,0,0:0:0:0:
320,192,95457,1,0,0:0:0:0:
320,192,95633,1,0,0:0:0:0:
64,192,95633,1,0,0:0:0:0:
448,192,95722,1,0,0:0:0:0:
192,192,95810,1,0,0:0:0:0:
192,192,95986,1,4,2:0:0:0:
64,192,95986,1,4,2:0:0:0:
448,192,95986,1,0,2:0:0:0:
64,192,96163,1,0,2:0:0:0:
192,192,96163,1,0,2:0:0:0:
320,192,96163,1,4,2:0:0:0:
448,192,96163,1,4,2:0:0:0:
448,192,96339,1,0,0:0:0:0:
320,192,96516,1,0,1:0:0:0:
192,192,96516,1,0,1:0:0:0:
64,192,96516,1,0,1:0:0:0:
64,192,96692,1,0,0:0:0:0:
448,192,96869,1,0,1:0:0:0:
192,192,96869,1,0,1:0:0:0:
320,192,97045,1,0,0:0:0:0:
64,192,97045,1,0,0:0:0:0:
192,192,97222,1,0,1:0:0:0:
320,192,97222,1,0,1:0:0:0:
448,192,97222,1,0,1:0:0:0:
64,192,97398,1,0,0:0:0:0:
320,192,97486,1,0,1:0:0:0:
448,192,97486,1,0,1:0:0:0:
64,192,97574,1,0,1:0:0:0:
192,192,97574,1,0,1:0:0:0:
192,192,97751,1,0,0:0:0:0:
448,192,97751,1,0,0:0:0:0:
64,192,97927,1,0,1:0:0:0:
448,192,97927,1,0,1:0:0:0:
320,192,97927,1,0,1:0:0:0:
320,192,98104,1,0,0:0:0:0:
192,192,98280,1,0,1:0:0:0:
448,192,98280,1,0,1:0:0:0:
320,192,98457,1,0,0:0:0:0:
64,192,98457,1,0,0:0:0:0:
192,192,98633,1,0,1:0:0:0:
320,192,98633,1,0,1:0:0:0:
64,192,98633,1,0,1:0:0:0:
448,192,98810,1,0,0:0:0:0:
192,192,98898,1,0,1:0:0:0:
64,192,98898,1,0,1:0:0:0:
448,192,98986,1,0,1:0:0:0:
320,192,98986,1,0,1:0:0:0:
320,192,99163,1,0,0:0:0:0:
64,192,99163,1,0,0:0:0:0:
64,192,99339,1,0,1:0:0:0:
448,192,99339,1,0,1:0:0:0:
320,192,99339,1,0,1:0:0:0:
192,192,99516,1,0,0:0:0:0:
64,192,99692,1,0,1:0:0:0:
448,192,99692,1,0,1:0:0:0:
448,192,99869,1,0,0:0:0:0:
192,192,99869,1,0,0:0:0:0:
320,192,100045,1,0,1:0:0:0:
192,192,100045,1,0,1:0:0:0:
64,192,100045,1,0,1:0:0:0:
448,192,100222,1,0,0:0:0:0:
64,192,100398,1,0,2:0:0:0:
192,192,100398,1,4,2:0:0:0:
320,192,100398,1,4,2:0:0:0:
448,192,100398,1,0,2:0:0:0:
448,192,100751,1,4,2:0:0:0:
320,192,100751,1,0,2:0:0:0:
192,192,100751,1,0,2:0:0:0:
64,192,100751,1,4,2:0:0:0:
64,192,101104,1,0,2:0:0:0:
192,192,101104,1,4,2:0:0:0:
320,192,101104,1,4,2:0:0:0:
448,192,101104,1,0,2:0:0:0:
64,192,101457,1,4,2:0:0:0:
192,192,101457,1,0,2:0:0:0:
320,192,101457,1,0,2:0:0:0:
448,192,101457,1,4,2:0:0:0:
64,192,101810,1,0,2:0:0:0:
192,192,101810,1,4,2:0:0:0:
448,192,101810,1,4,2:0:0:0:
320,192,101986,1,0,0:0:0:0:
320,192,102163,1,0,1:0:0:0:
64,192,102163,1,0,1:0:0:0:
192,192,102163,1,0,1:0:0:0:
448,192,102251,1,0,0:0:0:0:
64,192,102339,1,0,0:0:0:0:
320,192,102427,1,0,0:0:0:0:
448,192,102516,1,0,1:0:0:0:
192,192,102516,1,0,1:0:0:0:
64,192,102692,1,0,0:0:0:0:
448,192,102780,1,0,0:0:0:0:
320,192,102869,1,0,1:0:0:0:
192,192,102869,1,0,1:0:0:0:
64,192,102869,1,0,1:0:0:0:
320,192,103045,1,0,0:0:0:0:
192,192,103133,1,0,0:0:0:0:
448,192,103133,1,0,0:0:0:0:
64,192,103222,1,0,1:0:0:0:
320,192,103222,1,0,1:0:0:0:
448,192,103398,1,0,0:0:0:0:
448,192,103574,1,0,1:0:0:0:
192,192,103574,1,0,1:0:0:0:
320,192,103574,1,0,1:0:0:0:
64,192,103663,1,0,0:0:0:0:
320,192,103751,1,0,0:0:0:0:
448,192,103839,1,0,0:0:0:0:
64,192,103927,1,0,1:0:0:0:
192,192,103927,1,0,1:0:0:0:
320,192,104104,1,0,0:0:0:0:
64,192,104192,1,0,0:0:0:0:
448,192,104280,1,0,1:0:0:0:
320,192,104280,1,0,1:0:0:0:
192,192,104280,1,0,1:0:0:0:
448,192,104457,1,0,0:0:0:0:
64,192,104545,1,0,1:0:0:0:
320,192,104545,1,0,1:0:0:0:
448,192,104633,1,0,1:0:0:0:
192,192,104633,1,0,1:0:0:0:
320,192,104810,1,0,0:0:0:0:
320,192,104986,1,0,1:0:0:0:
64,192,104986,1,0,1:0:0:0:
192,192,104986,1,0,1:0:0:0:
448,192,105074,1,0,0:0:0:0:
192,192,105163,1,0,0:0:0:0:
64,192,105251,1,0,0:0:0:0:
192,192,105339,1,0,1:0:0:0:
448,192,105339,1,0,1:0:0:0:
320,192,105516,1,0,0:0:0:0:
448,192,105604,1,0,0:0:0:0:
320,192,105692,1,0,1:0:0:0:
192,192,105692,1,0,1:0:0:0:
64,192,105692,1,0,1:0:0:0:
64,192,105869,1,0,0:0:0:0:
192,192,105957,1,0,1:0:0:0:
448,192,105957,1,0,1:0:0:0:
320,192,106045,1,0,1:0:0:0:
64,192,106045,1,0,1:0:0:0:
320,192,106222,1,0,0:0:0:0:
448,192,106398,1,0,1:0:0:0:
192,192,106398,1,0,1:0:0:0:
320,192,106398,1,0,1:0:0:0:
64,192,106486,1,0,0:0:0:0:
448,192,106574,1,0,0:0:0:0:
64,192,106663,1,0,0:0:0:0:
320,192,106751,1,0,1:0:0:0:
448,192,106751,1,0,1:0:0:0:
192,192,106927,1,0,0:0:0:0:
448,192,107016,1,0,0:0:0:0:
320,192,107104,1,0,1:0:0:0:
192,192,107104,1,0,1:0:0:0:
64,192,107104,1,0,1:0:0:0:
320,192,107280,1,0,0:0:0:0:
192,192,107457,1,4,2:0:0:0:
64,192,107457,1,0,2:0:0:0:
448,192,107457,1,4,2:0:0:0:
320,192,107457,1,0,2:0:0:0:
192,192,107633,1,0,0:0:0:0:
448,192,107810,1,0,1:0:0:0:
64,192,107810,1,0,1:0:0:0:
320,192,107810,1,0,1:0:0:0:
192,192,107898,1,0,0:0:0:0:
448,192,107986,1,0,0:0:0:0:
64,192,108074,1,0,0:0:0:0:
192,192,108163,1,0,1:0:0:0:
320,192,108163,1,0,1:0:0:0:
448,192,108339,1,0,0:0:0:0:
192,192,108427,1,0,0:0:0:0:
64,192,108516,1,0,1:0:0:0:
320,192,108516,1,0,1:0:0:0:
448,192,108516,1,0,1:0:0:0:
192,192,108692,1,0,0:0:0:0:
64,192,108780,1,0,1:0:0:0:
320,192,108780,1,0,1:0:0:0:
448,192,108869,1,0,1:0:0:0:
192,192,108869,1,0,1:0:0:0:
320,192,109045,1,0,0:0:0:0:
192,192,109222,1,0,1:0:0:0:
64,192,109222,1,0,1:0:0:0:
448,192,109222,1,0,1:0:0:0:
320,192,109310,1,0,0:0:0:0:
64,192,109398,1,0,0:0:0:0:
192,192,109486,1,0,0:0:0:0:
448,192,109574,1,0,1:0:0:0:
320,192,109574,1,0,1:0:0:0:
64,192,109751,1,0,0:0:0:0:
448,192,109839,1,0,0:0:0:0:
64,192,109927,1,0,1:0:0:0:
320,192,109927,1,0,1:0:0:0:
192,192,109927,1,0,1:0:0:0:
448,192,110104,1,0,0:0:0:0:
64,192,110104,128,2,110986:0:0:0:0:
320,192,110192,1,0,0:0:0:0:
192,192,110280,1,0,1:0:0:0:
448,192,110280,1,0,1:0:0:0:
320,192,110457,1,0,0:0:0:0:
192,192,110633,1,0,1:0:0:0:
448,192,110633,1,0,1:0:0:0:
320,192,110722,1,0,0:0:0:0:
448,192,110810,1,0,0:0:0:0:
192,192,110898,1,0,0:0:0:0:
448,192,110986,1,0,1:0:0:0:
320,192,110986,1,0,1:0:0:0:
192,192,111163,1,0,0:0:0:0:
320,192,111339,1,0,1:0:0:0:
192,192,111339,1,0,1:0:0:0:
64,192,111339,1,0,1:0:0:0:
448,192,111516,128,2,112398:0:0:0:0:
192,192,111516,1,0,0:0:0:0:
320,192,111604,1,0,0:0:0:0:
64,192,111692,1,0,1:0:0:0:
192,192,111692,1,0,1:0:0:0:
320,192,111869,1,0,0:0:0:0:
64,192,112045,1,0,1:0:0:0:
192,192,112045,1,0,1:0:0:0:
320,192,112133,1,0,0:0:0:0:
64,192,112222,1,0,0:0:0:0:
192,192,112310,1,0,0:0:0:0:
320,192,112398,128,2,112751:2:0:0:0:
64,192,112398,1,0,1:0:0:0:
192,192,112574,1,0,0:0:0:0:
64,192,112663,1,0,0:0:0:0:
192,192,112751,128,2,113104:2:0:0:0:
448,192,112751,1,0,1:0:0:0:
320,192,112927,1,0,0:0:0:0:
64,192,113104,1,4,2:0:0:0:
448,192,113104,1,4,2:0:0:0:
320,192,113104,1,0,2:0:0:0:
64,192,113280,1,0,0:0:0:0:
320,192,113369,1,0,0:0:0:0:
192,192,113457,1,0,1:0:0:0:
448,192,113457,1,0,1:0:0:0:
64,192,113457,1,0,1:0:0:0:
320,192,113545,1,0,0:0:0:0:
448,192,113633,1,0,0:0:0:0:
64,192,113722,1,0,0:0:0:0:
192,192,113810,1,0,1:0:0:0:
320,192,113810,1,0,1:0:0:0:
192,192,113986,1,0,0:0:0:0:
448,192,114074,1,0,0:0:0:0:
192,192,114163,1,0,1:0:0:0:
320,192,114163,1,0,1:0:0:0:
64,192,114163,1,0,1:0:0:0:
448,192,114339,1,0,0:0:0:0:
192,192,114427,1,0,0:0:0:0:
448,192,114516,128,2,114869:2:0:0:0:
64,192,114516,1,0,1:0:0:0:
320,192,114516,1,0,1:0:0:0:
192,192,114692,1,0,0:0:0:0:
320,192,114869,1,0,1:0:0:0:
64,192,114869,128,2,115222:2:0:0:0:
192,192,114957,1,0,0:0:0:0:
448,192,115045,1,0,0:0:0:0:
192,192,115133,1,0,0:0:0:0:
320,192,115222,128,2,115574:2:0:0:0:
448,192,115222,1,0,1:0:0:0:
64,192,115398,1,0,0:0:0:0:
448,192,115486,1,0,0:0:0:0:
64,192,115574,128,2,115927:0:0:0:0:
192,192,115574,1,0,1:0:0:0:
448,192,115751,1,0,0:0:0:0:
320,192,115839,1,0,0:0:0:0:
192,192,115927,1,0,1:0:0:0:
448,192,115927,1,0,1:0:0:0:
320,192,116104,1,0,0:0:0:0:
64,192,116280,1,0,1:0:0:0:
448,192,116280,1,0,1:0:0:0:
192,192,116280,1,0,1:0:0:0:
320,192,116369,1,0,0:0:0:0:
192,192,116457,1,0,0:0:0:0:
448,192,116545,1,0,0:0:0:0:
192,192,116633,1,0,1:0:0:0:
64,192,116633,1,0,1:0:0:0:
320,192,116633,1,0,1:0:0:0:
320,192,116810,1,0,0:0:0:0:
64,192,116898,1,0,0:0:0:0:
192,192,116898,1,0,0:0:0:0:
448,192,116898,1,0,0:0:0:0:
320,192,116986,1,0,1:0:0:0:
64,192,117163,1,0,1:0:0:0:
448,192,117163,1,0,0:0:0:0:
320,192,117163,1,0,0:0:0:0:
192,192,117251,1,0,0:0:0:0:
448,192,117339,128,2,117692:2:0:0:0:
64,192,117339,1,0,1:0:0:0:
320,192,117339,1,0,1:0:0:0:
320,192,117516,1,0,0:0:0:0:
64,192,117692,128,2,118045:2:0:0:0:
192,192,117692,1,0,1:0:0:0:
320,192,117780,1,0,0:0:0:0:
448,192,117869,1,0,0:0:0:0:
192,192,117957,1,0,0:0:0:0:
448,192,118045,128,2,118398:2:0:0:0:
320,192,118045,1,0,1:0:0:0:
192,192,118222,1,0,0:0:0:0:
320,192,118310,1,0,0:0:0:0:
192,192,118398,128,2,118751:2:0:0:0:
64,192,118398,1,0,1:0:0:0:
320,192,118574,1,0,0:0:0:0:
448,192,118751,1,4,2:0:0:0:
64,192,118751,1,4,2:0:0:0:
320,192,118751,1,0,2:0:0:0:
320,192,118927,1,0,0:0:0:0:
320,192,119104,1,0,1:0:0:0:
64,192,119104,1,0,1:0:0:0:
192,192,119104,1,0,1:0:0:0:
448,192,119280,1,0,0:0:0:0:
192,192,119457,1,0,1:0:0:0:
448,192,119457,1,0,1:0:0:0:
64,192,119457,1,0,1:0:0:0:
320,192,119633,1,0,0:0:0:0:
64,192,119633,1,0,0:0:0:0:
192,192,119633,1,0,0:0:0:0:
448,192,119810,1,0,1:0:0:0:
448,192,119986,1,0,0:0:0:0:
320,192,119986,1,0,0:0:0:0:
192,192,119986,1,0,0:0:0:0:
64,192,120074,1,0,0:0:0:0:
320,192,120163,1,0,1:0:0:0:
448,192,120163,1,0,1:0:0:0:
192,192,120163,1,0,1:0:0:0:
192,192,120339,1,0,0:0:0:0:
448,192,120516,1,0,1:0:0:0:
320,192,120516,1,0,1:0:0:0:
64,192,120516,1,0,1:0:0:0:
320,192,120692,1,0,0:0:0:0:
448,192,120869,1,0,1:0:0:0:
64,192,120869,1,0,1:0:0:0:
192,192,120869,1,0,1:0:0:0:
192,192,121045,1,0,0:0:0:0:
320,192,121045,1,0,0:0:0:0:
448,192,121045,1,0,0:0:0:0:
64,192,121133,1,0,0:0:0:0:
320,192,121222,1,0,1:0:0:0:
192,192,121398,1,0,0:0:0:0:
64,192,121486,1,0,1:0:0:0:
320,192,121486,1,0,1:0:0:0:
192,192,121574,1,0,1:0:0:0:
448,192,121574,1,0,1:0:0:0:
320,192,121751,1,0,0:0:0:0:
64,192,121927,1,0,1:0:0:0:
448,192,121927,1,0,1:0:0:0:
192,192,122016,1,0,0:0:0:0:
448,192,122104,1,0,0:0:0:0:
64,192,122192,1,0,0:0:0:0:
320,192,122280,1,0,1:0:0:0:
448,192,122280,1,0,1:0:0:0:
192,192,122457,1,0,0:0:0:0:
320,192,122545,1,0,0:0:0:0:
448,192,122633,1,0,1:0:0:0:
64,192,122633,1,0,1:0:0:0:
320,192,122810,1,0,0:0:0:0:
64,192,122898,1,0,0:0:0:0:
448,192,122986,1,0,1:0:0:0:
192,192,122986,1,0,1:0:0:0:
320,192,123163,1,0,0:0:0:0:
64,192,123339,1,0,1:0:0:0:
448,192,123339,1,0,1:0:0:0:
320,192,123427,1,0,0:0:0:0:
192,192,123516,1,0,0:0:0:0:
448,192,123604,1,0,0:0:0:0:
64,192,123692,1,0,1:0:0:0:
320,192,123692,1,0,1:0:0:0:
192,192,123869,1,0,0:0:0:0:
448,192,123957,1,0,0:0:0:0:
320,192,124045,1,0,1:0:0:0:
64,192,124045,1,0,1:0:0:0:
448,192,124222,1,0,0:0:0:0:
320,192,124398,5,0,2:0:0:0:
192,192,124398,1,4,2:0:0:0:
64,192,124398,1,4,2:0:0:0:
448,192,124398,1,0,2:0:0:0:
320,192,124574,1,0,0:0:0:0:
448,192,124751,1,0,1:0:0:0:
64,192,124751,1,0,1:0:0:0:
192,192,124751,1,0,1:0:0:0:
320,192,124839,1,0,0:0:0:0:
320,192,125104,1,0,1:0:0:0:
64,192,125104,1,0,1:0:0:0:
192,192,125104,1,0,1:0:0:0:
320,192,125369,1,0,0:0:0:0:
64,192,125457,1,0,1:0:0:0:
448,192,125457,1,0,1:0:0:0:
192,192,125457,1,0,1:0:0:0:
320,192,125633,1,0,0:0:0:0:
448,192,125810,128,0,127222:1:0:0:0:
64,192,125810,1,0,1:0:0:0:
192,192,125810,1,0,1:0:0:0:
192,192,125986,1,0,0:0:0:0:
64,192,126163,1,0,1:0:0:0:
320,192,126163,1,0,1:0:0:0:
192,192,126339,1,0,0:0:0:0:
64,192,126516,1,0,1:0:0:0:
320,192,126516,1,0,1:0:0:0:
192,192,126604,1,0,1:0:0:0:
64,192,126692,1,0,1:0:0:0:
192,192,126780,1,0,1:0:0:0:
320,192,126780,1,0,1:0:0:0:
64,192,126869,1,0,1:0:0:0:
192,192,126957,1,0,1:0:0:0:
320,192,127045,1,0,1:0:0:0:
64,192,127045,1,0,1:0:0:0:
192,192,127133,1,0,1:0:0:0:
64,192,127222,128,4,130751:2:0:0:0:
320,192,127222,128,4,130751:2:0:0:0:
