osu file format v14

[General]
AudioFilename: Kimi to Natsu Fesu.mp3
AudioLeadIn: 1500
PreviewTime: 55857
Countdown: 0
SampleSet: Normal
StackLeniency: 0.7
Mode: 0
LetterboxInBreaks: 0
WidescreenStoryboard: 1

[Editor]
Bookmarks: 136932,220755
DistanceSpacing: 0.8
BeatDivisor: 2
GridSize: 4
TimelineZoom: 1.4

[Metadata]
Title:Kimi to Natsu Fes
TitleUnicode:君と夏フェス
Artist:SHISHAMO
ArtistUnicode:SHISHAMO
Creator:Zero__wind
Version:Normal
Source:
Tags:Frey festival
BeatmapID:672752
BeatmapSetID:237261

[Difficulty]
HPDrainRate:4
CircleSize:3
OverallDifficulty:4
ApproachRate:5
SliderMultiplier:1.3
SliderTickRate:1

[Events]
//Background and Video events
0,0,"ggg.jpg",0,0
//Break Periods
2,80402,87092
2,175080,179278
//Storyboard Layer 0 (Background)
//Storyboard Layer 1 (Fail)
//Storyboard Layer 2 (Pass)
//Storyboard Layer 3 (Foreground)
//Storyboard Sound Samples

[TimingPoints]
647,337.173363304299,4,1,1,70,1,0
11436,-100,4,1,1,50,0,0
12279,-100,4,1,1,70,0,0
12782,337.268128161889,4,1,1,60,1,0
33018,335.195530726257,4,1,1,60,1,0
34367,344.827586206897,4,1,1,60,1,0
34367,-125,4,1,1,60,0,0
35709,336.134453781513,4,1,1,60,1,0
35709,-125,4,1,1,60,0,0
39753,337.078651685393,4,1,1,60,1,0
39753,-125,4,1,1,60,0,0
43807,337.078651685393,4,1,1,70,1,0
45155,-100,4,1,1,60,0,0
50534,337.078651685393,4,1,1,70,1,0
53245,337.078651685393,4,1,1,70,1,0
53582,-100,4,1,1,60,0,0
55957,337.078651685393,4,1,1,70,1,1
66733,337.078651685393,4,1,1,70,1,1
76171,-100,4,1,1,70,0,0
77506,337.078651685393,4,1,1,70,1,0
88292,-100,4,1,1,60,0,0
95028,334.261838440111,4,1,1,60,1,0
99063,337.837837837838,4,1,1,60,1,0
109870,337.078651685393,4,1,1,60,1,0
109870,-125,4,1,1,60,0,0
110038,-125,4,1,1,50,0,0
118971,-125,4,1,1,70,0,0
119290,341.880341880342,4,1,1,70,1,0
120660,336.889387984279,4,1,1,70,1,0
120996,-100,4,1,1,60,0,0
126050,-100,4,1,1,70,0,0
128745,338.028169014084,4,1,1,70,1,0
128914,-100,4,1,1,60,0,0
130097,-166.666666666667,4,1,1,60,0,0
131462,341.880341880342,4,2,1,80,1,0
131462,-166.666666666667,4,2,1,80,0,0
131803,-166.666666666667,4,2,1,60,0,0
136932,-166.666666666667,4,2,1,80,0,0
137273,-166.666666666667,4,2,1,60,0,0
142418,342.857142857143,4,2,1,80,1,0
142418,-166.666666666667,4,2,1,80,0,0
142760,-166.666666666667,4,2,1,60,0,0
150633,342.465753424658,4,1,1,70,1,0
151831,-166.666666666667,4,1,1,70,0,0
151874,-166.666666666667,4,1,1,5,0,0
152859,-100,4,1,1,70,0,0
153372,-100,4,1,1,60,0,0
158845,339.366515837104,4,1,1,70,1,0
164290,338.600451467269,4,1,1,70,1,0
164628,-100,4,1,1,60,0,0
169707,333.333333333333,4,1,1,60,1,0
169707,-125,4,1,1,60,0,0
172373,-166.666666666667,4,1,1,60,0,0
175080,337.078651685393,4,2,1,40,1,0
180478,337.078651685393,4,1,1,50,1,0
181657,-100,4,1,1,60,0,0
183174,-100,4,1,0,70,0,0
183848,-100,4,1,0,80,0,0
184691,-100,4,1,1,70,0,0
185028,-178.571428571429,4,1,1,70,0,0
185112,-178.571428571429,4,1,1,5,0,0
186882,-100,4,1,1,70,0,0
187245,337.078651685393,4,1,1,70,1,1
191272,337.078651685393,4,1,1,70,1,1
196655,337.078651685393,4,1,1,70,1,1
198003,339.55857385399,4,1,1,70,1,1
203405,337.078651685393,4,1,1,70,1,1
207449,-100,4,1,1,70,0,0
208786,337.173363304299,4,1,1,70,1,0
216878,333.333333333333,4,1,1,70,1,0
218225,338.028169014084,4,1,1,70,1,0

[Colours]
Combo1 : 250,167,152
Combo2 : 115,132,168
Combo3 : 226,160,102
Combo4 : 163,127,155

[HitObjects]
316,308,647,6,0,P|384:301|428:260,1,130,4|8,0:0|0:0,0:0:0:0:
436,208,1152,2,2,L|420:76,1,130,4|0,0:2|0:0,0:0:0:0:
400,32,1658,2,0,L|336:60,1,65,10|4,0:0|0:2,0:0:0:0:
236,76,2164,2,0,L|194:132,1,65,0|8,0:0|0:0,0:0:0:0:
184,180,2501,2,0,L|184:320,1,130,4|0,0:2|0:0,0:0:0:0:
184,360,3007,1,10,0:0:0:0:
84,328,3344,6,0,L|84:260,1,65,6|0,0:0|0:0,0:0:0:0:
84,211,3681,1,10,0:0:0:0:
84,159,3850,2,0,P|126:96|174:79,1,130,4|0,0:0|0:0,0:0:0:0:
227,82,4355,1,8,0:0:0:0:
272,108,4524,5,4,0:2:0:0:
324,198,4861,1,4,0:2:0:0:
232,244,5198,1,4,0:2:0:0:
284,334,5536,2,0,L|348:328,1,65,0|12,0:0|0:2,0:0:0:0:
444,288,6041,6,0,B|456:224|456:224|444:160,1,130,4|8,0:0|0:0,0:0:0:0:
424,112,6547,2,2,P|360:132|280:108,1,130,4|0,0:2|0:0,0:0:0:0:
272,76,7053,2,0,L|292:12,1,65,8|4,0:0|0:2,0:0:0:0:
188,24,7559,2,0,L|168:86,1,65,0|8,0:0|0:0,0:0:0:0:
152,136,7896,2,0,P|177:197|236:220,1,130,4|0,0:2|0:0,0:0:0:0:
284,220,8401,1,8,0:0:0:0:
256,320,8739,6,0,P|224:322|188:312,1,65,6|0,0:0|0:0,0:0:0:0:
143,298,9076,1,10,0:0:0:0:
72,220,9413,2,0,P|59:190|56:153,1,65,2|0,0:0|0:0,0:0:0:0:
53,105,9750,1,10,0:0:0:0:
124,28,10087,2,2,L|256:32,1,130,2|10,0:0|0:0,0:0:0:0:
296,64,10593,2,0,L|292:128,2,65,2|2|2,0:0|0:0|0:0,0:0:0:0:
340,36,11099,1,10,0:0:0:0:
432,88,11436,6,0,L|423:218,1,130,2|2,2:0|2:0,0:0:0:0:
408,268,11942,1,2,2:0:0:0:
316,212,12279,2,0,L|252:216,1,65,0|8,0:0|0:0,0:0:0:0:
148,220,12782,6,0,P|99:279|100:340,1,130,4|8,0:2|0:0,0:0:0:0:
132,368,13287,2,0,L|265:376,1,130,2|2,0:3|0:3,0:0:0:0:
312,368,13793,1,8,0:0:0:0:
413,336,14131,2,0,P|408:271|425:209,1,130,2|8,0:3|0:0,0:0:0:0:
456,168,14636,2,0,P|391:173|329:156,1,130,2|2,0:3|0:3,0:0:0:0:
296,116,15142,1,8,0:0:0:0:
251,20,15480,6,0,P|204:62|191:124,1,130,2|8,0:3|0:0,0:0:0:0:
207,174,15986,1,2,0:3:0:0:
284,244,16323,1,0,0:0:0:0:
312,288,16491,2,0,P|302:321|285:346,1,65,8|2,0:0|2:0,0:0:0:0:
236,368,16829,1,2,0:3:0:0:
144,316,17166,1,8,0:0:0:0:
92,316,17335,2,0,P|53:317|23:307,2,65,2|2|2,0:3|2:0|0:3,0:0:0:0:
118,270,17841,1,8,0:0:0:0:
200,204,18178,6,0,P|261:222|310:268,1,130,2|8,0:3|0:0,0:0:0:0:
332,312,18684,2,0,P|394:326|459:311,1,130,2|2,0:3|0:3,0:0:0:0:
496,276,19190,1,8,0:0:0:0:
512,172,19527,2,0,P|480:112|429:73,1,130,2|8,0:3|0:0,0:0:0:0:
380,72,20033,2,0,P|344:128|335:192,1,130,2|2,0:3|0:3,0:0:0:0:
352,240,20539,1,8,0:0:0:0:
248,228,20876,6,0,P|237:164|254:101,1,130,2|8,0:3|0:0,0:0:0:0:
280,56,21382,1,2,0:3:0:0:
176,36,21719,2,0,L|112:40,1,65,0|8,0:0|0:0,0:0:0:0:
64,64,22056,1,2,2:0:0:0:
52,116,22225,1,2,0:3:0:0:
140,172,22562,1,8,0:0:0:0:
185,198,22731,2,0,L|250:197,2,65,2|2|2,0:3|2:0|0:3,0:0:0:0:
139,224,23237,1,8,0:0:0:0:
96,320,23574,6,0,P|147:354|213:352,1,130,2|8,0:3|0:0,0:0:0:0:
256,320,24080,2,0,L|388:320,1,130,2|2,0:3|0:3,0:0:0:0:
436,336,24586,1,8,0:0:0:0:
400,236,24923,1,2,0:3:0:0:
476,164,25260,2,0,L|472:100,1,65,8|2,0:0|0:3,0:0:0:0:
368,124,25766,2,0,L|304:120,1,65,2|8,0:3|0:0,0:0:0:0:
224,52,26272,6,0,P|199:126|222:184,2,130,2|8|2,0:3|0:0|0:3,0:0:0:0:
272,28,27115,2,0,L|336:32,1,65,0|8,0:0|0:0,0:0:0:0:
384,56,27453,2,0,L|388:204,1,130,4|0,0:2|0:0,0:0:0:0:
384,237,27959,1,8,0:0:0:0:
356,280,28127,2,0,P|288:288|224:280,1,130,4|2,0:2|0:2,0:0:0:0:
180,260,28633,1,8,0:0:0:0:
88,312,28970,6,0,P|59:253|44:190,1,130,2|8,0:3|0:0,0:0:0:0:
24,144,29476,2,0,P|72:101|129:70,1,130,2|2,0:3|0:3,0:0:0:0:
176,48,29982,1,8,0:0:0:0:
280,64,30319,2,0,P|287:98|284:128,1,65,2|0,0:3|0:0,0:0:0:0:
256,172,30657,1,8,0:0:0:0:
220,212,30825,2,0,P|231:278|279:319,1,130,4|2,0:2|0:2,0:0:0:0:
324,342,31331,1,8,0:0:0:0:
432,336,31669,6,0,L|424:204,1,130,2|8,0:3|0:0,0:0:0:0:
400,160,32174,2,0,P|388:92|414:35,1,130,2|2,0:3|0:3,0:0:0:0:
455,10,32680,1,8,0:0:0:0:
492,108,33018,1,2,0:3:0:0:
400,160,33353,2,0,L|264:152,1,130,12|8,0:2|0:0,0:0:0:0:
220,140,33855,1,8,0:0:0:0:
235,190,34023,2,0,L|234:257,1,65,8|0,0:0|0:0,0:0:0:0:
228,308,34367,5,4,0:0:0:0:
140,316,34711,1,0,0:0:0:0:
68,272,35056,2,0,L|16:284,2,52,4|4|0,3:0|3:0|0:0,0:0:0:0:
132,224,35709,1,4,3:0:0:0:
160,144,36045,1,0,0:0:0:0:
108,76,36381,2,0,L|112:24,2,52,4|4|0,3:0|3:0|0:0,0:0:0:0:
56,144,37053,5,4,3:0:0:0:
48,228,37389,1,0,0:0:0:0:
132,224,37725,1,4,3:0:0:0:
124,308,38061,1,0,0:0:0:0:
200,272,38398,2,0,P|254:256|300:266,1,104,4|0,3:0|0:0,0:0:0:0:
338,281,38902,1,8,3:0:0:0:
360,316,39070,2,0,L|352:368,2,52,4|4|0,3:0|3:0|0:0,0:0:0:0:
440,280,39753,5,4,0:0:0:0:
416,200,40090,1,0,0:0:0:0:
464,132,40427,2,0,L|504:100,2,52,4|4|0,3:0|3:0|0:0,0:0:0:0:
380,124,41101,1,4,3:0:0:0:
304,164,41438,1,0,0:0:0:0:
268,240,41775,2,0,L|272:300,2,52,4|4|0,3:0|3:0|0:0,0:0:0:0:
186,228,42449,5,4,0:3:0:0:
121,178,42786,1,0,0:0:0:0:
90,102,43123,1,4,0:3:0:0:
101,20,43460,1,0,0:0:0:0:
188,32,43807,6,0,L|324:28,1,130,8|0,0:0|0:0,0:0:0:0:
328,80,44312,2,0,L|462:59,1,130,8|0,0:0|0:0,0:0:0:0:
504,40,44818,1,8,0:0:0:0:
468,140,45155,6,0,P|454:210|480:260,1,130,4|8,0:0|0:0,0:0:0:0:
508,304,45660,2,0,B|456:300|456:300|376:312,1,130,2|2,0:3|0:3,0:0:0:0:
340,344,46166,1,8,0:0:0:0:
262,276,46503,2,0,P|235:218|250:156,1,130,2|8,0:3|0:0,0:0:0:0:
286,120,47009,1,2,0:3:0:0:
372,180,47346,2,0,L|372:244,1,65,2|8,0:3|0:0,0:0:0:0:
340,343,47851,6,0,P|292:373|214:368,1,130,2|8,0:3|0:0,0:0:0:0:
180,336,48357,1,2,0:3:0:0:
136,240,48694,2,0,L|140:172,1,65,2|8,0:3|0:0,0:0:0:0:
196,88,49200,2,0,P|133:72|73:94,1,130,2|8,0:3|0:0,0:0:0:0:
44,136,49705,2,0,L|36:265,1,130,2|2,0:3|0:3,0:0:0:0:
44,320,50211,1,12,0:2:0:0:
140,288,50534,5,8,0:0:0:0:
232,336,50871,2,0,L|296:336,1,65,8|8,0:0|0:0,0:0:0:0:
356,252,51376,1,8,0:0:0:0:
303,160,51713,1,8,0:0:0:0:
407,160,52050,1,8,0:0:0:0:
356,252,52387,1,8,0:0:0:0:
306,263,52556,2,0,P|273:258|244:245,1,65,8|0,0:0|0:0,0:0:0:0:
210,207,52893,1,12,0:2:0:0:
195,100,53245,6,0,P|137:127|104:182,1,130,4|8,0:2|0:0,0:0:0:0:
107,232,53750,2,0,P|141:286|199:312,1,130,2|2,0:2|0:2,0:0:0:0:
252,312,54256,1,12,0:2:0:0:
352,272,54593,2,0,L|356:104,1,130,4|8,0:2|0:0,0:0:0:0:
344,92,55098,1,8,0:0:0:0:
304,60,55267,2,0,L|240:40,2,65,8|0|12,0:0|0:0|0:2,0:0:0:0:
256,160,55957,6,0,L|120:160,1,130,4|8,0:0|0:0,0:0:0:0:
75,153,56462,2,0,P|55:81|79:25,1,130,2|2,0:3|0:3,0:0:0:0:
124,16,56968,1,8,0:0:0:0:
216,64,57305,2,0,L|348:64,1,130,2|8,0:3|0:0,0:0:0:0:
373,108,57810,2,0,L|445:100,1,65,2|2,0:3|2:0,0:0:0:0:
489,95,58148,2,0,P|501:131|501:159,1,65,2|8,0:3|0:0,0:0:0:0:
480,260,58653,6,0,P|416:272|344:256,1,130,2|8,0:3|0:0,0:0:0:0:
324,216,59159,2,0,P|265:187|191:184,1,130,2|2,0:3|0:3,0:0:0:0:
152,196,59664,1,8,0:0:0:0:
55,160,60001,2,0,P|48:191|51:223,1,65,4|0,0:2|0:0,0:0:0:0:
60,276,60339,1,8,0:0:0:0:
92,316,60507,2,0,L|224:316,1,130,4|0,0:2|0:0,0:0:0:0:
272,296,61013,1,8,0:0:0:0:
336,216,61350,6,0,P|403:214|456:244,1,130,4|8,0:2|0:0,0:0:0:0:
456,347,62024,2,0,P|399:378|335:375,1,130,2|8,2:0|0:0,0:0:0:0:
272,296,62698,1,2,0:3:0:0:
264,192,63035,1,8,0:0:0:0:
316,100,63372,1,2,2:0:0:0:
420,82,63709,1,8,0:0:0:0:
383,180,64046,6,0,P|325:207|264:192,1,130,4|8,0:2|0:0,0:0:0:0:
192,268,64721,2,0,P|128:262|82:218,1,130,2|8,2:0|0:0,0:0:0:0:
37,124,65395,2,0,L|46:54,1,65,4|0,0:2|0:0,0:0:0:0:
80,20,65732,1,0,0:0:0:0:
123,51,65900,2,0,P|183:69|252:50,1,130,4|0,0:2|0:0,0:0:0:0:
293,29,66406,1,8,0:0:0:0:
324,128,66733,6,0,L|316:264,1,130,4|8,0:0|0:0,0:0:0:0:
324,308,67238,2,0,P|396:320|444:284,1,130,2|2,0:3|0:3,0:0:0:0:
460,240,67744,1,8,0:0:0:0:
480,136,68081,2,0,B|454:72|454:72|405:36,1,130,2|8,0:3|0:0,0:0:0:0:
356,52,68586,2,0,P|319:56|292:52,1,65,2|2,0:3|2:0,0:0:0:0:
252,20,68924,2,0,P|215:25|190:36,1,65,2|8,0:3|0:0,0:0:0:0:
128,120,69429,6,0,P|112:196|120:260,1,130,2|8,0:3|0:0,0:0:0:0:
144,292,69935,2,0,L|280:256,1,130,2|2,0:3|0:3,0:0:0:0:
288,208,70440,1,8,0:0:0:0:
380,156,70777,2,0,L|444:168,1,65,4|0,0:2|0:0,0:0:0:0:
490,191,71115,1,8,0:0:0:0:
509,239,71283,2,0,P|488:314|445:340,1,130,4|2,0:2|0:2,0:0:0:0:
396,348,71789,1,8,0:0:0:0:
336,260,72126,5,8,0:0:0:0:
272,344,72463,1,8,0:0:0:0:
212,256,72800,1,8,0:0:0:0:
192,208,72968,2,0,P|188:168|192:144,1,65,2|8,0:2|0:0,0:0:0:0:
212,96,73306,2,0,L|352:100,1,130,4|2,0:2|0:2,0:0:0:0:
392,116,73811,1,8,0:0:0:0:
408,167,73980,1,4,0:2:0:0:
328,235,74317,2,0,P|326:268|335:298,1,65,0|12,0:0|0:2,0:0:0:0:
271,377,74822,6,0,L|123:369,1,130,4|8,0:2|0:0,0:0:0:0:
88,360,75328,1,2,0:2:0:0:
60,260,75665,2,0,P|60:227|68:192,1,65,0|8,0:0|0:0,0:0:0:0:
88,148,76002,1,2,0:3:0:0:
88,148,76171,1,8,0:0:0:0:
256,192,77506,5,4,0:0:0:0:
256,192,77674,12,4,80202,0:0:0:0:
252,328,88292,6,0,L|120:336,1,130,4|8,0:2|0:0,0:0:0:0:
72,320,88798,2,0,P|48:256|72:196,1,130,2|2,0:3|0:3,0:0:0:0:
108,168,89303,1,8,0:0:0:0:
208,196,89640,2,0,L|337:203,1,130,2|8,0:3|0:0,0:0:0:0:
364,248,90146,2,0,P|440:264|488:224,1,130,2|2,0:3|0:3,0:0:0:0:
492,187,90652,1,8,0:0:0:0:
496,80,90989,6,0,L|368:56,1,130,2|8,0:3|0:0,0:0:0:0:
316,56,91494,1,2,0:3:0:0:
232,128,91831,1,0,0:0:0:0:
224,180,92000,2,0,L|224:248,1,65,8|2,0:0|2:0,0:0:0:0:
260,284,92337,1,2,0:3:0:0:
152,284,92674,1,8,0:0:0:0:
112,252,92843,2,0,P|97:222|92:188,2,65,2|2|2,0:3|2:0|0:3,0:0:0:0:
84,296,93348,1,8,0:0:0:0:
4,232,93685,6,0,P|8:152|44:96,1,130,2|8,0:3|0:0,0:0:0:0:
72,76,94191,2,0,L|208:76,1,130,2|2,0:3|0:3,0:0:0:0:
252,84,94697,1,8,0:0:0:0:
336,144,95028,2,0,P|405:150|464:120,1,130,2|8,0:3|0:0,0:0:0:0:
484,80,95529,2,0,P|434:31|370:16,1,130,2|2,0:3|0:3,0:0:0:0:
326,12,96030,1,8,0:0:0:0:
252,84,96365,6,0,L|244:240,1,130,2|8,0:3|0:0,0:0:0:0:
248,264,96866,1,2,0:3:0:0:
292,356,97200,2,0,P|319:366|355:369,1,65,2|8,0:3|0:0,0:0:0:0:
407,362,97534,1,2,2:0:0:0:
452,336,97702,1,2,0:3:0:0:
488,236,98036,1,8,0:0:0:0:
496,184,98203,2,0,L|504:120,2,65,2|2|2,0:3|2:0|0:3,0:0:0:0:
448,202,98704,1,8,0:0:0:0:
360,136,99063,6,0,P|296:140|244:180,1,130,2|8,0:3|0:0,0:0:0:0:
265,227,99569,2,0,P|265:303|253:363,1,130,2|2,0:3|0:3,0:0:0:0:
208,376,100076,1,8,0:0:0:0:
104,352,100414,1,2,0:3:0:0:
60,260,100752,2,0,P|65:222|76:196,1,65,8|2,0:0|0:3,0:0:0:0:
172,156,101258,2,0,P|167:118|156:92,1,65,2|8,0:3|0:0,0:0:0:0:
80,28,101765,6,0,P|34:71|8:132,2,130,2|8|2,0:3|0:0|0:3,0:0:0:0:
132,24,102610,2,0,L|196:48,1,65,0|8,0:0|0:0,0:0:0:0:
232,80,102948,2,0,L|368:88,1,130,4|0,0:2|0:0,0:0:0:0:
396,48,103454,1,8,0:0:0:0:
448,36,103623,2,0,P|484:104|472:160,1,130,4|2,0:2|0:2,0:0:0:0:
456,204,104130,1,8,0:0:0:0:
375,269,104468,6,0,P|312:239|257:252,1,130,2|8,0:3|0:0,0:0:0:0:
244,304,104975,2,0,L|96:268,1,130,2|2,0:3|0:3,0:0:0:0:
68,276,105481,1,8,0:0:0:0:
64,172,105819,2,0,L|68:104,1,65,2|0,0:3|0:0,0:0:0:0:
87,60,106157,1,8,0:0:0:0:
132,36,106326,2,0,P|187:75|199:140,1,130,4|2,0:2|0:2,0:0:0:0:
192,184,106833,1,8,0:0:0:0:
188,288,107171,6,0,P|248:316|320:304,1,130,2|8,0:3|0:0,0:0:0:0:
360,296,107677,2,0,L|476:236,1,130,2|2,0:3|0:3,0:0:0:0:
492,184,108184,1,8,0:0:0:0:
492,80,108522,1,2,0:3:0:0:
400,132,108860,2,0,L|264:136,1,130,12|2,0:2|2:0,0:0:0:0:
220,148,109367,1,8,0:0:0:0:
184,184,109535,2,0,L|184:260,1,65,8|4,3:0|3:0,0:0:0:0:
188,300,109870,5,4,0:2:0:0:
108,328,110207,2,0,P|75:326|56:329,1,52,0|2,0:0|2:0,0:0:0:0:
68,208,110881,1,2,0:2:0:0:
112,136,111218,2,0,L|216:140,1,104,2|0,0:2|0:0,0:0:0:0:
256,152,111723,1,2,2:0:0:0:
280,276,112229,1,2,0:2:0:0:
364,276,112566,5,2,0:2:0:0:
440,240,112903,2,0,P|452:212|456:188,1,52,0|2,0:0|2:0,0:0:0:0:
476,68,113577,1,2,0:2:0:0:
396,92,113914,2,0,P|321:99|256:56,2,156,2|2|2,1:2|2:0|1:2,2:0:0:0:
456,148,115263,5,2,0:2:0:0:
432,228,115600,2,0,P|430:260|433:285,1,52,0|2,0:0|2:0,0:0:0:0:
328,348,116274,1,2,0:2:0:0:
252,316,116611,2,0,P|194:311|148:316,1,104,2|0,0:2|0:0,0:0:0:0:
108,329,117117,1,2,2:0:0:0:
24,240,117622,1,2,0:2:0:0:
108,228,117959,6,0,P|167:218|204:188,2,104,2|0|0,0:2|0:0|0:0,0:0:0:0:
56,164,118971,1,4,0:2:0:0:
84,88,119290,6,0,L|58:29,2,65,8|0|0,0:0|0:0|0:0,0:0:0:0:
132,104,119802,2,0,L|195:111,2,65,8|0|0,0:0|0:0|0:0,0:0:0:0:
94,138,120315,1,0,0:0:0:0:
68,244,120660,6,0,P|117:282|181:276,1,130,4|8,0:0|0:0,0:0:0:0:
224,244,121165,2,0,L|368:248,1,130,2|2,0:3|0:3,0:0:0:0:
404,240,121670,1,8,0:0:0:0:
495,292,122007,2,0,P|448:335|384:344,1,130,2|8,0:3|0:0,0:0:0:0:
332,344,122512,2,0,L|202:340,1,130,2|2,0:3|0:3,0:0:0:0:
152,336,123018,1,8,0:0:0:0:
64,276,123355,5,2,0:3:0:0:
128,192,123692,1,8,0:0:0:0:
176,172,123860,2,0,L|248:192,2,65,2|2|2,0:3|2:0|0:3,0:0:0:0:
162,121,124365,1,8,0:0:0:0:
224,36,124702,2,0,P|298:30|344:56,1,130,2|8,0:3|0:0,0:0:0:0:
368,104,125208,2,0,P|368:168|364:240,1,130,2|2,0:3|0:3,0:0:0:0:
344,280,125713,1,12,0:2:0:0:
240,268,126050,5,8,0:0:0:0:
280,364,126387,1,8,0:0:0:0:
384,376,126724,2,0,L|445:355,1,65,4|8,0:3|0:0,0:0:0:0:
512,276,127229,1,8,0:0:0:0:
416,232,127566,1,0,0:0:0:0:
502,171,127903,2,0,L|500:104,1,65,8|8,0:0|0:0,0:0:0:0:
400,136,128408,1,8,0:0:0:0:
304,172,128745,6,0,L|168:160,1,130,4|8,0:2|0:0,0:0:0:0:
72,176,129421,2,0,L|68:244,1,65,8|8,3:0|3:0,0:0:0:0:
72,292,129759,2,0,L|117:342,1,65,4|4,3:0|3:0,0:0:0:0:
156,368,130097,6,0,L|316:376,1,155.999995239258,4|8,1:2|2:0,2:0:0:0:
404,368,131111,1,8,3:0:0:0:
479,312,131462,6,0,P|482:273|473:235,2,77.999997619629,4|2|10,1:2|0:0|0:0,0:0:0:0:
392,280,132487,2,0,L|344:280,1,38.9999988098145,0|10,0:0|0:0,0:0:0:0:
264,256,133000,2,0,L|256:304,1,38.9999988098145,10|0,0:0|1:0,0:0:0:0:
204,372,133513,2,0,P|149:369|108:360,1,77.999997619629,10|0,0:0|0:0,0:0:0:0:
56,304,134197,5,2,1:2:0:0:
220,212,134880,1,8,0:0:0:0:
296,268,135222,2,0,P|356:264|444:224,1,155.999995239258,2|2,0:0|1:2,0:0:0:0:
480,140,136248,1,8,0:0:0:0:
416,72,136590,1,0,1:0:0:0:
332,112,136932,5,4,1:2:0:0:
268,180,137273,2,0,P|221:167|192:151,1,77.999997619629,2|10,0:0|0:0,0:0:0:0:
132,84,137957,2,0,L|96:60,1,38.9999988098145,0|10,0:0|0:0,0:0:0:0:
60,148,138470,2,0,L|21:167,1,38.9999988098145,10|0,0:0|1:0,0:0:0:0:
72,248,138983,2,0,L|66:334,1,77.999997619629,10|0,0:0|0:0,0:0:0:0:
160,304,139667,5,2,1:2:0:0:
336,364,140350,1,8,0:0:0:0:
424,332,140692,2,0,P|452:268|424:188,1,155.999995239258,2|2,0:0|1:2,0:0:0:0:
344,144,141718,1,10,0:0:0:0:
300,60,142060,2,0,L|304:20,1,38.9999988098145,2|0,0:0|0:0,0:0:0:0:
356,12,142418,6,0,L|460:24,1,77.999997619629,4|2,1:2|0:0,0:0:0:0:
499,90,143103,1,8,0:0:0:0:
433,159,143446,2,0,L|356:168,1,77.999997619629,2|2,0:0|0:0,0:0:0:0:
260,170,144132,1,0,1:0:0:0:
180,120,144475,2,0,L|184:76,2,38.9999988098145,10|0|2,0:0|0:0|0:0,0:0:0:0:
177,214,145160,6,0,L|73:226,1,77.999997619629,2|2,1:2|0:0,0:0:0:0:
34,292,145846,1,8,0:0:0:0:
100,361,146189,2,0,L|177:370,1,77.999997619629,2|2,0:0|0:0,0:0:0:0:
273,372,146875,1,0,1:0:0:0:
353,322,147218,2,0,L|349:278,2,38.9999988098145,10|0|8,0:0|0:0|3:0,0:0:0:0:
264,288,147903,6,0,L|272:200,1,77.999997619629,4|2,1:2|0:0,0:0:0:0:
284,116,148589,1,8,0:0:0:0:
362,169,148932,2,0,P|383:174|403:175,1,38.9999988098145,2|8,0:0|0:0,0:0:0:0:
448,168,149275,2,0,L|440:256,1,77.999997619629,2|0,0:0|1:0,0:0:0:0:
428,340,149960,2,0,L|472:356,2,38.9999988098145,10|0|2,0:0|0:0|0:0,0:0:0:0:
336,316,150633,5,4,0:2:0:0:
232,304,150975,2,0,L|168:320,2,65,8|0|8,0:0|0:0|0:0,0:0:0:0:
264,264,151489,2,0,L|268:192,1,65,0|8,0:0|0:0,0:0:0:0:
268,152,151831,6,0,B|236:92|188:76|188:76|177:143|111:152|111:152|108:196,1,272.999991668701,12|8,0:2|0:0,0:0:0:0:
104,300,153372,5,12,0:0:0:0:
192,356,153715,1,8,0:0:0:0:
296,344,154057,2,0,L|364:340,2,65,8|0|8,0:0|0:0|0:0,0:0:0:0:
234,259,154742,2,0,L|364:236,1,130,8|8,0:0|0:0,0:0:0:0:
460,272,155427,2,0,L|464:352,2,65,8|0|8,0:0|0:0|0:0,0:0:0:0:
500,176,156112,5,8,0:0:0:0:
404,140,156454,1,0,0:0:0:0:
496,88,156797,2,0,L|500:24,2,65,8|0|8,0:0|0:0|0:0,0:0:0:0:
400,44,157482,2,0,L|268:56,1,130,8|8,0:0|0:0,0:0:0:0:
192,124,158167,2,0,L|196:196,1,65,8|0,0:0|0:0,0:0:0:0:
224,232,158509,2,0,L|220:304,1,65,8|0,0:0|0:0,0:0:0:0:
212,348,158845,5,12,0:2:0:0:
108,360,159184,1,8,0:0:0:0:
40,280,159523,2,0,L|43:215,2,65,8|0|8,0:0|0:0|0:0,0:0:0:0:
140,252,160202,2,0,L|280:252,1,130,8|8,0:0|0:0,0:0:0:0:
368,216,160881,2,0,L|420:172,2,65,8|0|8,0:0|0:0|0:0,0:0:0:0:
351,318,161559,5,12,0:2:0:0:
452,340,161899,1,8,0:0:0:0:
504,252,162238,2,0,L|508:184,2,65,8|0|8,0:0|0:0|0:0,0:0:0:0:
452,260,162747,2,0,P|394:218|372:160,1,130,4|0,0:2|0:0,0:0:0:0:
360,116,163256,2,0,L|360:48,1,65,12|2,0:2|2:0,0:0:0:0:
400,16,163596,1,8,0:0:0:0:
488,72,163935,1,8,0:0:0:0:
484,180,164290,6,0,P|432:228|368:240,1,130,4|8,0:0|0:0,0:0:0:0:
328,220,164797,2,0,P|264:203|204:224,1,130,2|2,0:3|0:3,0:0:0:0:
168,260,165305,1,8,0:0:0:0:
115,351,165644,2,0,P|178:366|236:340,1,130,2|8,0:3|0:0,0:0:0:0:
268,297,166152,2,0,L|408:309,1,130,2|2,0:3|0:3,0:0:0:0:
448,324,166660,1,8,0:0:0:0:
508,236,166998,6,0,P|462:190|400:168,1,130,2|8,0:2|0:0,0:0:0:0:
301,199,167676,2,0,P|296:168|301:136,1,65
320,88,168014,1,8,0:0:0:0:
272,108,168183,2,0,P|206:121|147:88,1,130,4|0,0:2|0:0,0:0:0:0:
122,51,168691,1,8,0:0:0:0:
64,140,169030,2,0,L|68:204,1,65,8|8,0:0|3:0,0:0:0:0:
48,252,169369,2,0,L|44:316,1,65,4|4,3:0|3:0,0:0:0:0:
20,364,169707,6,0,L|156:368,1,104,4|0,0:0|0:0,0:0:0:0:
165,372,170207,1,4,3:0:0:0:
208,296,170540,2,0,L|264:308,1,52,8|4,3:0|3:0,0:0:0:0:
348,284,171040,2,0,L|404:272,2,52,4|4|0,3:0|3:0|0:0,0:0:0:0:
380,372,171707,2,0,L|436:360,2,52,4|4|0,3:0|3:0|0:0,0:0:0:0:
291,355,172373,6,0,P|266:327|256:289,1,77.999997619629,4|0,0:0|0:0,0:0:0:0:
252,204,173040,2,0,L|256:156,2,38.9999988098145,4|0|8,3:0|0:0|3:0,0:0:0:0:
180,252,173707,1,4,0:0:0:0:
165,31,180478,5,0,0:0:0:0:
256,80,180815,1,0,0:0:0:0:
318,162,181152,1,0,0:0:0:0:
341,263,181489,1,0,0:0:0:0:
320,364,181826,1,0,0:0:0:0:
237,304,182163,1,0,0:0:0:0:
215,205,182500,1,0,0:0:0:0:
347,31,183174,5,0,0:0:0:0:
256,80,183511,1,0,0:0:0:0:
194,162,183848,1,0,0:0:0:0:
171,263,184185,1,0,0:0:0:0:
272,240,184522,2,0,P|320:184|328:120,1,130,8|8,3:0|0:0,0:0:0:0:
368,168,185028,6,0,B|352:272|447:297|447:297|512:232|476:152|476:152|445:168|445:212,1,400.400004887695,4|8,0:2|0:0,0:0:0:0:
396,328,187245,6,0,L|239:323,1,130,4|8,0:0|0:0,0:0:0:0:
216,312,187750,2,0,P|148:288|100:256,1,130,2|2,0:3|0:3,0:0:0:0:
76,212,188256,1,8,0:0:0:0:
108,112,188593,2,0,L|244:112,1,130,2|8,0:3|0:0,0:0:0:0:
288,120,189098,2,0,P|325:105|344:88,1,65,2|2,0:3|2:0,0:0:0:0:
364,40,189436,2,0,L|428:72,1,65,2|8,0:3|0:0,0:0:0:0:
484,156,189941,6,0,P|477:232|488:288,1,130,2|8,0:3|0:0,0:0:0:0:
468,332,190447,2,0,P|404:292|368:248,1,130,2|2,0:3|0:3,0:0:0:0:
360,200,190952,1,8,0:0:0:0:
308,112,191272,1,4,0:2:0:0:
256,112,191440,2,0,P|221:125|198:144,1,65,0|0,0:2|0:0,0:0:0:0:
180,192,191777,2,0,P|176:268|176:336,1,130,4|0,0:2|0:0,0:0:0:0:
188,372,192283,1,8,0:0:0:0:
84,348,192620,6,0,P|81:328|84:208,1,130,4|8,0:2|0:0,0:0:0:0:
108,116,193294,1,2,2:0:0:0:
180,192,193631,1,8,0:0:0:0:
272,240,193968,2,0,P|337:237|396:204,1,130,2|8,0:3|0:0,0:0:0:0:
452,120,194642,1,2,2:0:0:0:
512,204,194979,1,8,0:0:0:0:
512,308,195316,6,0,P|466:359|407:375,1,130,4|8,0:2|0:0,0:0:0:0:
312,344,195991,1,2,2:0:0:0:
260,256,196328,1,8,0:0:0:0:
314,167,196655,2,0,P|253:151|193:176,1,130,4|0,0:2|3:0,0:0:0:0:
160,216,197160,1,4,0:2:0:0:
152,320,197497,1,0,0:0:0:0:
106,344,197665,1,8,0:0:0:0:
55,344,197834,1,8,0:0:0:0:
10,319,198003,6,0,L|12:184,1,130,4|8,0:0|0:0,0:0:0:0:
40,88,198682,2,0,P|75:90|104:100,1,65,2|0,3:2|0:0,0:0:0:0:
148,127,199021,1,8,0:0:0:0:
188,228,199361,2,0,P|256:240|320:228,1,130,2|8,0:3|0:0,0:0:0:0:
372,140,200040,2,0,L|436:160,1,65,2|0,3:2|0:0,0:0:0:0:
476,192,200379,1,12,0:2:0:0:
480,296,200719,6,0,P|424:340|368:348,1,130,4|8,0:2|0:0,0:0:0:0:
268,316,201398,2,0,L|212:280,1,65,2|0,3:2|0:0,0:0:0:0:
176,244,201738,1,8,0:0:0:0:
153,146,202077,1,4,0:2:0:0:
153,94,202247,2,0,L|173:30,1,65,0|8,0:0|0:0,0:0:0:0:
224,20,202587,2,0,P|291:35|325:82,1,130,4|0,0:2|0:0,0:0:0:0:
336,132,203096,1,8,0:0:0:0:
316,228,203405,5,8,0:0:0:0:
296,332,203742,1,8,0:0:0:0:
395,297,204079,1,8,0:0:0:0:
445,299,204247,2,0,P|481:287|505:267,1,65,2|8,0:2|0:0,0:0:0:0:
512,220,204584,2,0,L|452:104,1,130,4|2,0:2|0:2,0:0:0:0:
420,64,205090,1,8,0:0:0:0:
372,48,205258,2,0,P|310:78|251:72,1,130,4|0,0:2|0:0,0:0:0:0:
200,56,205764,1,12,0:2:0:0:
184,160,206101,6,0,L|320:176,1,130,4|8,0:2|0:0,0:0:0:0:
356,204,206607,1,2,0:2:0:0:
368,312,206944,2,0,P|341:336|312:348,1,65,0|8,0:0|0:0,0:0:0:0:
264,352,207281,1,2,0:3:0:0:
264,352,207449,1,8,0:0:0:0:
64,272,208786,6,0,L|68:136,1,130,4|8,0:0|0:0,0:0:0:0:
72,88,209291,2,2,P|136:52|208:48,1,130,4|0,0:2|0:0,0:0:0:0:
240,64,209797,2,0,L|300:92,1,65,8|4,0:0|0:2,0:0:0:0:
312,196,210303,2,0,L|244:228,1,65,0|8,0:0|0:0,0:0:0:0:
212,256,210640,2,0,P|215:322|260:362,1,130,4|0,0:2|0:0,0:0:0:0:
312,376,211146,1,10,0:0:0:0:
380,296,211483,6,0,L|452:308,1,65,6|0,0:0|0:0,0:0:0:0:
494,320,211820,1,10,0:0:0:0:
481,270,211989,2,0,B|476:196|476:196|488:136,1,130,4|0,0:0|0:0,0:0:0:0:
500,92,212494,1,8,0:0:0:0:
476,44,212663,5,4,0:2:0:0:
380,84,213000,1,4,0:2:0:0:
284,44,213337,1,4,0:2:0:0:
240,140,213675,2,0,L|240:220,1,65,0|12,0:0|0:2,0:0:0:0:
248,312,214180,6,0,P|184:336|124:328,1,130,4|8,0:0|0:0,0:0:0:0:
88,289,214686,2,2,L|88:157,1,130,4|0,0:2|0:0,0:0:0:0:
96,108,215192,2,0,L|136:52,1,65,8|4,0:0|0:2,0:0:0:0:
240,64,215698,2,0,L|202:116,1,65,0|8,0:0|0:0,0:0:0:0:
194,168,216035,2,0,L|334:172,1,130,4|0,0:2|0:0,0:0:0:0:
376,168,216540,1,8,0:0:0:0:
448,244,216878,6,0,P|452:282|448:312,1,65,6|0,0:0|0:0,0:0:0:0:
430,358,217211,1,10,0:0:0:0:
326,358,217544,2,0,P|310:325|307:290,1,65,2|0,0:0|0:0,0:0:0:0:
308,244,217878,1,10,0:0:0:0:
378,162,218225,2,0,L|378:90,1,65,6|8,0:0|0:0,0:0:0:0:
378,44,218563,1,0,0:0:0:0:
277,66,218901,5,12,0:2:0:0:
194,128,219239,1,8,0:0:0:0:
145,219,219577,1,4,0:2:0:0:
139,322,219915,1,8,0:0:0:0:
52,265,220253,2,0,L|52:192,1,65,8|8,0:0|0:0,0:0:0:0:
52,148,220591,2,0,L|52:75,1,65,8|12,0:0|0:2,0:0:0:0:
