osu file format v14

[General]
AudioFilename: Kimi to Natsu Fesu.mp3
AudioLeadIn: 1500
PreviewTime: 55857
Countdown: 0
SampleSet: Normal
StackLeniency: 0.4
Mode: 0
LetterboxInBreaks: 0
WidescreenStoryboard: 0

[Editor]
Bookmarks: 136932,220755
DistanceSpacing: 0.5
BeatDivisor: 4
GridSize: 4
TimelineZoom: 1.9

[Metadata]
Title:Kimi to Natsu Fes
TitleUnicode:君と夏フェス
Artist:SHISHAMO
ArtistUnicode:SHISHAMO
Creator:Zero__wind
Version:Insane
Source:
Tags:Frey festival
BeatmapID:549193
BeatmapSetID:237261

[Difficulty]
HPDrainRate:7
CircleSize:4
OverallDifficulty:8
ApproachRate:9
SliderMultiplier:1.9
SliderTickRate:1

[Events]
//Background and Video events
0,0,"ggg.jpg",0,0
//Break Periods
//Storyboard Layer 0 (Background)
//Storyboard Layer 1 (Fail)
//Storyboard Layer 2 (Pass)
//Storyboard Layer 3 (Foreground)
//Storyboard Sound Samples

[TimingPoints]
647,337.173363304299,4,1,1,70,1,0
11436,-200,4,1,1,50,0,0
12279,-100,4,1,1,70,0,0
12782,337.268128161889,4,1,1,60,1,0
33018,335.195530726257,4,1,1,60,1,0
34367,344.827586206897,4,1,1,60,1,0
34367,-133.333333333333,4,1,1,60,0,0
35709,336.134453781513,4,1,1,60,1,0
35709,-133.333333333333,4,1,1,60,0,0
39753,337.078651685393,4,1,1,60,1,0
39753,-133.333333333333,4,1,1,60,0,0
43807,337.078651685393,4,1,1,70,1,0
45155,-100,4,1,1,60,0,0
50534,337.078651685393,4,1,1,70,1,0
53245,337.078651685393,4,1,1,70,1,0
53582,-100,4,1,1,60,0,0
53919,-100,4,1,1,50,0,0
54087,-100,4,1,1,60,0,0
54846,-100,4,1,1,50,0,0
55267,-100,4,1,1,60,0,0
55957,337.078651685393,4,1,1,70,1,1
66733,337.078651685393,4,1,1,70,1,1
76171,-100,4,1,1,70,0,0
77506,337.078651685393,4,1,1,70,1,0
88292,-100,4,1,1,60,0,0
95028,334.261838440111,4,1,1,60,1,0
99063,337.837837837838,4,1,1,60,1,0
109870,337.078651685393,4,1,1,60,1,0
109870,-133.333333333333,4,1,1,60,0,0
110038,-133.333333333333,4,1,1,50,0,0
118971,-75.187969924812,4,1,1,70,0,0
119290,341.880341880342,4,1,1,70,1,0
120660,336.889387984279,4,1,1,70,1,0
120996,-100,4,1,1,60,0,0
126050,-100,4,1,1,70,0,0
128745,338.028169014084,4,1,1,70,1,0
128914,-100,4,1,1,60,0,0
130097,-200,4,1,1,60,0,0
131462,341.880341880342,4,2,1,80,1,0
131462,-200,4,2,1,80,0,0
131803,-200,4,2,1,60,0,0
136932,-200,4,2,1,80,0,0
137273,-200,4,2,1,60,0,0
142418,342.857142857143,4,2,1,80,1,0
142418,-200,4,2,1,80,0,0
142760,-200,4,2,1,60,0,0
150633,342.465753424658,4,1,1,70,1,0
151831,-200,4,1,1,70,0,0
151874,-200,4,1,1,5,0,0
152859,-100,4,1,1,70,0,0
153372,-100,4,1,1,60,0,0
158845,339.366515837104,4,1,1,70,1,0
164290,338.600451467269,4,1,1,70,1,0
164628,-100,4,1,1,60,0,0
169707,333.333333333333,4,1,1,60,1,0
171040,-117.647058823529,4,1,1,60,0,0
172373,-133.333333333333,4,1,1,60,0,0
174373,-133.333333333333,4,1,1,40,0,0
174707,-133.333333333333,4,1,1,20,0,0
175080,337.078651685393,4,2,1,40,1,0
175080,-200,4,2,1,40,0,0
175164,-200,4,2,1,5,0,0
176259,-200,4,2,1,20,0,0
176428,-200,4,2,1,40,0,0
176512,-200,4,2,1,5,0,0
177608,-200,4,2,1,20,0,0
177776,-200,4,2,1,40,0,0
177860,-200,4,2,1,5,0,0
178956,-200,4,2,1,20,0,0
179124,-153.846153846154,4,2,1,40,0,0
180136,-133.333333333333,4,2,1,40,0,0
180478,337.078651685393,4,1,1,50,1,0
181657,-100,4,1,1,60,0,0
183006,-100,4,1,0,60,0,0
183174,-100,4,1,0,70,0,0
183343,-100,4,1,0,60,0,0
183511,-100,4,1,0,70,0,0
183680,-100,4,1,0,60,0,0
183848,-100,4,1,0,80,0,0
184017,-100,4,1,0,60,0,0
184185,-100,4,1,0,80,0,0
184691,-100,4,1,1,70,0,0
185028,-178.571428571429,4,1,1,70,0,0
185112,-178.571428571429,4,1,1,5,0,0
186882,-100,4,1,1,70,0,0
187245,337.078651685393,4,1,1,70,1,1
191272,337.078651685393,4,1,1,70,1,1
196655,337.078651685393,4,1,1,70,1,1
198003,339.55857385399,4,1,1,70,1,1
203405,337.078651685393,4,1,1,70,1,1
207449,-100,4,1,1,70,0,0
208786,337.173363304299,4,1,1,70,1,0
216878,333.333333333333,4,1,1,70,1,0
218225,338.028169014084,4,1,1,70,1,0

[Colours]
Combo1 : 250,167,152
Combo2 : 115,132,168
Combo3 : 226,160,102
Combo4 : 163,127,155

[HitObjects]
272,164,647,6,0,P|320:160|368:144,1,95,4|0,0:0|0:0,0:0:0:0:
392,288,984,1,8,0:0:0:0:
228,304,1152,2,2,B|184:308|184:308|124:264|124:264|52:256,1,190,4|0,0:2|0:0,0:0:0:0:
108,84,1658,1,10,0:0:0:0:
204,164,1827,6,0,P|224:112|240:60,1,95,4|2,0:2|2:0,0:0:0:0:
236,40,2079,1,0,2:0:0:0:
236,40,2164,1,0,0:0:0:0:
100,184,2332,1,8,0:0:0:0:
300,148,2501,6,0,P|396:124|488:128,1,190,4|0,0:2|0:0,0:0:0:0:
456,320,3007,1,10,0:0:0:0:
348,248,3175,1,0,0:0:0:0:
348,248,3260,1,0,0:0:0:0:
348,248,3344,5,6,0:0:0:0:
268,312,3512,1,0,0:0:0:0:
172,148,3681,5,10,0:0:0:0:
252,212,3850,1,4,0:0:0:0:
412,84,4018,5,2,0:0:0:0:
332,148,4187,1,0,0:0:0:0:
252,84,4355,1,8,0:0:0:0:
156,248,4524,5,4,0:2:0:0:
152,268,4861,1,4,0:2:0:0:
148,288,5198,1,4,0:2:0:0:
144,308,5536,5,0,0:0:0:0:
80,208,5704,2,0,P|96:160|100:108,1,95,12|0,0:2|0:0,0:0:0:0:
40,52,5957,1,0,0:0:0:0:
40,52,6041,6,0,L|12:160,1,95,4|0,0:0|0:0,0:0:0:0:
32,284,6378,1,8,0:0:0:0:
172,200,6547,2,2,B|208:184|208:184|288:212|368:184,1,190,4|0,0:2|0:0,0:0:0:0:
436,60,7053,1,8,0:0:0:0:
288,68,7221,6,0,P|216:52|188:48,1,95,4|2,0:2|2:0,0:0:0:0:
160,52,7474,1,0,2:0:0:0:
160,52,7559,1,0,0:0:0:0:
320,208,7727,1,10,0:0:0:0:
164,340,7896,6,0,P|136:240|160:160,1,190,4|0,0:2|0:0,0:0:0:0:
272,144,8401,1,8,0:0:0:0:
352,304,8570,1,0,0:0:0:0:
352,304,8654,1,0,0:0:0:0:
352,304,8739,5,6,0:0:0:0:
444,252,8907,1,0,0:0:0:0:
336,292,9076,1,10,0:0:0:0:
464,256,9244,1,0,0:0:0:0:
328,196,9413,5,2,0:0:0:0:
440,376,9582,1,0,0:0:0:0:
456,236,9750,1,10,0:0:0:0:
332,312,9919,1,0,0:0:0:0:
180,252,10087,6,2,P|64:260|28:316,1,190,2|10,0:0|0:0,0:0:0:0:
168,152,10593,2,0,P|216:151|264:144,1,95,2|2,0:0|0:0,0:0:0:0:
328,36,10930,1,2,0:0:0:0:
196,44,11099,2,0,L|101:44,1,95,10|2,0:0|2:1,0:0:0:0:
236,140,11436,5,2,2:0:0:0:
236,140,11605,1,2,2:0:0:0:
236,140,11773,1,2,2:0:0:0:
236,140,11942,2,0,L|296:144,1,47.5,2|0,2:0|2:0,0:0:0:0:
283,143,12279,5,0,0:0:0:0:
24,264,12448,1,8,0:0:0:0:
24,264,12782,6,0,L|140:256,1,95,4|0,0:2|2:0,0:0:0:0:
240,232,13119,1,8,0:0:0:0:
348,288,13287,2,0,P|404:296|456:296,1,95,2|2,0:3|2:0,0:0:0:0:
304,184,13624,1,0,0:0:0:0:
236,284,13793,2,0,P|248:336|248:380,1,95,8|0,0:0|2:0,0:0:0:0:
304,132,14131,6,0,L|184:128,1,95,2|0,0:3|2:0,0:0:0:0:
68,32,14468,1,8,0:0:0:0:
40,188,14636,2,0,P|86:197|129:218,1,95,2|2,0:3|2:0,0:0:0:0:
164,64,14974,1,0,0:0:0:0:
224,176,15142,2,0,L|220:292,1,95,8|0,0:0|2:0,0:0:0:0:
472,140,15480,6,0,P|381:161|320:232,1,190,2|8,0:3|0:0,0:0:0:0:
376,336,15986,2,0,P|421:342|472:352,2,95,2|2|0,0:3|2:0|0:0,0:0:0:0:
212,264,16491,2,0,L|88:276,1,95,8|2,0:0|2:0,0:0:0:0:
16,356,16829,1,2,0:3:0:0:
304,284,17166,5,8,0:0:0:0:
200,252,17335,2,0,P|128:236|104:228,1,95,2|2,0:3|2:0,0:0:0:0:
56,120,17672,1,2,0:3:0:0:
36,268,17841,2,0,L|36:380,1,95,8|0,0:0|2:0,0:0:0:0:
268,332,18178,6,0,L|208:332|160:328,1,95,2|0,0:3|2:0,0:0:0:0:
320,252,18515,1,8,0:0:0:0:
404,320,18684,2,0,P|460:328|504:332,1,95,2|2,0:3|2:0,0:0:0:0:
296,364,19021,1,0,0:0:0:0:
240,240,19190,2,0,P|244:188|276:144,1,95,8|0,0:0|2:0,0:0:0:0:
480,64,19527,6,0,P|450:107|400:129,1,95,2|0,0:3|2:0,0:0:0:0:
296,24,19864,1,8,0:0:0:0:
176,68,20033,2,0,P|112:64|56:56,1,95,2|2,0:3|2:0,0:0:0:0:
88,208,20370,1,0,0:0:0:0:
212,208,20539,2,0,L|212:308,1,95,8|0,0:0|2:0,0:0:0:0:
168,48,20876,6,0,P|264:24|352:80,1,190,2|8,0:3|0:0,0:0:0:0:
380,192,21382,1,2,0:3:0:0:
276,216,21550,2,0,P|228:216|176:220,1,95,2|0,2:0|0:0,0:0:0:0:
372,304,21888,2,0,P|419:307|466:307,1,95,8|2,0:0|2:0,0:0:0:0:
256,356,22225,1,2,0:3:0:0:
472,120,22562,5,8,0:0:0:0:
380,56,22731,2,0,L|372:160,2,95,2|2|2,0:3|2:0|0:3,0:0:0:0:
280,316,23237,2,0,L|272:221,1,95,8|2,0:0|2:0,0:0:0:0:
72,292,23574,6,0,P|119:295|166:299,1,95,2|0,0:3|2:0,0:0:0:0:
268,232,23911,1,8,0:0:0:0:
376,288,24080,2,0,P|368:348|370:383,2,95,2|2|0,0:3|2:0|0:0,0:0:0:0:
448,136,24586,1,8,0:0:0:0:
488,240,24755,1,2,2:0:0:0:
356,204,24923,6,0,L|248:208,1,95,2|0,0:3|2:0,0:0:0:0:
148,136,25260,1,8,0:0:0:0:
60,284,25429,2,0,P|52:228|56:180,1,95,2|2,0:3|2:0,0:0:0:0:
216,200,25766,1,2,0:3:0:0:
140,25,25935,2,0,P|93:25|48:40,1,95,8|0,0:0|2:0,0:0:0:0:
312,164,26272,6,0,P|357:176|404:173,1,95,2|0,0:3|2:0,0:0:0:0:
300,288,26609,2,0,P|253:288|208:303,1,95,8|0,0:0|2:0,0:0:0:0:
280,80,26947,1,2,0:3:0:0:
408,288,27115,1,2,0:2:0:0:
400,136,27284,1,8,0:0:0:0:
216,360,27453,6,0,P|208:264|264:188,1,190,4|0,0:2|0:0,0:0:0:0:
376,192,27959,1,8,0:0:0:0:
192,288,28127,2,0,L|2:272,1,190,4|2,0:2|0:2,0:0:0:0:
272,112,28633,1,8,0:0:0:0:
324,196,28802,1,0,2:0:0:0:
284,288,28970,6,0,P|284:344|290:384,1,95,2|0,0:3|2:0,0:0:0:0:
180,204,29308,1,8,0:0:0:0:
224,84,29476,2,0,P|272:56|328:44,1,95,2|2,0:3|2:0,0:0:0:0:
292,232,29814,1,2,0:3:0:0:
172,224,29982,2,0,L|68:228,1,95,8|0,0:0|2:0,0:0:0:0:
288,44,30319,5,2,0:3:0:0:
120,100,30488,1,2,0:2:0:0:
108,280,30657,1,0,0:0:0:0:
264,368,30825,2,0,L|376:372,1,95,4|0,0:2|2:0,0:0:0:0:
456,260,31163,1,2,0:2:0:0:
324,256,31331,2,0,P|256:252|220:248,1,95,8|2,0:0|2:0,0:0:0:0:
40,360,31669,6,0,P|24:308|32:264,1,95,2|0,0:3|2:0,0:0:0:0:
192,256,32006,1,8,0:0:0:0:
156,144,32174,2,0,P|114:122|67:112,1,95,2|2,0:3|2:0,0:0:0:0:
276,184,32512,1,0,0:0:0:0:
368,92,32680,2,0,P|396:43|404:-2,1,95,8|0,0:0|2:0,0:0:0:0:
260,208,33018,6,0,L|368:208,1,95,2|0,0:3|2:0,0:0:0:0:
136,12,33353,2,0,P|96:64|88:172,1,142.5,12|8,0:2|0:0,0:0:0:0:
88,172,33688,1,8,0:0:0:0:
248,108,33855,1,0,0:0:0:0:
168,284,34023,1,0,0:0:0:0:
136,296,34107,1,8,0:0:0:0:
104,296,34191,1,0,0:0:0:0:
316,176,34368,6,0,P|440:200|476:220,1,142.500005435944,4|0,0:0|0:0,0:0:0:0:
464,312,34885,1,4,0:3:0:0:
360,288,35057,2,0,L|303:287|272:292,1,71.2500027179719,4|4,3:0|3:0,0:0:0:0:
184,208,35402,1,0,0:0:0:0:
128,312,35574,1,8,3:0:0:0:
128,312,35709,6,0,P|164:340|204:360,2,71.2500027179719,4|0|0,3:0|2:0|0:0,0:0:0:0:
72,224,36213,1,8,3:0:0:0:
116,136,36381,1,4,3:0:0:0:
184,208,36549,1,4,3:0:0:0:
52,236,36717,1,0,0:0:0:0:
24,88,36885,1,0,0:0:0:0:
24,88,36969,1,0,0:0:0:0:
24,88,37053,6,0,P|36:40|60:12,1,71.2500027179719,4|4,3:0|3:0,0:0:0:0:
160,148,37389,2,0,P|204:164|232:188,1,71.2500027179719,0|0,0:0|2:0,0:0:0:0:
336,64,37725,1,4,0:3:0:0:
236,68,37893,1,8,0:3:0:0:
296,152,38061,2,0,L|296:228,1,71.2500027179719,0|8,0:0|3:0,0:0:0:0:
212,60,38398,5,4,3:0:0:0:
292,24,38566,1,4,3:0:0:0:
376,56,38734,2,0,L|472:60,1,71.2500027179719,0|8,0:0|3:0,0:0:0:0:
352,196,39070,1,4,3:0:0:0:
388,276,39238,1,4,3:0:0:0:
356,360,39406,1,0,0:0:0:0:
232,232,39574,1,4,3:0:0:0:
232,232,39658,1,4,3:0:0:0:
232,232,39753,6,0,P|152:232|88:220,1,142.500005435944,4|0,0:0|0:0,0:0:0:0:
76,96,40258,1,4,0:3:0:0:
160,64,40427,2,0,L|240:88,1,71.2500027179719,4|4,3:0|3:0,0:0:0:0:
144,196,40764,1,0,0:0:0:0:
108,292,40932,1,8,3:0:0:0:
108,292,41101,6,0,L|108:336|110:368,2,71.2500027179719,4|4|0,3:0|3:0|0:0,0:0:0:0:
200,232,41606,1,8,3:0:0:0:
312,200,41775,1,4,3:0:0:0:
232,276,41944,1,4,3:0:0:0:
320,240,42112,2,0,L|408:248,1,71.2500027179719,0|0,0:0|0:0,0:0:0:0:
464,252,42365,1,0,0:0:0:0:
464,252,42449,6,0,P|472:288|472:332,1,71.2500027179719,4|0,3:0|2:0,0:0:0:0:
488,148,42786,1,0,0:0:0:0:
388,172,42955,1,4,0:3:0:0:
392,8,43123,1,4,3:0:0:0:
420,92,43292,1,4,3:0:0:0:
312,92,43460,2,0,L|212:88,1,71.2500027179719,0|4,0:0|3:0,0:0:0:0:
36,20,43807,6,0,P|32:68|40:132,1,95,8|0,0:0|0:0,0:0:0:0:
72,228,44144,1,0,0:0:0:0:
368,372,44312,2,0,P|372:324|364:260,1,95,8|0,0:0|0:0,0:0:0:0:
332,164,44649,1,0,0:0:0:0:
72,228,44818,1,8,0:0:0:0:
184,348,44986,1,8,0:0:0:0:
184,348,45071,1,8,0:0:0:0:
184,348,45155,6,0,L|372:312,1,190,4|8,0:2|0:0,0:0:0:0:
424,200,45660,2,0,P|476:216|516:236,1,95,2|2,0:3|2:0,0:0:0:0:
260,228,45998,1,2,0:3:0:0:
288,108,46166,2,0,L|404:120,1,95,8|2,0:0|2:0,0:0:0:0:
160,176,46503,6,0,P|152:244|144:304,1,95,2|0,0:3|2:0,0:0:0:0:
272,228,46840,1,8,0:0:0:0:
252,120,47009,2,0,P|260:52|268:-8,1,95,2|2,0:3|2:0,0:0:0:0:
108,76,47346,1,2,0:3:0:0:
20,212,47514,2,0,L|132:224,1,95,8|0,0:0|2:0,0:0:0:0:
285,345,47851,6,0,P|238:352|192:360,1,95,2|0,0:3|2:0,0:0:0:0:
92,328,48189,1,8,0:0:0:0:
232,236,48357,2,0,P|278:245|325:241,1,95,2|2,0:3|2:0,0:0:0:0:
452,172,48694,1,0,0:0:0:0:
408,288,48863,2,0,L|420:384,1,95,8|2,0:0|2:0,0:0:0:0:
488,72,49200,6,0,P|432:56|388:52,2,95,2|2|8,0:3|2:0|0:0,0:0:0:0:
280,160,49705,2,0,P|336:176|380:180,2,95,0|2|2,0:0|2:0|0:3,0:0:0:0:
204,40,50211,1,12,0:2:0:0:
204,40,50380,1,2,2:0:0:0:
92,271,50534,5,8,0:0:0:0:
404,200,50871,1,8,0:0:0:0:
342,71,51039,1,8,0:0:0:0:
203,360,51376,1,8,0:0:0:0:
204,40,51713,1,8,0:0:0:0:
342,328,52050,1,8,0:0:0:0:
92,128,52387,1,8,0:0:0:0:
92,271,52556,5,8,0:0:0:0:
240,200,52725,1,0,0:0:0:0:
92,128,52893,2,0,L|92:272,1,95,12|0,0:2|2:0,0:0:0:0:
404,200,53245,6,0,L|208:180,1,190,4|8,0:2|0:0,0:0:0:0:
214,180,53750,1,2,0:2:0:0:
324,96,53919,2,0,P|368:72|400:32,1,95,4|0,2:0|0:0,0:0:0:0:
292,248,54256,2,0,P|296:308|304:344,1,95,12|0,0:2|2:0,0:0:0:0:
160,56,54593,6,0,L|128:196,1,142.5,4|0,0:2|2:0,0:0:0:0:
128,268,54930,1,8,0:0:0:0:
138,278,55014,1,8,0:0:0:0:
148,288,55098,1,8,0:0:0:0:
158,298,55183,1,8,0:0:0:0:
168,308,55267,1,8,0:0:0:0:
272,200,55436,1,0,0:0:0:0:
144,124,55604,2,0,P|88:112|48:96,1,95,12|0,0:2|2:0,0:0:0:0:
308,276,55957,6,0,L|408:260,1,95,4|0,0:0|2:0,0:0:0:0:
500,184,56294,1,8,0:0:0:0:
348,136,56462,2,0,P|312:100|304:56,1,95,2|0,0:3|2:0,0:0:0:0:
424,240,56799,1,2,0:3:0:0:
332,308,56968,1,8,0:0:0:0:
420,352,57136,1,0,2:0:0:0:
320,220,57305,6,0,L|224:220,1,95,2|0,0:3|2:0,0:0:0:0:
56,244,57642,1,8,0:0:0:0:
160,348,57810,1,2,0:3:0:0:
136,220,57979,2,0,P|164:176|184:124,1,95,2|2,2:0|0:3,0:0:0:0:
272,16,58316,2,0,P|274:64|277:121,1,95,8|0,0:0|2:0,0:0:0:0:
296,272,58653,6,0,L|200:256,1,95,2|0,0:3|2:0,0:0:0:0:
84,176,58990,1,8,0:0:0:0:
181,48,59159,2,0,P|229:73|285:80,1,95,2|0,0:3|2:0,0:0:0:0:
392,84,59496,1,2,0:3:0:0:
304,216,59664,1,8,0:0:0:0:
424,212,59833,1,0,2:0:0:0:
276,12,60001,6,0,P|269:95|272:125,1,95,4|0,0:2|0:0,0:0:0:0:
224,320,60339,1,8,0:0:0:0:
504,216,60507,2,0,L|314:222,1,190,4|0,0:2|0:0,0:0:0:0:
92,272,61013,2,0,P|137:284|181:303,1,95,8|0,0:0|2:0,0:0:0:0:
216,120,61350,6,0,P|236:77|232:24,1,95,4|0,0:2|2:0,0:0:0:0:
300,212,61687,2,0,P|316:256|356:291,1,95,8|2,0:0|0:3,0:0:0:0:
196,248,62024,2,0,L|100:236,1,95,2|2,2:0|0:3,0:0:0:0:
368,300,62361,2,0,L|462:311,1,95,8|0,0:0|2:0,0:0:0:0:
264,356,62698,6,0,P|218:353|165:376,1,95,4|0,0:2|2:0,0:0:0:0:
352,220,63035,2,0,P|392:199|427:153,1,95,8|2,0:0|0:3,0:0:0:0:
232,248,63372,2,0,L|136:236,1,95,2|2,2:0|0:3,0:0:0:0:
24,88,63709,2,0,L|118:76,1,95,8|0,0:0|2:0,0:0:0:0:
332,20,64046,6,0,L|324:132,1,95,4|0,0:2|2:0,0:0:0:0:
186,318,64383,2,0,L|180:224,1,95,8|2,0:0|0:3,0:0:0:0:
324,220,64721,2,0,P|378:218|414:236,1,95,2|2,2:0|0:3,0:0:0:0:
388,376,65058,2,0,P|333:377|297:359,1,95,8|0,0:0|2:0,0:0:0:0:
256,64,65395,5,4,0:2:0:0:
408,256,65563,1,0,0:0:0:0:
240,272,65732,1,0,0:0:0:0:
384,112,65900,2,0,L|484:116,1,95,4|0,0:2|0:0,0:0:0:0:
168,228,66237,1,0,0:0:0:0:
328,48,66406,1,8,0:0:0:0:
240,272,66574,1,8,0:0:0:0:
240,272,66659,1,8,0:0:0:0:
240,272,66733,6,0,L|241:372,1,95,4|0,0:2|2:0,0:0:0:0:
64,272,67070,1,8,0:0:0:0:
144,148,67238,2,0,P|192:108|216:64,1,95,2|0,0:3|2:0,0:0:0:0:
36,92,67575,1,2,0:3:0:0:
0,204,67744,1,8,0:0:0:0:
68,300,67912,1,0,2:0:0:0:
128,204,68081,6,0,L|232:212,1,95,2|0,0:3|2:0,0:0:0:0:
376,192,68418,1,8,0:0:0:0:
248,304,68586,1,0,0:0:0:0:
220,132,68755,2,0,P|232:68|256:32,1,95,2|2,2:0|0:3,0:0:0:0:
384,228,69092,2,0,L|499:275,1,95,8|2,0:0|2:0,0:0:0:0:
288,364,69429,5,0,0:0:0:0:
216,276,69598,1,0,2:0:0:0:
292,192,69766,1,8,0:0:0:0:
488,216,69935,2,0,P|440:215|393:211,1,95,2|0,0:3|2:0,0:0:0:0:
216,200,70272,1,2,0:3:0:0:
108,268,70440,2,0,P|104:348|100:384,1,95,8|0,0:0|2:0,0:0:0:0:
52,20,70777,6,0,P|100:16|144:36,1,95,4|0,0:2|0:0,0:0:0:0:
292,128,71115,1,8,0:0:0:0:
24,188,71283,2,0,L|236:208,1,190,4|2,0:2|0:2,0:0:0:0:
348,120,71789,2,0,P|396:164|420:204,1,95,8|0,0:0|2:0,0:0:0:0:
440,360,72126,5,8,0:0:0:0:
132,324,72463,1,8,0:0:0:0:
392,156,72800,1,8,0:0:0:0:
264,68,72968,1,2,0:2:0:0:
392,156,73137,1,8,0:0:0:0:
248,212,73306,6,0,P|132:204|20:208,1,190,4|2,0:2|0:2,0:0:0:0:
172,40,73811,1,8,0:0:0:0:
312,104,73980,2,0,P|352:140|396:152,1,95,4|2,0:2|2:0,0:0:0:0:
204,124,74317,1,0,0:0:0:0:
260,244,74485,2,0,P|256:298|256:344,1,95,12|0,0:2|2:0,0:0:0:0:
116,296,74822,6,0,L|20:292,1,95,4|0,0:2|2:0,0:0:0:0:
152,180,75159,1,8,0:0:0:0:
44,136,75328,2,0,P|48:64|52:32,1,95,2|2,0:2|2:0,0:0:0:0:
208,112,75665,1,0,0:0:0:0:
304,284,75834,1,8,0:0:0:0:
448,76,76002,1,2,0:3:0:0:
448,76,76171,5,8,0:0:0:0:
304,284,77506,6,0,L|208:284,1,95,4|0,0:0|0:0,0:0:0:0:
64,244,77843,1,8,0:0:0:0:
176,112,78011,2,2,B|232:84|280:124|280:124|318:93|296:53,1,190,4|0,0:2|0:0,0:0:0:0:
48,32,78517,1,8,0:0:0:0:
56,160,78685,6,0,P|69:204|76:256,1,95,4|2,0:2|2:0,0:0:0:0:
72,288,78938,1,0,2:0:0:0:
72,288,79022,1,0,0:0:0:0:
176,208,79191,1,8,0:0:0:0:
408,284,79359,6,0,B|368:296|368:296|332:284|332:284|276:312|224:288,1,190,4|0,0:2|0:0,0:0:0:0:
160,148,79865,1,10,0:0:0:0:
312,12,80034,1,0,0:0:0:0:
312,12,80118,1,0,0:0:0:0:
312,12,80202,5,6,0:0:0:0:
400,68,80371,1,0,0:0:0:0:
268,136,80539,5,2,0:0:0:0:
180,192,80708,1,4,0:0:0:0:
320,244,80876,5,2,0:0:0:0:
408,300,81045,1,0,0:0:0:0:
416,196,81213,1,8,0:0:0:0:
276,364,81382,5,4,0:2:0:0:
296,368,81719,1,4,0:2:0:0:
316,372,82056,1,4,0:2:0:0:
336,376,82393,5,0,0:0:0:0:
216,312,82562,2,0,P|156:276|132:248,1,95,12|0,0:2|0:0,0:0:0:0:
92,184,82814,1,0,0:0:0:0:
92,184,82899,6,0,L|216:176,1,95,4|0,0:0|0:0,0:0:0:0:
320,256,83236,1,8,0:0:0:0:
436,28,83404,2,2,B|378:35|357:100|357:100|346:69|300:47,1,190,4|0,0:2|0:0,0:0:0:0:
256,204,83910,1,8,0:0:0:0:
392,216,84079,6,0,P|472:232|500:244,1,95,4|2,0:2|2:0,0:0:0:0:
508,260,84331,1,0,2:0:0:0:
508,260,84416,1,0,0:0:0:0:
372,368,84584,1,10,0:0:0:0:
272,280,84753,6,0,B|200:268|200:268|144:288|144:288|80:284,1,190,4|0,0:2|0:0,0:0:0:0:
244,72,85258,1,8,0:0:0:0:
116,132,85427,1,0,0:0:0:0:
116,132,85511,1,0,0:0:0:0:
116,132,85595,5,6,0:0:0:0:
220,160,85764,1,0,0:0:0:0:
232,52,85932,1,10,0:0:0:0:
240,160,86101,1,0,0:0:0:0:
128,40,86270,5,2,0:0:0:0:
260,160,86438,1,0,0:0:0:0:
384,20,86607,1,10,0:0:0:0:
280,160,86775,1,0,0:0:0:0:
304,336,86944,6,2,P|366:273|477:245,1,190,2|10,0:0|0:0,0:0:0:0:
328,80,87449,1,2,0:0:0:0:
416,236,87618,1,2,0:0:0:0:
448,92,87786,1,10,0:0:0:0:
296,188,87955,1,0,0:0:0:0:
276,188,88039,1,8,0:0:0:0:
256,188,88123,1,0,0:0:0:0:
104,92,88292,6,0,P|68:144|56:180,1,95,4|0,0:2|2:0,0:0:0:0:
144,268,88629,1,8,0:0:0:0:
236,180,88798,2,0,P|285:190|329:201,1,95,2|2,0:3|2:0,0:0:0:0:
408,308,89135,1,2,0:3:0:0:
472,196,89303,2,0,L|460:92,1,95,8|0,0:0|2:0,0:0:0:0:
340,48,89640,6,0,P|332:108|316:156,1,95,2|0,0:3|2:0,0:0:0:0:
208,24,89977,1,8,0:0:0:0:
116,124,90146,2,0,L|212:132,1,95,2|2,0:3|2:0,0:0:0:0:
48,228,90483,1,2,0:3:0:0:
144,308,90652,2,0,P|212:312|240:312,1,95,8|2,0:0|2:0,0:0:0:0:
324,104,90989,6,0,P|372:192|344:284,1,190,2|8,0:3|0:0,0:0:0:0:
220,212,91494,2,0,L|128:232,1,95,2|2,0:3|2:0,0:0:0:0:
228,332,91831,1,0,0:0:0:0:
304,272,92000,2,0,L|408:284,1,95,8|2,0:0|2:0,0:0:0:0:
488,128,92337,5,2,0:3:0:0:
488,128,92505,1,2,2:0:0:0:
444,264,92674,1,8,0:0:0:0:
360,112,92843,2,0,P|316:80|272:72,2,95,2|2|2,0:3|2:0|0:3,0:0:0:0:
316,252,93348,2,0,L|208:256,1,95,8|0,0:0|2:0,0:0:0:0:
148,352,93685,6,0,P|110:322|70:297,1,95,2|0,0:3|2:0,0:0:0:0:
88,128,94022,1,8,0:0:0:0:
200,172,94191,2,0,L|200:264|200:296,1,95,2|2,0:2|2:2,0:2:0:0:
72,216,94528,1,0,0:0:0:0:
52,52,94697,2,0,P|88:24|136:16,1,95,8|0,0:0|2:0,0:0:0:0:
276,72,95028,6,0,P|272:120|269:171,1,95,2|0,0:3|2:0,0:0:0:0:
384,128,95362,1,8,0:0:0:0:
492,52,95529,2,0,P|456:24|408:16,1,95,2|2,0:3|2:0,0:0:0:0:
300,88,95863,1,0,0:0:0:0:
304,208,96030,2,0,L|368:284,1,95,8|0,0:0|2:0,0:0:0:0:
500,220,96365,6,0,P|460:124|384:96,1,190,2|8,0:3|0:0,0:0:0:0:
224,144,96866,2,0,P|204:224|200:256,1,95,2|2,0:3|2:0,0:0:0:0:
320,296,97200,1,0,0:0:0:0:
204,336,97367,2,0,L|88:332,1,95,8|2,0:0|2:0,0:0:0:0:
136,192,97702,5,2,0:3:0:0:
136,192,97869,1,2,2:0:0:0:
32,264,98036,1,8,0:0:0:0:
92,112,98203,2,0,P|128:72|168:56,2,95,2|2|2,0:3|2:0|0:3,0:0:0:0:
156,292,98704,2,0,P|116:324|72:336,1,95,8|2,0:0|2:0,0:0:0:0:
232,196,99063,6,0,L|340:224,1,95,2|0,0:3|2:0,0:0:0:0:
452,260,99400,1,8,0:0:0:0:
348,344,99569,2,0,P|288:328|240:332,1,95,2|2,0:3|2:0,0:0:0:0:
232,216,99907,1,0,0:0:0:0:
352,184,100076,2,0,L|352:88,1,95,8|2,0:0|2:0,0:0:0:0:
212,124,100414,6,0,P|232:68|256:36,1,95,2|0,0:3|2:0,0:0:0:0:
140,20,100752,1,8,0:0:0:0:
72,120,100921,2,0,P|98:159|112:204,1,95,2|2,0:3|2:0,0:0:0:0:
212,136,101258,1,2,0:3:0:0:
192,272,101427,2,0,L|312:280,1,95,8|0,0:0|2:0,0:0:0:0:
120,56,101765,6,0,P|80:104|80:156,1,95,2|0,0:3|2:0,0:0:0:0:
8,256,102103,2,0,P|29:314|74:340,1,95,8|0,0:0|2:0,0:0:0:0:
248,168,102441,1,2,0:3:0:0:
88,328,102610,1,0,0:0:0:0:
120,188,102779,1,8,0:0:0:0:
244,344,102948,6,0,P|336:364|420:324,1,190,4|0,0:2|0:0,0:0:0:0:
464,200,103454,1,8,0:0:0:0:
308,20,103623,2,0,L|312:240,1,190,4|2,0:2|0:2,0:0:0:0:
408,120,104130,1,8,0:0:0:0:
220,160,104299,1,2,2:0:0:0:
220,160,104468,6,0,P|148:164|116:164,1,95,2|0,0:3|2:0,0:0:0:0:
308,228,104806,1,8,0:0:0:0:
352,104,104975,2,0,P|405:55|419:30,1,95,2|2,0:3|2:0,0:0:0:0:
208,84,105313,1,2,0:3:0:0:
180,216,105481,2,0,L|181:323,1,95,8|0,0:0|2:0,0:0:0:0:
340,120,105819,5,2,0:3:0:0:
324,312,105988,1,2,0:2:0:0:
456,208,106157,1,0,0:0:0:0:
264,256,106326,2,0,L|64:258,1,190,4|2,0:2|0:2,0:0:0:0:
192,88,106833,1,8,0:0:0:0:
268,148,107002,1,0,2:0:0:0:
344,216,107171,6,0,P|393:230|448:224,1,95,2|0,0:3|2:0,0:0:0:0:
400,60,107508,1,8,0:0:0:0:
268,144,107677,2,0,P|219:127|178:90,1,95,2|2,0:3|2:0,0:0:0:0:
312,40,108015,1,0,0:0:0:0:
132,200,108184,1,8,0:0:0:0:
68,32,108353,1,2,2:0:0:0:
68,32,108522,6,0,L|180:36,1,95,2|0,0:3|2:0,0:0:0:0:
432,124,108860,2,0,L|320:128,1,95,12|2,0:2|2:0,0:0:0:0:
140,176,109198,1,2,2:0:0:0:
228,240,109367,1,8,0:0:0:0:
128,284,109535,1,8,3:0:0:0:
192,372,109704,1,4,3:0:0:0:
312,300,109870,6,0,P|360:292|396:296,1,71.2500027179719,4|0,0:2|2:0,0:0:0:0:
492,312,110207,1,0,0:0:0:0:
476,208,110375,2,0,P|432:180|384:168,1,71.2500027179719,2|0,2:0|0:0,0:0:0:0:
304,184,110712,1,0,2:0:0:0:
228,104,110881,1,2,0:2:0:0:
188,208,111049,1,0,2:0:0:0:
212,316,111218,6,0,P|229:362|248:384,2,71.2500027179719,2|0|0,0:2|2:0|0:0,0:0:0:0:
112,264,111723,2,0,P|136:232|156:192,1,71.2500027179719,2|0,2:0|0:0,0:0:0:0:
132,92,112061,1,0,3:0:0:0:
132,92,112145,1,0,3:0:0:0:
132,92,112229,1,2,0:2:0:0:
28,132,112398,1,0,3:0:0:0:
192,160,112566,6,0,L|272:164,1,71.2500027179719,2|0,0:2|2:0,0:0:0:0:
360,112,112903,1,0,0:0:0:0:
472,120,113072,2,0,P|492:80|500:40,2,71.2500027179719,2|0|0,2:0|0:0|2:0,0:0:0:0:
428,240,113577,2,0,P|437:274|454:305,1,71.2500027179719,2|0,0:2|2:0,0:0:0:0:
344,160,113914,5,2,0:2:0:0:
252,224,114083,2,0,L|256:272,2,35.625001358986,0|0|0,3:0|3:0|0:0,0:0:0:0:
272,76,114420,1,2,2:0:0:0:
172,164,114589,2,0,L|136:166,2,35.625001358986,0|0|0,3:0|3:0|2:0,0:0:0:0:
168,48,114926,1,2,0:2:0:0:
268,140,115094,1,2,0:2:0:0:
268,140,115178,1,0,3:0:0:0:
268,140,115263,6,0,L|268:204|268:232,1,71.2500027179719,2|0,0:2|2:0,0:0:0:0:
248,320,115600,1,0,0:0:0:0:
168,248,115768,2,0,P|160:200|155:174,2,71.2500027179719,2|0|0,2:0|0:0|2:0,0:0:0:0:
104,336,116274,1,2,0:2:0:0:
8,288,116443,1,0,2:0:0:0:
104,336,116611,6,0,P|149:338|192:344,1,71.2500027179719,2|0,0:2|2:0,0:0:0:0:
276,304,116948,1,0,0:0:0:0:
420,300,117117,2,0,P|375:302|332:308,1,71.2500027179719,2|0,2:0|0:0,0:0:0:0:
248,268,117454,1,0,3:0:0:0:
248,268,117538,1,0,3:0:0:0:
248,268,117622,1,0,0:0:0:0:
316,184,117791,1,0,3:0:0:0:
343,285,117959,6,0,P|347:321|348:357,1,71.2500027179719,2|0,0:2|2:0,0:0:0:0:
440,236,118296,2,0,P|436:180|436:164,1,71.2500027179719,0|2,0:0|2:0,0:0:0:0:
323,108,118634,2,0,P|327:144|328:180,1,71.2500027179719,0|0,0:0|2:0,0:0:0:0:
504,36,118971,6,0,L|368:28,1,126.349994794541,4|2,0:2|2:0,0:0:0:0:
164,164,119290,5,8,0:0:0:0:
304,88,119460,1,0,0:0:0:0:
208,12,119631,1,0,0:0:0:0:
172,248,119802,5,8,0:0:0:0:
95,109,119972,1,0,0:0:0:0:
217,95,120143,1,0,0:0:0:0:
241,305,120315,5,8,0:0:0:0:
164,164,120485,1,0,0:0:0:0:
164,164,120572,1,0,0:0:0:0:
164,164,120660,6,0,L|360:144,1,190,4|8,0:0|0:0,0:0:0:0:
484,112,121165,2,0,P|496:176|496:220,1,95,2|2,0:3|2:0,0:0:0:0:
344,248,121502,1,2,0:3:0:0:
400,348,121670,2,0,P|446:353|496:360,1,95,8|0,0:0|2:0,0:0:0:0:
284,272,122007,6,0,P|224:272|184:268,1,95,2|0,0:3|2:0,0:0:0:0:
372,200,122344,1,8,0:0:0:0:
268,160,122512,2,0,P|216:130|183:106,1,95,2|2,0:3|2:0,0:0:0:0:
380,141,122849,1,2,0:3:0:0:
420,312,123018,2,0,P|367:333|306:338,1,95,8|0,0:0|2:0,0:0:0:0:
196,208,123355,6,0,L|100:212,1,95,2|0,0:3|2:0,0:0:0:0:
64,348,123692,2,0,L|158:351,1,95,8|2,0:0|0:3,0:0:0:0:
280,284,124028,1,2,2:0:0:0:
176,172,124197,1,2,0:3:0:0:
152,320,124365,1,8,0:0:0:0:
240,248,124534,1,0,2:0:0:0:
96,220,124702,6,0,P|60:136|68:36,1,190,2|8,0:3|0:0,0:0:0:0:
212,104,125208,2,0,P|224:168|252:208,1,95,2|2,0:2|2:0,0:0:0:0:
320,69,125544,1,2,0:3:0:0:
481,158,125713,2,0,L|387:162,1,95,12|0,0:2|2:0,0:0:0:0:
212,219,126050,5,8,0:0:0:0:
212,219,126218,1,2,2:0:0:0:
320,69,126387,1,0,0:0:0:0:
320,69,126555,1,2,2:0:0:0:
320,254,126724,5,4,0:3:0:0:
212,104,126892,1,8,0:0:0:0:
212,104,127060,1,2,2:0:0:0:
386,162,127229,1,8,0:0:0:0:
386,162,127397,1,2,2:0:0:0:
212,219,127566,5,8,0:0:0:0:
320,254,127734,1,2,2:0:0:0:
212,104,127903,1,8,0:0:0:0:
386,162,128071,2,0,P|431:139|456:100,1,95,8|0,0:0|2:0,0:0:0:0:
212,219,128408,2,0,P|209:269|230:310,1,95,8|0,0:0|2:0,0:0:0:0:
320,69,128745,5,4,0:2:0:0:
212,104,128914,1,0,2:3:0:0:
212,219,129083,1,8,0:0:0:0:
240,330,129252,1,0,2:0:0:0:
352,272,129421,5,8,3:0:0:0:
364,248,129590,1,8,3:0:0:0:
452,352,129759,1,4,3:0:0:0:
464,376,129928,1,4,3:0:0:0:
312,360,130097,6,0,B|216:336|216:384|124:360,1,190,4|8,1:2|2:0,2:0:0:0:
44,260,131111,1,8,3:0:0:0:
100,140,131462,5,4,1:2:0:0:
208,172,131803,2,0,P|260:176|304:168,1,95,2|10,0:0|0:0,0:0:0:0:
432,108,132487,2,0,L|444:60,1,47.5,0|10,0:0|0:0,0:0:0:0:
472,288,133000,5,10,0:0:0:0:
472,288,133171,2,0,L|484:240,1,47.5,0|0,1:0|1:0,0:0:0:0:
392,204,133513,2,0,L|276:200,1,95,10|0,0:0|0:0,0:0:0:0:
228,240,134026,1,8,0:0:0:0:
256,132,134197,5,2,1:2:0:0:
32,344,134880,1,8,0:0:0:0:
100,252,135222,2,0,L|104:196,1,47.5,2|8,0:0|0:0,0:0:0:0:
44,64,135735,5,8,0:0:0:0:
44,64,135906,2,0,L|40:120,1,47.5,2|0,1:2|1:0,0:0:0:0:
120,164,136248,2,0,P|160:164|192:156,1,71.25,8|8,0:0|0:0,0:0:0:0:
204,148,136590,1,0,1:0:0:0:
220,44,136761,1,8,0:0:0:0:
216,252,136932,5,4,1:2:0:0:
324,208,137273,2,0,P|376:212|420:232,1,95,2|10,0:0|0:0,0:0:0:0:
424,56,137957,2,0,P|445:68|464:84,1,47.5,2|10,0:0|0:0,0:0:0:0:
252,60,138470,5,10,0:0:0:0:
251,59,138641,2,0,P|268:76|282:96,1,47.5,2|0,1:2|1:0,0:0:0:0:
172,52,138983,1,10,0:0:0:0:
88,268,139325,1,0,0:0:0:0:
88,268,139496,1,8,0:0:0:0:
88,268,139667,6,0,L|200:280,1,95,2|0,1:2|0:0,0:0:0:0:
324,244,140350,1,8,0:0:0:0:
240,176,140692,2,0,L|192:181,1,47.5,2|10,0:0|0:0,0:0:0:0:
428,220,141205,5,10,0:0:0:0:
428,220,141376,2,0,L|475:225,1,47.5,0|0,1:0|1:0,0:0:0:0:
396,324,141718,1,10,0:0:0:0:
316,124,142060,2,0,P|319:96|324:72,1,47.5,2|0,1:2|0:0,0:0:0:0:
220,12,142418,6,0,P|214:68|204:116,1,95,4|2,1:2|0:0,0:0:0:0:
28,52,143103,1,8,0:0:0:0:
28,52,143275,1,0,0:0:0:0:
28,52,143446,6,0,L|32:104,2,47.5,2|8|2,0:0|0:0|0:0,0:0:0:0:
40,240,144132,1,0,1:0:0:0:
172,120,144475,2,0,P|195:122|219:123,1,47.5,10|0,0:0|0:0,0:0:0:0:
100,152,144818,1,2,0:0:0:0:
292,152,145160,6,0,P|298:208|308:256,1,95,2|2,1:2|0:0,0:0:0:0:
484,192,145845,1,8,0:0:0:0:
484,192,146017,1,0,0:0:0:0:
484,192,146189,6,0,L|480:244,2,47.5,2|8|2,0:0|0:0|0:0,0:0:0:0:
472,380,146874,1,0,1:0:0:0:
340,260,147217,2,0,P|316:262|292:263,1,47.5,10|0,0:0|0:0,0:0:0:0:
412,292,147560,1,8,3:0:0:0:
192,356,147903,6,0,P|136:348|80:336,1,95,4|2,1:2|0:0,0:0:0:0:
16,224,148589,1,8,0:0:0:0:
216,240,148932,1,2,0:0:0:0:
216,240,149103,1,8,0:0:0:0:
216,240,149275,6,0,P|272:232|328:220,1,95,2|0,0:0|1:0,0:0:0:0:
392,108,149960,2,0,L|396:168,1,47.5,10|0,0:0|0:0,0:0:0:0:
388,234,150303,1,2,0:0:0:0:
465,219,150475,1,8,0:0:0:0:
309,224,150633,5,4,0:2:0:0:
88,44,150975,1,8,0:0:0:0:
16,136,151146,1,0,0:0:0:0:
196,144,151317,5,8,0:0:0:0:
124,236,151488,1,0,0:0:0:0:
64,100,151660,1,8,0:0:0:0:
236,20,151831,6,0,B|386:11|338:130|488:121,1,285,12|0,0:2|0:0,0:0:0:0:
489,120,153030,1,8,0:0:0:0:
192,156,153372,6,0,L|144:148,1,47.5,12|0,0:0|2:0,0:0:0:0:
320,228,153715,2,0,L|368:236,1,47.5,8|0,0:0|2:0,0:0:0:0:
84,184,154057,6,0,L|178:174,1,95,8|0,0:0|0:0,0:0:0:0:
428,200,154400,2,0,L|333:209,1,95,8|0,0:0|0:0,0:0:0:0:
220,256,154742,6,0,L|212:304,1,47.5,8|0,0:0|2:0,0:0:0:0:
292,128,155085,2,0,L|300:80,1,47.5,8|0,0:0|2:0,0:0:0:0:
248,364,155427,6,0,L|238:269,1,95,8|0,0:0|0:0,0:0:0:0:
264,20,155770,2,0,L|273:114,1,95,8|0,0:0|0:0,0:0:0:0:
368,280,156112,6,0,L|416:288,1,47.5,8|0,0:0|2:0,0:0:0:0:
368,104,156454,2,0,L|416:96,1,47.5,8|0,0:0|2:0,0:0:0:0:
476,324,156797,6,0,L|380:324,1,95,8|0,0:0|0:0,0:0:0:0:
476,60,157139,2,0,L|380:60,1,95,8|0,0:0|0:0,0:0:0:0:
200,116,157482,6,0,L|153:123,1,47.5,8|0,0:0|2:0,0:0:0:0:
200,268,157824,2,0,L|153:260,1,47.5,8|0,0:0|2:0,0:0:0:0:
272,108,158167,6,0,L|180:76,1,95,8|0,0:0|0:0,0:0:0:0:
272,276,158509,2,0,L|180:308,1,95,8|0,0:0|0:0,0:0:0:0:
64,112,158845,6,0,P|61:87|60:64,1,47.5,12|0,0:2|2:0,0:0:0:0:
64,272,159184,2,0,P|61:297|60:320,1,47.5,8|0,0:0|2:0,0:0:0:0:
32,120,159523,6,0,L|128:128,1,95,8|0,0:0|0:0,0:0:0:0:
32,264,159863,2,0,L|128:256,1,95,8|0,0:0|0:0,0:0:0:0:
284,96,160202,6,0,P|307:103|328:116,1,47.5,8|0,0:0|2:0,0:0:0:0:
284,288,160541,2,0,P|307:281|328:268,1,47.5,8|0,0:0|2:0,0:0:0:0:
368,56,160881,6,0,L|368:156,1,95,8|0,0:0|0:0,0:0:0:0:
368,328,161220,2,0,L|368:228,1,95,8|0,0:0|0:0,0:0:0:0:
259,60,161559,6,0,P|242:77|228:96,1,47.5,12|0,0:2|2:0,0:0:0:0:
252,323,161899,2,0,P|269:306|284:288,1,47.5,8|0,0:0|2:0,0:0:0:0:
212,144,162238,6,0,L|116:144,1,95,8|0,0:0|0:0,0:0:0:0:
300,240,162578,1,8,0:0:0:0:
488,172,162747,6,0,P|496:80|428:16,1,190,4|0,0:2|0:0,0:0:0:0:
300,240,163256,1,12,0:2:0:0:
432,320,163426,1,2,2:0:0:0:
392,184,163596,1,8,0:0:0:0:
392,160,163680,1,8,0:0:0:0:
392,136,163765,1,0,0:0:0:0:
304,60,163935,1,8,0:0:0:0:
300,240,164105,1,8,0:0:0:0:
300,240,164190,1,8,0:0:0:0:
300,240,164290,6,0,P|204:260|120:228,1,190,4|8,0:0|0:0,0:0:0:0:
112,104,164797,2,0,P|72:68|32:48,1,95,2|2,0:3|2:0,0:0:0:0:
24,228,165136,1,2,0:3:0:0:
80,328,165305,2,0,L|184:332,1,95,8|0,0:0|2:0,0:0:0:0:
268,204,165644,6,0,P|290:251|297:292,1,95,2|0,0:3|2:0,0:0:0:0:
404,152,165983,1,8,0:0:0:0:
416,260,166152,2,0,P|393:307|386:348,1,95,2|2,0:3|2:0,0:0:0:0:
404,152,166490,1,2,0:3:0:0:
328,232,166659,2,0,P|280:254|239:261,1,95,8|0,0:0|2:0,0:0:0:0:
104,220,166998,6,0,L|36:152,1,95,2|0,0:2|2:0,0:0:0:0:
132,336,167337,2,0,L|222:364,1,95,8|0,0:0|2:0,0:0:0:0:
432,200,167676,1,0,0:0:0:0:
244,240,167845,1,0,0:0:0:0:
368,32,168014,1,8,0:0:0:0:
216,84,168183,6,0,P|260:167|334:226,1,190,4|0,0:2|0:0,0:0:0:0:
452,144,168691,1,8,0:0:0:0:
480,52,168861,1,0,2:0:0:0:
420,224,169030,1,8,0:0:0:0:
488,332,169200,1,8,3:0:0:0:
368,372,169369,1,4,3:0:0:0:
352,283,169538,1,4,3:0:0:0:
492,244,169707,6,0,L|300:248,1,190,4|0,0:0|0:0,0:0:0:0:
192,168,170207,2,0,L|188:264,1,95,4|0,0:3|2:0,0:0:0:0:
280,340,170540,1,8,3:0:0:0:
160,352,170707,2,0,L|60:348,1,95,4|0,3:0|2:0,0:0:0:0:
40,168,171040,5,8,0:3:0:0:
104,116,171207,1,0,2:0:0:0:
116,196,171373,5,0,0:0:0:0:
180,248,171540,1,0,2:0:0:0:
192,168,171707,5,4,3:0:0:0:
256,116,171874,1,4,3:0:0:0:
268,196,172040,5,0,0:0:0:0:
332,248,172207,1,4,3:0:0:0:
332,248,172290,1,4,3:0:0:0:
332,248,172373,6,0,P|400:236|456:188,1,142.500005435944,4|0,0:0|0:0,0:0:0:0:
384,96,172873,1,4,3:0:0:0:
456,156,173040,1,4,3:0:0:0:
436,16,173207,1,0,0:0:0:0:
275,174,173373,5,8,3:0:0:0:
367,189,173540,1,8,3:0:0:0:
312,328,173707,1,4,0:0:0:0:
256,192,173790,12,0,174873,2:0:0:0:
328,252,175080,6,0,B|296:312|216:344|216:276|149:194|100:296|108:348|128:360|168:368|192:362,1,332.5,2|0,0:0|0:0,0:0:0:0:
256,224,176428,6,0,B|292:172|360:56|252:-8|160:28|188:104|217:131,1,332.5,2|0,0:0|0:0,0:0:0:0:
148,192,177776,6,0,B|104:208|48:196|-16:152|32:48|120:60|92:180|32:248,1,332.5,2|0,0:0|0:0,0:0:0:0:
72,28,179124,6,0,P|128:60|153:113,1,123.499994346619,2|0,0:0|0:0,0:0:0:0:
112,276,179630,2,0,P|175:271|221:236,1,123.499994346619,2|0,0:0|0:0,0:0:0:0:
239,143,180136,2,0,P|272:156|298:181,1,71.2500027179719,0|0,0:0|0:0,0:0:0:0:
312,276,180478,5,0,0:0:0:0:
448,172,180646,1,0,3:0:0:0:
448,172,180730,1,0,3:0:0:0:
448,172,180815,1,0,0:0:0:0:
404,256,180983,1,0,3:0:0:0:
404,256,181067,1,0,3:0:0:0:
404,256,181152,1,0,0:0:0:0:
448,340,181320,1,0,3:0:0:0:
448,340,181404,1,0,3:0:0:0:
448,340,181489,1,0,0:0:0:0:
276,188,181657,5,0,3:0:0:0:
276,188,181741,1,0,3:0:0:0:
276,188,181826,1,0,0:0:0:0:
279,73,181994,1,0,3:0:0:0:
279,73,182078,1,0,3:0:0:0:
279,73,182163,1,0,0:0:0:0:
375,12,182331,1,0,3:0:0:0:
375,12,182415,1,0,3:0:0:0:
375,12,182500,1,0,0:0:0:0:
372,127,182669,1,0,3:0:0:0:
372,127,182753,1,0,3:0:0:0:
372,127,182838,1,0,0:0:0:0:
172,56,183006,5,2,3:0:0:0:
172,56,183090,1,2,3:0:0:0:
172,56,183174,1,0,0:0:0:0:
71,156,183343,1,2,3:0:0:0:
71,156,183427,1,2,3:0:0:0:
71,156,183511,1,0,0:0:0:0:
208,193,183680,1,2,3:0:0:0:
208,193,183764,1,2,3:0:0:0:
208,193,183848,1,0,0:0:0:0:
108,293,184017,1,2,3:0:0:0:
108,293,184101,1,2,3:0:0:0:
108,293,184185,1,0,0:0:0:0:
33,18,184354,5,0,0:0:0:0:
33,18,184438,1,0,0:0:0:0:
33,18,184522,1,8,3:0:0:0:
16,244,184691,1,8,0:0:0:0:
15,278,184775,1,8,0:0:0:0:
25,310,184860,1,8,0:0:0:0:
38,342,184944,1,8,0:0:0:0:
60,364,185028,6,0,B|140:416|252:352|224:232|168:188|112:188|80:248|108:293|108:293|136:340|172:364|224:372|280:340,1,585.200007143555,4|8,0:2|0:0,0:0:0:0:
452,192,187245,6,0,P|450:141|435:100,1,95,4|0,0:0|2:0,0:0:0:0:
280,144,187582,1,8,0:0:0:0:
264,24,187750,2,0,L|360:28,1,95,2|0,0:3|2:0,0:0:0:0:
352,212,188087,1,2,0:3:0:0:
216,224,188256,1,8,0:0:0:0:
264,128,188424,1,0,2:0:0:0:
288,264,188593,5,2,0:3:0:0:
192,216,188761,1,0,2:0:0:0:
288,120,188930,1,8,0:0:0:0:
192,72,189098,1,2,0:3:0:0:
404,36,189267,2,0,P|360:26|310:20,1,95,2|2,2:0|0:3,0:0:0:0:
96,44,189604,2,0,L|96:152,1,95,8|0,0:0|2:0,0:0:0:0:
120,316,189941,6,0,P|160:352|208:364,1,95,2|0,0:3|2:0,0:0:0:0:
208,200,190278,1,8,0:0:0:0:
44,216,190447,2,0,P|48:168|75:129,1,95,2|0,0:3|2:0,0:0:0:0:
240,104,190784,1,2,0:3:0:0:
324,240,190952,1,8,0:0:0:0:
200,236,191121,1,0,2:0:0:0:
368,36,191272,5,4,0:2:0:0:
376,156,191440,2,0,P|372:248|372:272,1,95,0|8,0:0|0:0,0:0:0:0:
88,184,191777,2,0,P|232:192|280:192,1,190,4|0,0:2|0:0,0:0:0:0:
224,328,192283,2,0,P|148:324|128:324,1,95,8|0,0:0|2:0,0:0:0:0:
40,96,192620,6,0,P|56:48|92:20,1,95,4|0,0:2|2:0,0:0:0:0:
240,152,192957,2,0,P|224:104|188:76,1,95,8|2,0:0|0:3,0:0:0:0:
172,264,193294,2,0,L|288:284,1,95,2|2,2:0|0:3,0:0:0:0:
56,216,193631,2,0,L|20:320,1,95,8|0,0:0|2:0,0:0:0:0:
212,380,193968,6,0,P|160:372|124:352,1,95,2|0,0:3|2:0,0:0:0:0:
352,324,194305,2,0,P|397:297|423:265,1,95,8|2,0:0|0:3,0:0:0:0:
364,149,194642,2,0,L|288:88,1,95,2|2,2:0|0:3,0:0:0:0:
164,228,194979,2,0,L|280:248,1,95,8|0,0:0|2:0,0:0:0:0:
472,48,195316,6,0,P|468:104|472:148,1,95,4|0,0:2|2:0,0:0:0:0:
408,336,195654,2,0,P|412:280|408:236,1,95,8|2,0:0|0:3,0:0:0:0:
280,76,195991,2,0,P|320:108|360:132,1,95,2|2,2:0|0:3,0:0:0:0:
280,288,196328,2,0,P|240:256|200:232,1,95,8|0,0:0|2:0,0:0:0:0:
96,28,196655,5,4,0:2:0:0:
80,148,196823,1,0,0:0:0:0:
84,180,196907,1,0,0:0:0:0:
88,212,196992,1,0,3:0:0:0:
276,108,197160,2,0,L|181:104,1,95,4|4,0:2|3:0,0:0:0:0:
92,244,197497,1,0,0:0:0:0:
96,276,197581,1,0,0:0:0:0:
124,292,197666,1,8,0:0:0:0:
156,296,197750,1,8,0:0:0:0:
188,300,197834,1,8,0:0:0:0:
220,304,197919,1,8,0:0:0:0:
252,308,198003,6,0,L|348:292,1,95,4|0,0:0|2:0,0:0:0:0:
424,96,198342,1,8,0:0:0:0:
448,224,198512,1,2,3:2:0:0:
448,240,198597,1,0,3:0:0:0:
448,256,198682,2,0,L|452:304,2,47.5,2|8|0,3:2|2:0|0:0,0:0:0:0:
336,188,199021,2,0,P|244:184|220:180,1,95,8|0,0:0|3:0,0:0:0:0:
180,136,199276,1,8,2:0:0:0:
180,120,199361,6,0,L|200:28,1,95,2|0,0:3|2:0,0:0:0:0:
56,140,199700,2,0,L|76:232,1,95,8|0,0:0|2:0,0:0:0:0:
292,84,200040,2,0,L|344:84,2,47.5,2|8|0,3:2|2:0|0:0,0:0:0:0:
80,32,200379,1,12,0:2:0:0:
144,180,200549,1,0,3:0:0:0:
136,212,200634,1,8,2:0:0:0:
128,244,200719,6,0,P|136:296|141:340,1,95,4|0,0:2|2:0,0:0:0:0:
12,176,201059,1,8,0:0:0:0:
132,80,201228,1,2,3:2:0:0:
148,76,201313,1,0,3:0:0:0:
164,72,201398,2,0,L|216:72,2,47.5,2|8|0,3:2|2:0|0:0,0:0:0:0:
224,248,201738,1,8,0:0:0:0:
396,112,201907,1,0,3:0:0:0:
400,80,201992,1,8,2:0:0:0:
404,48,202077,5,4,0:2:0:0:
204,132,202247,2,0,P|249:135|298:135,1,95,2|8,0:2|0:0,0:0:0:0:
480,208,202587,2,0,P|339:241|285:264,1,190,4|2,0:2|0:2,0:0:0:0:
136,232,203096,2,0,P|164:284|176:332,1,95,8|0,0:0|2:0,0:0:0:0:
92,132,203405,5,8,0:0:0:0:
284,376,203742,1,8,0:0:0:0:
312,68,204079,1,8,0:0:0:0:
400,195,204247,1,2,0:2:0:0:
312,68,204416,1,8,0:0:0:0:
216,189,204584,6,0,P|220:296|204:377,1,190,4|2,0:2|0:2,0:0:0:0:
336,304,205090,1,8,0:0:0:0:
400,195,205258,2,0,L|496:208,1,95,4|2,0:2|2:0,0:0:0:0:
412,80,205596,1,0,0:0:0:0:
276,128,205764,2,0,P|291:175|296:224,1,95,12|0,0:2|2:0,0:0:0:0:
192,328,206101,6,0,L|96:320,1,95,4|0,0:2|2:0,0:0:0:0:
140,172,206438,1,8,0:0:0:0:
260,232,206607,2,0,P|336:212|356:200,1,95,2|2,0:2|2:0,0:0:0:0:
372,64,206944,1,0,0:0:0:0:
260,232,207112,1,8,0:0:0:0:
100,56,207281,1,2,0:3:0:0:
100,56,207449,5,8,0:0:0:0:
260,232,208786,6,0,L|256:332,1,95,4|0,0:0|0:0,0:0:0:0:
72,312,209123,1,8,0:0:0:0:
144,192,209291,2,2,B|168:164|168:164|164:128|164:128|212:96|196:20,1,190,4|0,0:2|0:0,0:0:0:0:
20,80,209797,1,8,0:0:0:0:
264,164,209966,6,0,P|321:159|364:160,1,95,4|2,0:2|2:0,0:0:0:0:
392,168,210218,1,0,2:0:0:0:
392,168,210303,1,0,0:0:0:0:
440,60,210471,1,8,0:0:0:0:
436,256,210640,6,0,B|440:312|480:332|480:332|448:368|388:356,1,190,4|0,0:2|0:0,0:0:0:0:
255,304,211146,1,10,0:0:0:0:
264,104,211314,1,0,0:0:0:0:
264,104,211399,1,0,0:0:0:0:
264,104,211483,5,6,0:0:0:0:
332,232,211651,1,0,0:0:0:0:
164,252,211820,1,10,0:0:0:0:
156,72,211989,5,4,0:0:0:0:
236,192,212157,1,2,0:0:0:0:
376,92,212326,1,0,0:0:0:0:
332,232,212494,1,8,0:0:0:0:
128,160,212663,5,4,0:2:0:0:
108,168,213000,1,4,0:2:0:0:
88,176,213337,1,4,0:2:0:0:
68,184,213675,5,0,0:0:0:0:
216,192,213843,2,0,P|268:184|312:168,1,95,12|0,0:2|0:0,0:0:0:0:
312,80,214096,1,0,0:0:0:0:
312,80,214180,6,0,L|184:64,1,95,4|0,0:0|0:0,0:0:0:0:
72,96,214517,1,8,0:0:0:0:
52,320,214686,2,2,B|106:334|142:304|142:304|174:329|174:329|129:358,1,190,4|0,0:2|0:0,0:0:0:0:
24,200,215192,1,8,0:0:0:0:
176,92,215360,6,0,L|176:192,1,95,4|2,0:2|2:0,0:0:0:0:
160,216,215613,1,0,2:0:0:0:
160,216,215698,1,0,0:0:0:0:
328,88,215866,1,8,0:0:0:0:
296,232,216035,6,0,B|296:313|344:367|344:367|370:307,1,190,4|0,0:2|0:0,0:0:0:0:
437,156,216540,1,8,0:0:0:0:
264,80,216709,1,0,0:0:0:0:
264,80,216793,1,0,0:0:0:0:
264,80,216878,5,6,0:0:0:0:
152,120,217044,1,0,0:0:0:0:
288,176,217211,1,10,0:0:0:0:
176,216,217377,1,0,0:0:0:0:
256,304,217544,5,2,0:0:0:0:
52,184,217711,1,0,0:0:0:0:
124,296,217878,1,10,0:0:0:0:
72,52,218044,1,0,0:0:0:0:
276,52,218225,5,6,0:0:0:0:
176,136,218394,1,0,0:0:0:0:
176,168,218478,1,8,0:0:0:0:
176,200,218563,1,4,0:3:0:0:
304,176,218732,1,8,3:0:0:0:
408,322,218901,6,0,P|367:345|320:350,1,95,12|0,0:2|2:0,0:0:0:0:
104,322,219239,2,0,P|145:345|192:350,1,95,8|0,0:2|2:0,0:0:0:0:
360,164,219577,6,0,P|359:211|340:254,1,95,12|0,0:2|0:0,0:0:0:0:
152,164,219915,2,0,P|152:211|171:254,1,95,8|0,0:2|0:0,0:0:0:0:
256,352,220253,5,8,0:0:0:0:
256,192,220422,1,8,0:0:0:0:
256,32,220591,1,8,0:0:0:0:
256,32,220760,1,12,0:2:0:0:
