osu file format v7

[General]
AudioFilename: Pure Ruby.mp3
AudioLeadIn: 1489
PreviewTime: 51865
Countdown: 0
SampleSet: Soft
StackLeniency: 0.3
Mode: 0
LetterboxInBreaks: 1

[Editor]
DistanceSpacing: 1
BeatDivisor: 4
GridSize: 8

[Metadata]
Title:Pure Ruby
Artist:SHIKI
Creator:Mystearica
Version:14 KEY
Source:BMS
Tags:

[Difficulty]
HPDrainRate:7
CircleSize:5
OverallDifficulty:7
SliderMultiplier:1.6
SliderTickRate:0.5

[Events]
//Background and Video events
0,0,"ruby.jpg"
//Break Periods
2,73638,74224
2,95212,104898
//Storyboard Layer 0 (Background)
//Storyboard Layer 1 (Fail)
//Storyboard Layer 2 (Pass)
//Storyboard Layer 3 (Foreground)
//Storyboard Sound Samples
//Background Colour Transformations
3,100,0,0,0

[TimingPoints]
630,337.078651685393,4,2,1,100,1,0
6023,-100,4,2,1,100,0,0
18158,-100,4,2,1,0,0,0
19506,-100,4,2,1,100,0,0
50517,-100,4,2,1,0,0,0
50601,-100,4,2,1,100,0,0
73186,-100,4,2,1,70,0,0
73607,-100,4,2,1,100,0,0
83804,-100,4,2,1,60,0,0
83972,-100,4,2,1,70,0,0
84056,-100,4,2,1,80,0,0
84141,-100,4,2,1,90,0,0
84225,-100,4,2,1,100,0,0
126191,-100,4,2,1,70,0,0
127540,-100,4,2,1,60,0,0
128214,-100,4,2,1,50,0,0
128888,-100,4,2,1,40,0,0
129562,-100,4,2,1,30,0,0
130236,-100,4,2,1,20,0,0
130910,-100,4,2,1,10,0,0

[Colours]
Combo1 : 232,162,221
Combo2 : 255,255,255
Combo3 : 255,47,68

[HitObjects]
144,40,630,2,0,B|216:80,1,80
368,40,967,2,0,B|296:80,1,80,2|0
256,168,1304,5,0
256,184,1388,1,0
256,200,1472,1,0
256,280,1641,1,2
256,360,1809,1,0
376,320,1978,6,0,B|464:320,1,80
416,248,2315,1,2
384,176,2483,1,0
376,160,2568,1,0
368,144,2652,1,0
376,128,2736,1,0
384,112,2821,1,0
456,144,2989,1,2
456,64,3158,1,0
376,40,3326,6,0,B|288:40,1,80
256,120,3663,1,2
216,200,3832,1,0
208,216,3916,1,0
208,232,4000,1,0
216,248,4085,1,0
224,264,4169,1,0
224,280,4253,1,0
216,296,4337,1,2
216,296,4506,1,0
136,192,4674,5,8
376,192,5012,1,8
256,40,5349,5,8
248,56,5433,1,8
256,72,5517,1,8
256,152,5686,1,8
264,168,5770,1,8
256,184,5854,1,8
264,200,5938,1,8
256,216,6023,5,8
80,216,6360,1,8
32,48,6697,5,2
48,40,6781,1,0
64,40,6865,1,0
80,48,6950,1,0
88,64,7034,1,2
88,80,7118,1,0
80,96,7203,1,0
64,104,7287,1,0
48,104,7371,2,0,B|-1:137|-1:203|47:245,1,160,2|8
192,320,8045,5,8
256,272,8214,1,0
320,320,8382,1,8
136,192,8719,5,0
376,192,9056,1,0
256,32,9394,5,2
264,48,9478,1,0
256,64,9562,1,0
264,80,9646,1,0
256,96,9731,1,2
264,112,9815,1,0
256,128,9899,1,0
264,144,9983,1,0
256,160,10068,1,2
320,320,10405,5,8
256,272,10573,1,0
192,320,10742,1,8
40,128,11079,5,8
168,32,11416,1,8
192,192,11753,1,8
72,296,12090,5,2
88,288,12174,1,0
104,296,12259,1,0
120,304,12343,1,0
136,296,12427,1,2
152,288,12512,1,0
168,296,12596,1,0
184,304,12680,1,0
200,296,12764,1,2
416,248,13101,5,8
472,192,13270,1,0
416,136,13438,1,8
256,192,13776,5,8
29,155,14113,5,2
53,139,14197,1,0
77,139,14281,1,0
101,155,14366,1,0
117,179,14450,1,2
133,203,14534,1,0
149,227,14618,1,0
173,243,14702,1,0
197,243,14786,1,2
221,227,14871,1,0
237,203,14955,1,0
253,179,15040,1,0
269,155,15124,1,2
293,139,15208,1,0
317,139,15292,1,0
341,155,15377,1,0
357,179,15461,1,2
357,203,15545,1,0
341,227,15629,1,0
317,243,15713,1,0
293,243,15797,1,2
269,227,15882,1,0
253,203,15966,1,0
237,179,16051,1,0
221,155,16135,1,2
197,139,16219,1,0
173,139,16303,1,0
149,155,16388,1,0
133,179,16472,1,2
117,203,16556,1,0
101,227,16640,1,2
77,243,16725,1,0
53,243,16809,1,2
256,192,17146,12,0,18158
256,192,18495,12,12,19506
185,87,19843,6,0,B|260:19|335:94,1,160,8|8
256,192,20517,1,8
185,297,20854,2,0,B|260:365|335:290,1,160,8|8
472,120,21528,5,2
464,144,21613,1,0
448,168,21697,1,0
424,184,21781,1,0
400,192,21865,1,2
376,184,21950,1,0
352,168,22034,1,0
336,144,22118,1,0
328,120,22203,1,2
256,192,22540,5,8
256,192,22708,2,0,B|256:240,2,40,0|0|8
112,256,23214,5,8
200,120,23551,2,8,B|224:48|296:56|312:128,1,160,8|8
400,256,24225,1,8
256,192,24562,1,8
456,64,24899,6,8,B|432:136|360:128|344:56,1,160,8|8
256,192,25573,1,8
168,328,25910,1,8
56,64,26247,6,8,B|80:136|152:128|168:56,1,160,8|8
256,192,26921,1,8
344,328,27258,1,8
255,39,27596,6,0,B|214:94|296:137|252:199,1,160,8|8
256,352,28270,1,8
176,144,28607,5,2
256,144,28776,1,0
336,144,28944,1,2
136,272,29281,5,8
376,272,29618,1,8
256,64,29955,1,8
288,240,30292,5,8
176,352,30629,1,8
336,352,30967,1,8
224,240,31304,1,8
336,120,31641,1,8
176,120,31978,1,8
288,240,32315,1,8
224,240,32483,1,0
208,232,32568,1,0
192,240,32652,1,2
176,232,32736,1,0
160,240,32821,1,0
144,232,32905,1,0
128,240,32989,1,2
256,192,33073,12,8,34000
472,40,34337,6,0,B|410:40|424:136|354:136,1,160,8|8
120,192,35012,1,8
352,248,35349,1,8
256,56,35686,6,0,B|294:126|294:126|378:126,1,160,8|8
322,311,36360,2,0,B|322:230|322:230|392:192,1,160,8|8
136,258,37034,2,0,B|218:258|218:258|256:328,1,160,8|8
190,72,37708,2,0,B|190:154|190:154|120:192,1,160,8|8
336,240,38382,5,8
176,240,38719,1,8
256,104,39056,1,8
256,192,39394,5,2
256,192,39562,1,0
256,192,39731,1,2
112,336,40068,6,0,B|200:336|230:244,1,160,8|8
400,48,40742,2,0,B|312:48|282:140,1,160,8|8
168,192,41416,5,2
168,192,41585,1,2
151,140,41922,5,2
112,208,42090,1,0
181,248,42258,1,0
221,178,42427,1,2
344,192,42764,5,2
344,192,42933,1,2
331,248,43270,5,2
291,178,43439,1,0
360,138,43607,1,0
400,208,43775,1,2
256,352,44113,5,2
216,224,44450,6,0,B|128:224,1,80,2|0
213,163,44787,2,0,B|186:80,1,80,2|0
269,142,45124,2,0,B|340:90,1,80,2|0
307,189,45461,2,0,B|378:241,1,80,2|0
274,239,45798,2,0,B|246:323,1,80,2|0
256,192,46135,5,2
256,192,46219,1,2
256,192,46304,1,2
256,192,46388,1,2
256,192,46472,2,0,B|279:144|216:101|257:35,1,160,2|8
255,37,47146,5,0
424,160,47483,1,8
488,208,47652,1,0
416,232,47821,1,8
240,352,48158,1,8
288,288,48326,1,0
104,192,48663,1,0
168,144,48832,1,8
232,192,49000,1,0
296,144,49169,1,8
256,192,49253,12,0,50517
432,32,50686,6,0,B|384:32,1,40,0|0
408,56,50854,2,0,B|360:64,1,40,0|0
384,88,51023,2,0,B|338:104,1,40
368,120,51191,2,0,B|326:144,1,40,0|0
360,160,51360,2,0,B|323:190,1,40
352,200,51528,2,0,B|321:236,1,40,0|0
352,240,51697,2,0,B|328:281,1,40
312,296,51865,5,2
296,320,51950,1,0
272,328,52034,1,0
248,320,52118,1,0
232,296,52203,1,2
216,272,52287,1,0
200,248,52372,1,0
176,240,52456,1,0
152,248,52540,1,2
136,272,52625,1,0
120,296,52708,1,2
104,320,52793,1,0
80,328,52877,1,2
40,256,53045,5,2
88,192,53214,2,0,B|146:162|205:191,2,120,2|2|2
40,128,53888,1,2
88,64,54056,1,2
40,128,54225,1,2
88,64,54394,1,2
144,128,54562,5,2
168,112,54646,1,0
192,96,54731,1,0
216,80,54815,1,0
240,64,54899,1,2
264,80,54983,1,0
288,96,55068,1,0
312,112,55152,1,0
336,128,55236,1,2
312,144,55321,1,0
288,160,55405,1,2
264,176,55489,1,0
240,192,55573,6,0,B|240:280,1,80,2|0
304,320,55910,2,0,B|304:232,1,80,2|0
368,192,56247,2,0,B|368:280,1,80,2|0
432,224,56585,2,0,B|432:136,1,80,2|0
496,96,56922,2,0,B|496:184,1,80,2|0
496,256,57259,5,0
432,296,57427,1,0
368,336,57596,1,2
352,328,57680,1,0
336,320,57764,1,0
320,312,57849,1,0
304,304,57933,1,2
288,296,58017,1,0
272,288,58101,1,0
256,280,58186,1,0
240,272,58270,2,0,B|200:251,4,40,2|0|2|0|2
256,192,58776,5,0
256,112,58944,1,2
256,96,59028,1,0
256,80,59113,1,2
256,64,59197,1,0
256,48,59281,5,2
128,272,59618,1,8
384,272,59955,1,8
216,128,60292,5,2
192,112,60377,1,0
168,128,60461,1,2
179,153,60545,1,0
206,153,60629,1,2
306,231,60967,5,2
333,231,61051,1,0
344,256,61135,1,2
320,272,61219,1,0
296,256,61304,1,2
127,304,61641,6,0,B|95:336,1,40
108,279,61809,2,0,B|71:305,1,40
93,252,61978,2,0,B|52:272,1,40
84,223,62146,2,0,B|40:235,1,40
79,193,62315,2,0,B|34:197,1,40
80,163,62483,2,0,B|35:159,1,40
56,128,62652,5,2
64,104,62736,1,0
80,80,62821,1,0
104,64,62905,1,0
128,56,62989,1,2
152,64,63073,1,0
176,80,63158,1,0
192,104,63242,1,0
200,128,63326,1,2
208,152,63410,1,0
224,176,63495,1,2
248,192,63579,1,0
272,200,63663,1,2
352,208,63832,5,0
424,168,64000,2,0,B|424:40,2,120,2|2|2
496,208,64674,1,2
496,288,64843,1,2
424,328,65012,1,2
352,288,65180,1,2
424,248,65349,5,2
400,232,65433,1,0
376,216,65517,1,0
352,200,65601,1,0
328,184,65686,1,2
304,200,65770,1,0
280,216,65854,1,0
256,232,65938,1,0
232,248,66023,1,2
208,232,66107,1,0
184,216,66191,1,2
160,200,66276,1,0
136,184,66360,5,2
136,104,66528,2,0,B|48:104,1,80,0|2
136,104,66865,2,0,B|136:16,1,80,0|2
136,104,67203,2,0,B|224:104,1,80,0|2
136,104,67540,2,0,B|136:192,1,80,0|2
136,264,67877,1,2
192,320,68045,6,0,B|246:382|341:357,1,160,2|2
416,328,68551,1,0
424,312,68635,1,0
432,296,68719,1,2
440,280,68804,1,0
448,264,68888,1,0
456,248,68972,1,0
464,232,69056,1,2
472,216,69141,1,0
480,200,69225,1,2
488,184,69309,1,0
496,168,69394,1,2
368,80,69731,6,0,B|400:48,4,40,2|0|2|0|2
144,80,70405,6,0,B|112:48,4,40,2|0|2|0|2
200,264,71079,5,2
183,280,71163,1,0
166,297,71247,1,2
149,314,71331,1,0
132,331,71416,1,2
312,264,71753,5,2
329,280,71837,1,0
346,297,71921,1,2
363,314,72005,1,0
380,331,72090,1,2
256,352,72427,5,0
224,280,72596,1,0
256,208,72764,1,0
288,136,72933,1,0
256,64,73101,1,0
216,136,73270,6,0,L|192:136,4,20,8|8|8|0|8
256,32,75124,5,2
80,192,75461,1,2
80,192,75629,1,2
256,240,75882,1,2
432,192,76135,1,2
64,336,77483,5,2
448,48,77989,1,2
256,192,78495,5,2
256,192,78832,1,2
64,48,80180,5,2
448,336,80686,1,2
256,192,81192,5,2
256,192,81529,1,2
256,192,82034,1,2
256,192,82203,1,2
256,352,83888,5,8
256,328,83972,1,8
256,304,84056,1,8
256,280,84141,1,8
256,256,84225,1,8
120,168,84562,6,0,B|195:132|222:49,1,160,8|8
392,168,85236,2,0,B|317:132|290:49,1,160,8|8
256,192,85910,5,2
96,192,86247,1,2
176,192,86416,1,2
336,192,86753,1,2
416,192,86922,1,2
160,304,87259,5,8
352,304,87596,1,8
256,136,87933,1,8
256,240,88270,5,2
136,32,88776,1,2
376,32,89281,1,2
256,136,89618,1,2
72,192,89955,5,8
256,304,90292,1,8
440,192,90629,1,8
256,360,90967,5,2
480,192,91472,1,2
256,24,91978,1,2
256,24,92315,1,2
32,192,92821,1,2
256,360,93326,1,2
256,360,93663,1,2
216,192,94674,5,0
232,168,94759,1,0
256,160,94843,1,0
280,168,94927,1,0
296,192,95012,1,12
88,72,105798,5,2
104,80,105882,1,0
120,88,105967,1,0
136,96,106051,1,0
152,104,106135,1,2
160,120,106219,1,0
168,136,106304,1,0
176,152,106388,1,0
184,168,106472,1,2
200,176,106556,1,0
216,184,106641,1,2
232,192,106725,1,0
248,200,106809,1,2
320,232,106977,1,2
280,304,107146,2,0,B|152:304,2,120,2|2|2
360,304,107820,1,2
440,304,107988,1,2
400,232,108157,1,2
360,160,108326,1,2
320,88,108495,5,2
312,104,108579,1,0
296,112,108663,1,0
280,112,108747,1,0
264,104,108832,1,2
256,88,108916,1,0
248,72,109000,1,0
240,56,109085,1,0
232,40,109169,1,2
216,32,109253,1,0
200,32,109337,1,2
184,40,109422,1,0
176,56,109506,5,2
136,128,109674,2,0,B|91:204,1,80,2|2
56,264,110012,2,0,B|144:264,1,80,2|2
216,264,110349,2,0,B|172:187,1,80,2|2
136,128,110685,1,2
96,192,110854,1,2
56,264,111022,1,2
96,192,111191,5,2
136,128,111359,1,2
176,56,111528,1,2
192,64,111613,1,0
208,72,111697,1,0
224,80,111781,1,0
240,88,111865,1,2
256,96,111950,1,0
272,104,112034,1,0
288,112,112118,1,0
304,120,112203,2,0,B|342:139,4,40,2|0|2|0|2
256,224,112708,5,0
256,224,112876,1,2
256,248,112960,1,0
256,272,113045,1,2
256,296,113129,1,0
256,320,113213,1,2
384,192,113550,1,8
128,192,113888,1,8
352,88,114224,5,2
328,96,114309,1,0
304,112,114393,1,2
288,136,114477,1,0
280,160,114561,1,2
160,296,114899,5,2
184,288,114984,1,0
208,272,115068,1,2
224,248,115152,1,0
232,224,115236,1,2
24,48,115573,6,0,B|0:88,1,40
40,80,115742,2,0,B|23:123,1,40
64,104,115910,2,0,B|55:149,1,40
88,128,116079,2,0,B|87:174,1,40
120,152,116247,2,0,B|127:198,1,40
160,168,116416,2,0,B|175:212,1,40
200,176,116585,6,0,B|222:216,3,40,2|0|0|0
248,232,116922,2,0,B|290:248,3,40,2|0|0|0
312,272,117259,2,0,B|321:314,3,40,2|0|2|0
328,344,117596,5,2
402,313,117764,1,2
475,281,117932,1,2
432,168,118185,1,2
312,152,118438,1,2
248,104,118607,2,0,B|211:129|166:101,1,80,2|2
112,56,118944,2,0,B|75:31|30:59,1,80,2|2
33,177,119281,5,2
48,200,119365,1,0
75,207,119450,1,0
90,228,119534,1,0
118,235,119618,1,2
133,256,119703,1,0
158,256,119787,1,0
173,276,119871,1,0
199,277,119955,2,0,B|234:307,4,40,2|0|2|0|2
256,192,120460,5,2
336,112,120629,2,0,B|279:168,1,80,2|2
336,272,120967,2,0,B|279:215,1,80,2|2
176,272,121304,2,0,B|232:215,1,80,2|2
176,112,121641,2,0,B|232:168,1,80,2|2
320,72,121978,6,0,B|374:29|424:90|473:40,1,160,8|8
472,120,122483,1,0
464,136,122568,1,0
456,152,122652,1,2
448,168,122736,1,0
440,184,122821,1,0
432,200,122905,1,0
424,216,122989,2,0,B|404:253,4,40,2|0|2|0|2
120,80,123663,6,0,L|88:56,4,40,2|0|2|0|2
120,304,124337,6,0,L|88:328,4,40,2|0|2|0|2
392,304,125012,6,0,L|424:328,4,40,2|0|2|0|2
392,80,125686,6,0,L|424:56,4,40,2|0|2|0|2
56,192,126359,5,8
128,160,126528,1,0
200,192,126696,1,8
272,224,126865,1,0
344,192,127033,1,8
416,152,127202,2,0,L|440:152,4,20,8|8|8|8|12
256,24,127708,6,0,B|216:80|285:124|254:180,1,160,8|8
401,107,128382,2,0,B|332:101|329:183|265:184,1,160,8|8
401,276,129056,2,0,B|372:213|300:251|267:196,1,160,8|8
255,360,129731,2,0,B|296:303|227:260|258:204,1,160,0|8
110,276,130405,2,0,B|179:282|182:200|246:199,1,160,8|8
110,108,131079,2,0,B|139:170|211:132|244:187,1,160,8|8
243,185,131753,1,8
