osu file format v9

[General]
AudioFilename: Pure Ruby.mp3
AudioLeadIn: 2500
PreviewTime: 78697
Countdown: 0
SampleSet: Soft
StackLeniency: 0.5
Mode: 0
LetterboxInBreaks: 0

[Editor]
Bookmarks: 11282,35551,78697,101113,121844
DistanceSpacing: 1
BeatDivisor: 4
GridSize: 4

[Metadata]
Title:Pure Ruby
Artist:SHIKI
Creator:Glass
Version:Normal
Source:BMS
Tags:Trancer Doll's

[Difficulty]
HPDrainRate:2
CircleSize:3
OverallDifficulty:3
ApproachRate:3
SliderMultiplier:1
SliderTickRate:1

[Events]
//Background and Video events
0,0,"Pure Ruby.jpg"
//Break Periods
2,33139,34196
//Storyboard Layer 0 (Background)
//Storyboard Layer 1 (Fail)
//Storyboard Layer 2 (Pass)
//Storyboard Layer 3 (Foreground)
Sprite,Foreground,Centre,"Black.png",320,240 F,0,32939,34624,1 S,0,32939,34624,2.5 F,0,34624,121928,0
Animation,Foreground,Centre,"IntroTrance\IntroTrance.png",320,240,24,42,LoopForever S,0,32939,33950,2.5
Animation,Foreground,Centre,"IntroRuby\IntroRuby.png",320,240,24,42,LoopForever S,0,34287,35256,2.5
Sprite,Foreground,Centre,"IntroRuby\IntroRuby24.png",320,240 S,0,35256,,2.5 F,0,35256,35636,1
Sprite,Foreground,Centre,"IntroRuby\Pure Ruby.jpg",320,240 S,0,35256,,0.625 F,0,35256,35636,0,1
//Storyboard Sound Samples
//Background Colour Transformations
3,100,0,0,0

[TimingPoints]
580,337.078651685393,4,1,1,40,1,0
664,-100,4,2,1,70,0,0
1844,-100,4,1,1,40,0,0
2012,-100,4,2,1,70,0,0
3192,-100,4,1,1,40,0,0
3360,-100,4,2,1,70,0,0
4540,-100,4,1,1,40,0,0
4709,-100,4,2,1,70,0,0
5888,-100,4,1,1,40,0,0
6057,-100,4,2,1,70,0,0
7237,-100,4,1,1,40,0,0
7405,-100,4,2,1,70,0,0
8585,-100,4,1,1,40,0,0
8754,-100,4,2,1,70,0,0
35551,-100,4,2,1,70,0,0
78782,-100,4,2,1,70,0,1
78866,-100,4,2,1,70,0,0
89568,-100,4,2,1,70,0,1
89653,-100,4,2,1,70,0,0

[Colours]
Combo1 : 232,162,221
Combo2 : 215,0,107
Combo3 : 255,47,68

[HitObjects]
488,88,580,2,0,B|504:192,1,100,0|8
404,192,1254,1,2
370,208,1422,1,0
353,242,1591,1,8
320,340,1928,2,0,B|220:356,1,100,0|8
220,260,2602,2,0,B|120:276,1,100,2|8
24,296,3276,6,0,B|8:192,1,100,0|8
108,192,3950,1,2
142,176,4118,1,0
159,142,4287,1,8
192,44,4624,2,0,B|292:28,1,100,0|8
292,124,5298,2,0,B|392:108,1,100,2|8
396,208,5973,6,0,B|416:256|396:304,1,100,0|8
308,352,6647,1,2
300,304,6815,1,0
308,256,6984,1,8
204,256,7321,2,0,B|224:304|204:352,1,100,0|8
116,304,7995,2,0,B|96:256|116:208,1,100,2|8
204,156,8669,6,0,B|256:144|256:168|308:156,1,100,0|8
396,192,9344,2,0,B|444:184,2,50,2|0|8
388,296,10018,5,8
304,356,10355,1,8
208,356,10692,1,8
124,296,11029,1,8
208,244,11366,6,0,B|256:264|304:244,1,100,4|8
304,140,12040,2,0,B|256:120|208:140,1,100,0|8
120,92,12714,2,0,B|72:112|53:160,1,100,2|8
92,192,13220,2,0,B|141:212|160:260,1,100,2|0
212,280,13726,2,0,B|212:328,2,50,8|0|2
256,192,14400,1,8
300,280,14737,6,0,B|300:328,2,50,0|0|8
392,292,15411,2,0,B|441:273|460:225,1,100,2|8
420,192,15917,2,0,B|372:173|353:125,1,100,2|0
304,100,16422,2,0,B|256:80|208:100,1,100,8|2
256,192,17096,1,8
172,248,17433,6,0,B|196:288|256:316|316:288|340:248,1,200,2|4
256,124,18613,1,0
172,248,19119,1,8
136,140,19456,6,0,B|172:68|256:32|340:68|376:140,1,300,4|8
376,244,20804,2,0,B|340:316|256:352|172:316|136:244,1,300,4|8
36,244,22153,2,0,B|28:192|36:140,1,100,4|8
128,168,22827,6,0,B|177:148|218:116,1,100,0|8
304,120,23501,2,0,B|312:220,1,100,2|8
360,220,24006,2,0,B|368:320,1,100,2|0
420,320,24512,2,0,B|424:372,2,50,8|0|2
456,228,25186,1,8
384,168,25523,6,0,B|334:148|293:116,1,100,0|8
208,120,26197,2,0,B|200:220,1,100,2|8
152,220,26702,2,0,B|144:320,1,100,2|0
92,320,27208,2,0,B|88:372,2,50,8|0|2
56,228,27882,1,8
156,192,28220,6,0,B|256:212|256:172|356:192,1,200,2|4
328,340,29400,1,0
184,340,29905,1,8
256,192,30242,12,4,32939
180,40,35636,6,0,B|256:52|256:28|332:40,1,150,2|0
180,120,36647,2,0,B|256:132|256:108|332:120,1,150,2|0
442,205,37658,2,0,B|424:304,1,100,2|0
332,344,38332,6,0,B|256:332|256:356|180:344,1,150,2|0
332,264,39343,2,0,B|256:252|256:276|180:264,1,150,2|0
69,178,40355,2,0,B|88:80,1,100,2|2
184,120,41029,6,0,B|220:192|184:264,1,150,8|8
52,336,42040,2,0,B|16:264|52:192,1,150,8|8
184,120,43051,1,8
256,48,43388,1,8
328,120,43726,6,0,B|292:192|328:264,1,150,8|8
460,336,44737,2,0,B|496:264|460:192,1,150,8|8
328,120,45748,1,8
256,48,46085,1,8
184,120,46422,6,0,B|112:72|28:108|-4:192|28:276|112:312|184:264,1,400,4|2
380,324,48445,2,0,B|380:272,2,50,2|0|8
480,324,49119,2,0,B|480:192|352:192|352:60,1,300,2|8
256,92,50467,6,0,B|104:92,2,150,2|2|2
256,192,51815,2,0,B|408:192,2,150,2|2|2
256,292,53164,2,0,B|104:292,2,150,2|2|2
352,308,54512,6,0,B|432:276|460:192|432:108|352:76,1,300,2|8
256,108,55860,2,0,B|216:132|188:192|216:252|256:276,1,200,2|2
324,192,56872,1,8
364,104,57209,6,0,B|300:144|256:104|192:72|192:8|256:-24|320:8|320:72|256:104|212:144|148:104,1,400,4|2
52,280,59232,2,0,B|0:280,2,50,2|0|8
124,348,59906,2,0,B|256:348|256:220|388:220,1,300,2|8
484,220,61254,6,0,B|512:72,2,150,2|2|2
400,164,62602,2,0,B|428:312,2,150,2|2|2
316,220,63950,2,0,B|344:72,2,150,2|2|2
264,308,65299,6,0,B|184:276|156:192|184:108|264:76,1,300,2|8
360,108,66647,2,0,B|400:132|428:192|400:252|360:276,1,200,2|2
292,192,67659,1,8
256,100,67995,6,0,B|207:119|188:167,1,100,4|8
140,152,68501,2,0,B|104:224|140:296,1,150,0|8
256,284,69344,6,0,B|304:264|323:216,1,100,2|8
372,232,69849,2,0,B|408:160|372:88,1,150,0|8
256,100,70692,6,0,B|152:80,1,100,2|8
156,180,71366,2,2,B|105:169,1,50
28,232,71872,2,0,B|8:280|28:328,2,100,2|2|2
196,252,73051,5,8
140,336,73388,2,0,B|200:380|256:336|256:336|312:380|372:336,1,250,2|2
316,252,74568,1,2
304,152,74905,1,2
208,152,75242,1,2
92,72,75748,5,8
92,72,76085,2,0,B|20:108|-16:192|20:276|92:312,1,300,2|8
192,316,77433,2,0,B|192:364,2,50,2|0|8
244,232,78108,2,0,B|292:212|340:232,1,100,8|8
440,240,78782,6,0,B|456:140,1,100,4|8
356,140,79456,2,0,B|340:40,1,100,2|8
244,32,80131,2,0,B|208:16|172:32,2,75,2|2|2
248,84,80805,2,0,B|228:133|179:152,1,100,2|8
72,144,81478,6,0,B|56:244,1,100,2|8
156,244,82152,2,0,B|172:344,1,100,2|8
268,352,82827,2,0,B|304:368|340:352,2,75,2|2|2
268,292,83501,2,0,B|304:308|340:292,2,75,2|2|2
268,240,84175,6,0,B|168:228,1,100,4|8
68,228,84849,2,0,B|48:180|68:132,1,100,2|8
168,132,85523,2,0,B|188:84|168:36,1,100,2|8
256,84,86197,1,2
344,36,86535,1,8
432,84,86872,6,0,B|342:143|336:250,1,200,2|2
176,250,88220,2,0,B|169:143|80:84,1,200,2|2
236,96,89568,6,0,B|287:89|319:48,1,100,4|8
320,148,90242,2,0,B|368:168|416:148,1,100,2|8
420,240,90917,2,0,B|492:268,2,75,2|2|2
368,240,91591,2,0,B|388:288|368:336,1,100,2|8
276,288,92265,6,0,B|224:294|192:336,1,100,2|8
192,236,92939,2,0,B|144:216|96:236,1,100,2|8
92,144,93614,2,0,B|20:116,2,75,2|2|2
92,96,94287,2,0,B|20:68,2,75,2|2|2
136,120,94962,6,0,B|240:120,1,100,4|8
332,144,95636,2,0,B|352:192|332:240,1,100,2|8
244,288,96310,2,0,B|224:240|244:192,1,100,2|8
148,160,96984,1,2
84,240,97321,1,8
148,320,97658,5,2
364,320,98332,1,2
424,148,99006,1,2
256,32,99681,1,2
88,148,100355,1,4
72,336,101197,6,0,B|23:315|3:267,2,100,2|0|2
100,240,102209,2,0,B|177:214|202:138,1,150,2|8
256,224,103051,2,0,B|256:328,1,100,2|8
440,336,103894,6,0,B|490:315|510:267,2,100,2|0|2
412,240,104906,2,0,B|336:214|311:138,1,150,2|8
256,52,105748,1,2
304,344,106591,6,0,B|256:364|208:344,2,100,2|0|2
328,248,107602,2,0,B|256:212|184:248,1,150,2|8
100,192,108445,2,0,B|64:120|100:48,1,150,2|2
208,40,109287,6,0,B|256:20|304:40,2,100,2|0|2
184,136,110298,2,0,B|256:172|328:136,1,150,2|8
412,192,111141,1,2
132,232,111984,6,0,B|180:211|200:163,2,100,2|0|2
60,304,112995,2,0,B|24:232|60:160,1,150,2|8
100,68,113838,2,0,B|200:68,1,100,2|8
380,152,114681,6,0,B|331:172|311:220,2,100,2|0|2
452,80,115692,2,0,B|488:152|452:224,1,150,2|8
412,316,116535,1,2
152,280,117377,6,0,B|104:300|56:280,2,100,2|0|2
104,192,118388,2,0,B|129:115|205:90,1,150,2|8
256,172,119231,2,0,B|284:248|228:248|256:324,1,150,2|2
360,280,120074,6,0,B|408:300|456:280,2,100,2|0|2
408,192,121085,2,0,B|382:115|306:90,1,150,2|8
256,172,121928,1,4
