osu file format v9

[General]
AudioFilename: Pure Ruby.mp3
AudioLeadIn: 2500
PreviewTime: 78697
Countdown: 0
SampleSet: Normal
StackLeniency: 0.5
Mode: 0
LetterboxInBreaks: 0

[Editor]
Bookmarks: 9933,31591,35551,46338,78697,101113,121844
DistanceSpacing: 1.1
BeatDivisor: 4
GridSize: 4

[Metadata]
Title:Pure Ruby
Artist:SHIKI
Creator:Glass
Version:Hyper
Source:BMS
Tags:Trancer Doll's

[Difficulty]
HPDrainRate:5
CircleSize:4
OverallDifficulty:6
ApproachRate:6
SliderMultiplier:1.4
SliderTickRate:1

[Events]
//Background and Video events
0,0,"Pure Ruby.jpg"
//Break Periods
2,33139,34586
//Storyboard Layer 0 (Background)
//Storyboard Layer 1 (Fail)
//Storyboard Layer 2 (Pass)
//Storyboard Layer 3 (Foreground)
Sprite,Foreground,Centre,"Black.png",320,240 F,0,32939,34624,1 S,0,32939,34624,2.5 F,0,34624,121928,0
Animation,Foreground,Centre,"IntroTrance\IntroTrance.png",320,240,24,42,LoopForever S,0,32939,33950,2.5
Animation,Foreground,Centre,"IntroRuby\IntroRuby.png",320,240,24,42,LoopForever S,0,34287,35256,2.5
Sprite,Foreground,Centre,"IntroRuby\IntroRuby24.png",320,240 S,0,35256,,2.5 F,0,35256,35636,1
Sprite,Foreground,Centre,"IntroRuby\Pure Ruby.jpg",320,240 S,0,35256,,0.625 F,0,35256,35636,0,1
//Storyboard Sound Samples
//Background Colour Transformations
3,100,0,0,0

[TimingPoints]
580,337.078651685393,4,1,1,40,1,0
664,-100,4,2,1,70,0,0
1844,-100,4,1,1,40,0,0
2012,-100,4,2,1,70,0,0
3192,-100,4,1,1,40,0,0
3360,-100,4,2,1,70,0,0
4540,-100,4,1,1,40,0,0
4709,-100,4,2,1,70,0,0
5888,-100,4,1,1,40,0,0
6057,-100,4,2,1,70,0,0
7237,-100,4,1,1,40,0,0
7405,-100,4,2,1,70,0,0
8585,-100,4,1,1,40,0,0
8754,-100,4,2,1,70,0,0
35551,-100,4,2,1,70,0,0
78782,-100,4,2,1,70,0,1
78866,-100,4,2,1,70,0,0
89568,-100,4,2,1,70,0,1
89653,-100,4,2,1,70,0,0

[Colours]
Combo1 : 232,162,221
Combo2 : 215,0,107
Combo3 : 255,47,68

[HitObjects]
280,192,580,2,0,B|272:156|280:124,1,70,4|0
324,60,917,2,0,B|328:40|324:24,2,35,8|0|0
356,132,1254,2,0,B|428:124,1,70
440,200,1591,2,0,B|512:208,1,70,8|0
496,284,1928,2,0,B|488:320|496:352,1,70,4|0
420,324,2265,1,8
408,346,2349,1,0
386,357,2433,1,0
308,356,2602,2,0,B|240:348,1,70
256,272,2939,2,0,B|186:263,1,70,8|0
232,192,3276,6,0,B|240:156|232:124,1,70,4|0
188,60,3613,2,0,B|184:40|188:24,2,35,8|0|0
156,132,3950,2,0,B|84:124,1,70
72,200,4287,2,0,B|0:208,1,70,8|0
16,284,4624,2,0,B|24:320|16:352,1,70,4|0
92,324,4961,1,8
104,346,5045,1,0
126,357,5129,1,0
204,356,5298,2,0,B|272:348,1,70
256,272,5635,2,0,B|325:263,1,70,8|0
360,192,5973,6,0,B|391:172|408:143,1,70,4|0
376,72,6310,2,0,B|376:36,2,35,8|0|0
300,52,6647,2,0,B|263:60|230:52,1,70
188,116,6984,2,0,B|156:135|139:164,1,70,8|0
64,152,7321,2,0,B|54:188|63:220,1,70,4|0
128,264,7658,1,8
124,292,7742,1,0
120,320,7827,1,0
184,360,7995,2,0,B|210:333|218:301,1,70
284,256,8332,2,0,B|292:220|284:188,1,70,8|0
360,192,8669,6,0,B|391:212|408:241,1,70,4|0
376,312,9006,2,0,B|376:348,2,35,8|0|0
300,332,9343,2,0,B|263:323|230:332,1,70
188,268,9680,2,0,B|156:249|139:220,1,70,8|0
68,192,10018,5,8
176,68,10355,1,8
336,68,10692,1,8
444,192,11029,2,0,B|480:184,2,35,8|0|0
368,192,11366,6,0,B|300:220|271:288,1,140,4|8
108,300,12040,2,0,B|108:340,2,35,2|0|0
36,276,12377,2,0,B|36:316,2,35,8|0|0
92,224,12714,2,0,B|64:156|92:88,1,140,2|8
172,16,13220,2,0,B|200:84|172:152,1,140,2|0
204,224,13726,1,8
276,192,13894,1,0
308,263,14063,2,0,B|448:263,1,140,4|8
480,80,14737,6,0,B|476:44,2,35,2|0|0
404,60,15074,2,0,B|387:27,2,35,8|0|0
360,124,15411,2,0,B|388:192|360:260,1,140,2|8
284,260,15917,2,0,B|144:260,1,140,2|0
144,336,16422,2,0,B|284:336,2,140,8|4|8
52,228,17433,6,0,B|20:252,2,35,2|0|0
52,156,17771,2,0,B|20:132,2,35,8|0|0
120,192,18108,2,0,B|187:163|216:95,1,140,2|8
295,95,18613,2,0,B|324:163|392:192,1,140,2|0
460,156,19119,1,8
468,296,19456,6,0,B|400:296,1,70,4|0
328,264,19793,2,0,B|336:300|328:332,1,70,8|0
256,368,20130,2,0,B|248:332|256:300,1,70,2|0
268,224,20467,2,0,B|200:224,1,70,8|0
128,192,20804,6,0,B|96:172|79:143,1,70,4|0
152,116,21141,2,0,B|183:96|200:67,1,70,8|0
280,68,21478,2,0,B|292:136,1,70,2|0
368,124,21815,2,0,B|356:192,1,70,8|0
292,236,22153,2,0,B|264:304|292:372,1,140,4|8
432,308,22827,6,0,B|440:352,2,35,2|0|0
500,268,23164,2,0,B|508:312,2,35,8|0|0
480,192,23501,2,0,B|452:124|480:56,1,140,2|8
408,28,24006,2,0,B|268:28,1,140,2|0
272,104,24512,2,0,B|204:104,1,70,8|0
128,124,24849,2,0,B|100:192|128:260,1,140,4|8
292,240,25523,6,0,B|323:222,2,35,2|0|0
256,312,25860,2,0,B|292:312,2,35,8|0|0
184,280,26197,2,0,B|116:252|48:280,1,140,2|8
100,340,26703,2,0,B|128:272|100:204,1,140,2|0
176,192,27209,2,0,B|243:163|272:95,2,140,8|4|8
92,84,28220,6,0,B|88:48,2,35,2|0|0
16,64,28557,2,0,B|-1:31,2,35,8|0|0
36,140,28894,2,0,B|8:208|36:276,1,140,2|8
80,340,29400,2,0,B|220:340,1,140,2|0
264,276,29905,1,8
480,192,30242,6,0,B|472:156|480:124,1,70,4|0
408,52,30579,2,0,B|416:88|408:120,1,70,8|0
372,192,30917,2,0,B|304:184,1,70,2|0
256,120,31254,2,0,B|188:128,1,70,8|0
144,192,31591,6,0,B|152:228|144:260,1,70,4|0
72,296,31928,2,0,B|64:260|72:228,1,70,8|0
76,148,32265,2,0,B|4:136,1,70,2|0
6,59,32602,2,0,B|75:70,1,70,8|0
144,108,32939,5,4
160,328,35636,5,0
352,328,36141,1,0
412,156,36647,1,0
256,36,37153,1,0
100,156,37658,1,0
28,156,37827,1,0
0,228,37995,1,8
64,272,38164,1,0
128,228,38332,5,8
256,368,38838,1,0
384,228,39344,1,0
256,160,39681,1,8
256,84,39849,5,0
164,316,40355,1,0
348,316,40692,1,0
348,316,41029,6,8,B|272:220|348:124,1,210
464,28,42040,2,8,B|540:124|464:220,1,210
348,316,43051,1,8
256,376,43388,1,8
164,316,43726,6,8,B|240:220|164:124,1,210
48,28,44737,2,8,B|-28:124|48:220,1,210
164,316,45748,1,8
256,376,46085,1,8
348,316,46422,6,0,B|488:316,1,140,4|8
488,162,47096,2,0,B|348:162,1,140,0|8
220,252,47771,2,0,B|152:280|84:252,1,140,2|8
0,156,48445,2,0,B|12:124|0:88,1,70,2|0
72,16,48782,2,0,B|60:48|72:84,1,70,8|0
120,148,49119,2,0,B|188:176|256:148,1,140,2|8
392,76,49793,2,0,B|324:48|256:76,1,140,0|8
256,220,50467,5,2
364,172,50973,1,0
472,220,51478,1,8
256,252,51815,5,2
148,300,52321,1,0
40,252,52826,1,8
256,284,53164,5,2
364,236,53670,1,0
472,284,54175,1,8
256,320,54512,5,2
128,192,54849,1,8
256,64,55186,1,0
408,124,55523,1,8
384,192,55692,1,0
408,260,55860,2,0,B|196:260,1,210,2|0
188,336,56535,2,0,B|256:364|324:336,1,140,2|8
312,192,57209,5,4
176,80,57546,1,8
336,80,57883,1,0
200,192,58220,1,8
60,260,58557,2,0,B|32:192|60:124,1,140,2|8
164,36,59231,6,0,B|236:36,1,70,2|0
324,104,59568,2,0,B|252:104,1,70,8|0
348,36,59905,6,0,B|416:64|484:36,1,140,2|8
164,36,60579,2,0,B|96:8|28:36,1,140,0|8
140,136,61254,5,2
256,192,61759,1,0
372,136,62265,1,8
420,192,62602,5,2
256,268,63108,1,0
92,192,63613,1,8
48,252,63950,5,2
256,344,64456,1,0
464,252,64962,1,8
428,88,65299,6,0,B|360:60|292:88,1,140,2|8
84,88,65973,2,0,B|152:116|220:88,1,140,0|8
256,24,66478,1,0
292,88,66647,6,0,B|304:120|292:156,1,70,2|0
220,224,66984,2,0,B|208:192|221:156,1,70,8|0
291,227,67321,2,0,B|304:263|292:296,1,70,8|0
256,356,67658,1,8
60,356,67995,6,0,B|32:288|60:220,1,140,4|8
140,151,68501,2,0,B|168:219|140:288,1,140,2|0
220,288,69006,2,0,B|288:288,1,70,8|0
367,288,69344,6,0,B|435:260|464:192,1,140,2|8
387,192,69849,2,0,B|319:164|290:96,1,140,2|8
288,20,70355,2,0,B|256:8|220:20,1,70,8|0
160,68,70692,5,2
352,68,71029,1,8
256,192,71366,1,2
256,192,71535,1,2
496,192,71872,6,0,B|508:160|496:124,1,70,2|0
420,192,72209,2,0,B|408:224|420:260,1,70,2|8
396,332,72546,2,0,B|256:332,1,140,2|0
188,300,73051,2,0,B|188:264,2,35,8|0|0
116,328,73388,5,2
32,192,73726,1,8
116,56,74063,1,0
188,84,74231,5,2
364,124,74568,1,2
324,300,74905,1,2
148,260,75242,1,2
56,92,75579,6,0,B|44:60|56:24,2,70,2|8|0
120,131,76085,2,0,B|147:198|120:267,1,140,2|8
48,300,76591,2,0,B|192:300,1,140,2|0
256,340,77096,1,8
408,52,77433,6,0,B|424:120,1,70,4|0
500,124,77771,2,0,B|484:192,1,70,8|0
512,264,78108,2,0,B|439:273|393:331,1,140,8|8
224,324,78782,6,0,B|224:360,2,35,4|0|0
160,284,79119,2,0,B|142:315,2,35,8|0|0
124,216,79456,2,0,B|92:234,2,35,2|0|0
180,160,79793,2,0,B|192:124|180:88,1,70,8|0
116,48,80130,6,2,B|8:48,2,105
116,48,80804,1,2
112,124,80973,1,0
180,160,81141,1,8
248,128,81310,1,0
288,60,81478,6,0,B|288:24,2,35,4|0|0
352,100,81815,2,0,B|370:68,2,35,8|0|0
388,168,82152,2,0,B|419:149,2,35,2|0|0
332,224,82489,2,0,B|320:260|332:296,1,70,8|0
396,336,82826,6,2,B|504:336,2,105
396,260,83501,2,2,B|504:260,2,105
396,184,84175,6,0,B|388:148|396:116,1,70,4|0
328,24,84512,2,0,B|336:60|328:92,1,70,8|0
250,93,84849,2,0,B|214:89,2,35,2|0|0
214,161,85186,2,0,B|178:165,2,35,8|0|0
256,228,85523,2,0,B|284:296|256:365,1,140,2|8
124,348,86197,5,2
56,192,86535,1,8
124,36,86872,6,0,B|256:120|388:36,1,280,2|2
388,348,88220,2,0,B|256:264|124:348,1,280,2|2
36,192,89568,6,0,B|0:192,2,35,4|0|0
49,116,89905,2,0,B|15:104,2,35,8|0|0
87,50,90242,2,0,B|59:27,2,35,2|0|0
156,88,90579,2,0,B|228:88,1,70,8|0
280,36,90917,6,2,B|260:88|280:140,2,105
280,36,91591,1,2
351,69,91759,1,0
396,133,91928,1,8
403,212,92096,1,0
476,192,92265,6,0,B|512:192,2,35,4|0|0
462,267,92602,2,0,B|496:279,2,35,8|0|0
424,333,92939,2,0,B|452:356,2,35,2|0|0
356,296,93276,2,0,B|284:296,1,70,8|0
216,332,93613,6,2,B|164:344|112:332,2,105
216,256,94287,2,2,B|164:276|112:256,2,105,2|2|2
164,192,94962,6,0,B|156:156|164:124,1,70,4|0
236,88,95299,2,0,B|244:124|236:156,1,70,8|0
304,192,95636,2,0,B|312:156,2,35,2|0|0
368,236,95973,2,0,B|376:200,2,35,8|0|0
368,312,96310,2,0,B|508:312,1,140,2|8
412,192,96984,5,2
366,81,97321,1,8
256,36,97658,5,2
100,192,98332,1,2
256,348,99006,1,2
412,192,99681,2,8,B|480:192,2,70
256,192,100355,1,4
44,56,101197,6,0,B|17:124|44:192,1,140,2|0
115,329,101872,2,0,B|143:261|116:192,1,140,2|0
216,124,102546,2,0,B|224:92|216:56,2,70,2|8|0
256,192,103051,2,0,B|400:192,1,140,2|8
468,328,103894,6,0,B|495:260|468:192,1,140,2|0
397,55,104569,2,0,B|369:123|396:192,1,140,2|0
296,260,105243,2,0,B|288:292|296:328,2,70,2|8|0
256,192,105748,1,2
188,44,106591,6,0,B|256:17|324:44,1,140,2|0
324,200,107265,2,0,B|256:227|188:200,1,140,2|0
76,96,107939,2,0,B|76:28,2,70,2|8|0
12,140,108445,2,0,B|-15:208|12:276,1,140,2|8
40,348,108950,2,0,B|180:348,1,140,2|0
324,240,109624,2,0,B|256:213|188:240,1,140,2|0
332,348,110299,2,0,B|472:348,1,140,2|0
499,276,110804,1,8
499,276,111141,1,4
428,140,111984,6,0,B|436:72,1,70,2|8
356,96,112321,2,0,B|348:28,1,70
280,68,112658,2,0,B|212:95|144:68,1,140,2|0
52,192,113332,1,2
130,212,113501,1,8
187,270,113669,1,0
208,348,113838,1,2
208,348,114175,1,8
428,244,114681,6,0,B|436:312,1,70,2|8
356,288,115018,2,0,B|348:356,1,70
280,316,115355,2,0,B|212:289|144:316,1,140,2|0
52,192,116029,1,2
130,172,116198,1,8
187,114,116366,1,0
208,36,116535,1,2
480,88,117377,6,0,B|453:156|480:224,1,140,2|0
368,292,118051,2,0,B|395:224|368:156,1,140,2|0
324,36,118726,1,2
246,56,118895,1,8
189,114,119063,1,0
168,192,119231,2,0,B|28:192,1,140,2|8
28,269,119737,2,0,B|168:269,1,140,2|2
304,344,120411,5,2
407,144,120748,1,0
208,40,121085,1,2
104,240,121422,1,2
104,240,121591,1,2
256,192,121928,1,4
