osu file format v9

[General]
AudioFilename: 01 Mercury Lamp.mp3
AudioLeadIn: 0
PreviewTime: 56606
Countdown: 1
SampleSet: Normal
StackLeniency: 0.3
Mode: 0
LetterboxInBreaks: 1

[Editor]
Bookmarks: 70187,109371,135493
DistanceSpacing: 1.2
BeatDivisor: 4
GridSize: 8

[Metadata]
Title:Mercury Lamp
Artist:SHIKI
Creator:kiddly
Version:Normal
Source:
Tags:Dr_Dy Trancer Doll's

[Difficulty]
HPDrainRate:2
CircleSize:3
OverallDifficulty:3
ApproachRate:5
SliderMultiplier:0.8
SliderTickRate:1

[Events]
//Background and Video events
0,0,"1.jpg"
//Break Periods
//Storyboard Layer 0 (Background)
//Storyboard Layer 1 (Fail)
//Storyboard Layer 2 (Pass)
//Storyboard Layer 3 (Foreground)
//Storyboard Sound Samples
//Background Colour Transformations
3,100,163,162,255

[TimingPoints]
16334,408.163265306122,4,2,0,59,1,0
28953,-100,4,2,0,70,0,0
30799,-100,4,1,0,40,0,0
35381,-100,4,1,1,40,0,0
35585,-100,4,1,0,40,0,0
36197,-100,4,1,1,40,0,0
36402,-100,4,1,0,40,0,0
41912,-100,4,1,1,40,0,0
42116,-100,4,1,0,40,0,0
52524,-100,4,1,1,40,0,0
52728,-100,4,1,0,40,0,0
53340,-100,4,1,1,40,0,0
53544,-100,4,1,0,40,0,0
57024,-83.3333333333333,4,2,0,70,0,0
63656,-100,4,2,0,78,0,0
68554,-83.3333333333333,4,2,0,78,0,0
70085,-83.3333333333333,4,1,0,60,0,0
81810,-83.3333333333333,4,1,0,40,0,0
82218,-83.3333333333333,4,1,0,20,0,0
82422,-83.3333333333333,4,1,0,20,0,0
82626,-83.3333333333333,4,1,0,60,0,0
83238,-100,4,1,0,60,0,0
96606,-100,4,1,1,60,0,0
96810,-100,4,1,0,60,0,0
103136,-100,4,1,1,60,0,0
103340,-100,4,1,0,60,0,0
107534,-100,4,1,0,50,0,0
109361,-133.333333333333,4,1,0,50,0,0
112830,-133.333333333333,4,2,0,50,0,0
114055,-133.333333333333,4,1,0,50,0,0
114463,-133.333333333333,4,2,0,50,0,0
115687,-133.333333333333,4,1,0,50,0,0
119361,-133.333333333333,4,2,0,50,0,0
122218,-100,4,1,0,50,0,0
135391,-100,4,2,0,61,0,0

[Colours]
Combo1 : 192,192,192
Combo2 : 120,153,252
Combo3 : 192,157,101

[HitObjects]
190,141,16334,2,0,B|274:126|346:174,3,160
344,264,19599,2,0,B|278:320|192:316,3,160
192,232,22864,5,0
296,264,23680,1,0
320,152,24497,1,0
216,128,25313,1,0
160,240,26129,5,2
336,312,26946,1,2
328,120,27762,2,0,B|392:104,2,60,2|0|0
304,160,28578,2,0,B|240:176,2,60,2|0|0
256,192,29395,12,0,30517
136,104,31027,5,4
56,152,31436,1,0
144,184,31844,1,0
224,136,32252,1,0
224,136,32456,1,0
224,136,32660,5,0
416,168,33476,1,0
288,312,34293,1,0
224,136,35109,2,0,B|296:96|392:88,2,160
144,184,37150,1,0
144,184,37354,1,0
144,184,37558,5,0
80,256,37966,1,0
176,256,38374,1,0
240,184,38782,1,0
240,184,38987,1,0
240,184,39191,5,0
440,152,40007,1,0
368,328,40823,1,0
240,184,41640,2,0,B|320:192|400:240,1,160
304,280,42864,1,8
208,264,43272,1,0
144,184,43680,1,0
144,184,43885,1,0
144,184,44089,5,0
128,88,44497,2,0,B|216:112,1,80,0|0
296,136,45313,1,0
296,136,45517,1,0
296,136,45721,5,0
384,96,46129,2,0,B|384:176,1,80,0|0
440,256,46946,2,0,B|352:280,1,80,0|0
272,248,47762,2,0,B|184:240|112:272,2,160,8|8|0
216,168,49803,1,0
288,104,50211,1,0
288,104,50415,1,0
288,104,50619,6,0,B|336:160|352:248,1,160
408,168,51844,1,0
408,168,52048,1,0
408,168,52252,6,0,B|328:168|248:200,3,160
256,192,55109,12,0,56742
56,256,57150,6,0,B|88:296|144:312,1,96.0000022888184,4|0
184,208,57966,2,0,B|225:114|345:82,1,192.000004577637
432,144,59191,1,2
432,256,59599,1,0
328,200,60007,1,2
328,88,60415,6,0,B|232:48,1,96.0000022888184
216,160,61231,2,0,B|136:232,1,96.0000022888184
32,192,62048,1,0
56,304,62456,1,2
168,336,62864,1,0
256,264,63272,1,2
232,152,63680,5,0
288,80,64089,1,0
376,112,64497,2,0,B|400:168|400:232,1,120,0|2
400,229,65313,5,0
360,320,65721,1,0
264,320,66129,2,0,B|192:320|152:280,1,120,0|2
154,281,66946,5,0
104,200,67354,1,0
136,112,67762,2,0,B|184:64|256:64,1,120,0|2
242,65,68578,5,0
200,176,68987,1,2
312,208,69395,1,0
272,320,69803,1,2
272,320,70211,5,4
160,304,70619,2,0,B|200:208|320:208,1,192.000004577637,0|8
272,320,71844,1,0
160,304,72252,2,0,B|104:208|176:104,1,192.000004577637,0|8
232,216,73476,5,0
232,216,73885,1,0
160,304,74293,2,0,B|48:304,1,96.0000022888184,0|8
152,232,75109,2,0,B|248:232,1,96.0000022888184
160,160,75925,2,0,B|56:160,1,96.0000022888184,0|8
144,72,76742,5,0
256,104,77150,1,0
368,136,77558,2,0,B|448:128,2,72.0000017166138,0|0|0
368,136,78374,5,0
256,160,78782,1,0
144,176,79191,2,0,B|64:152,2,72.0000017166138,0|0|0
144,176,80007,5,0
256,200,80415,1,0
368,224,80823,2,0,B|448:216,2,72.0000017166138,0|0|0
368,224,81640,5,0
208,248,82048,1,0
368,288,82456,1,0
208,312,82864,1,0
208,312,83068,1,0
208,312,83272,6,0,B|288:280|376:288,1,160,4|0
364,287,84293,2,0,B|416:296,2,40
364,287,84905,5,0
272,264,85313,1,8
192,216,85721,1,0
144,128,86129,1,8
240,104,86538,6,0,B|312:88,2,60
264,144,87354,2,0,B|328:144,2,60
272,192,88170,2,0,B|336:224,2,60
272,240,88987,2,0,B|304:304,2,60
272,240,89803,6,0,B|320:160|408:144,1,160
396,146,90823,2,0,B|447:135,2,40
396,146,91436,5,8
304,176,91844,1,0
208,176,92252,1,8
112,152,92660,1,0
112,152,93068,6,0,B|144:96|208:72,1,120,0|0
312,309,94293,1,8
311,309,94701,6,0,B|368:288|400:232,1,120,0|0
376,88,95925,1,0
376,88,96129,1,0
376,88,96333,6,0,B|288:104|232:176,1,160
256,183,97354,1,0
256,183,97558,1,0
256,183,97762,1,0
256,185,97966,6,0,B|344:203,1,80,0|8
328,299,98782,2,0,B|248:283,1,80,0|8
144,240,99599,6,0,B|80:280,2,60
136,192,100415,2,0,B|88:248,2,60
112,152,101231,2,0,B|88:216,2,60
80,112,102048,2,0,B|80:176,2,60
80,112,102864,6,0,B|160:120|240:72,1,160
249,92,103885,1,0
249,92,104089,1,0
249,92,104293,1,0
248,92,104497,6,0,B|207:177,1,80,0|8
263,249,105313,2,0,B|303:169,1,80,0|8
391,177,106129,2,0,B|349:261,1,80,0|8
405,333,106946,2,0,B|445:253,1,80,0|8
360,176,107762,6,0,B|296:112|216:272|128:208,1,240
96,128,109395,5,4
96,128,109803,2,0,B|136:176|208:184,1,119.999996423721
272,184,111027,5,0
144,256,111844,1,0
272,184,112660,1,0
240,248,113068,2,0,B|208:312,2,59.9999982118607,0|8|0
272,184,114293,1,0
280,256,114701,2,0,B|288:320,2,59.9999982118607,0|8|0
272,184,115925,5,0
272,184,116333,2,0,B|296:128|360:104,1,119.999996423721
432,88,117558,5,0
288,72,118374,1,0
432,88,119191,1,0
432,88,119599,2,0,B|416:144,1,59.9999982118607
392,216,120415,1,8
392,216,120823,2,0,B|328:208,1,59.9999982118607
261,195,121640,1,8
217,252,122048,1,0
120,264,122456,5,4
56,192,122864,1,0
152,184,123272,1,0
216,256,123680,1,0
216,256,123885,1,0
216,256,124089,6,0,B|296:240|384:264,1,160
464,288,125313,1,0
464,288,125721,6,0,B|448:240|464:192,1,80,0|8
360,224,126538,2,0,B|376:176|416:152,1,80
312,128,127354,2,0,B|344:96|392:88,1,80,0|8
304,32,128170,1,0
224,88,128578,1,0
224,88,128782,1,0
224,88,128987,6,0,B|144:120|96:208,1,160
80,280,130211,1,0
80,280,130415,1,0
80,280,130619,6,0,B|144:232|240:232,1,160
328,240,131844,1,0
408,184,132252,1,0
368,96,132660,1,8
272,104,133068,1,0
248,192,133476,1,8
256,192,133680,12,0,135109
256,192,135517,5,4
