osu file format v9

[General]
AudioFilename: 01 Mercury Lamp.mp3
AudioLeadIn: 0
PreviewTime: 56606
Countdown: 1
SampleSet: Normal
StackLeniency: 0.3
Mode: 0
LetterboxInBreaks: 1

[Editor]
Bookmarks: 66912,70187,109371,135493
DistanceSpacing: 0.6
BeatDivisor: 4
GridSize: 8

[Metadata]
Title:Mercury Lamp
Artist:SHIKI
Creator:kiddly
Version:Beginner
Source:
Tags:Dr_Dy Trancer Doll's

[Difficulty]
HPDrainRate:2
CircleSize:3
OverallDifficulty:0
ApproachRate:3
SliderMultiplier:0.8
SliderTickRate:1

[Events]
//Background and Video events
0,0,"1.jpg"
//Break Periods
//Storyboard Layer 0 (Background)
//Storyboard Layer 1 (Fail)
//Storyboard Layer 2 (Pass)
//Storyboard Layer 3 (Foreground)
//Storyboard Sound Samples
//Background Colour Transformations
3,100,163,162,255

[TimingPoints]
16334,408.163265306122,4,1,0,59,1,0
28136,-100,4,2,0,58,0,0
30799,-100,4,1,0,58,0,0
57024,-83.3333333333333,4,2,0,78,0,0
63646,-100,4,2,0,78,0,0
70085,-100,4,1,0,68,0,0
83238,-100,4,1,0,68,0,0
107534,-100,4,2,0,59,0,0
121606,-100,4,1,0,59,0,0
135391,-100,4,2,0,61,0,0

[Colours]
Combo1 : 192,192,192
Combo2 : 120,153,252
Combo3 : 192,157,101

[HitObjects]
88,56,16334,2,0,B|32:208|192:240,1,240
240,176,17966,2,0,B|392:144|416:296,1,240
352,344,19599,6,0,B|256:360|256:360|272:320|272:320|168:336,1,240
96,344,21231,2,0,B|48:352|48:352|72:240|72:240|160:224,1,240
232,216,22864,6,0,B|240:176|240:176|264:144,3,80
344,144,24497,2,0,B|336:184|336:184|312:216,3,80
248,264,26129,6,0,B|176:296|176:296|96:248|96:248|112:152|112:152|176:128,1,320
256,192,28170,12,0,30517
256,192,31027,5,0
128,128,32252,1,0
112,144,32456,1,0
96,160,32660,2,0,B|120:240|120:240|200:272,1,160
272,224,34293,2,0,B|392:224,1,120
408,240,35109,1,0
344,40,37150,5,0
355,59,37354,1,0
366,79,37558,2,0,B|322:150|322:150|236:160,1,160
160,208,38782,1,0
176,224,38987,1,0
192,240,39191,2,0,B|208:304|208:304|304:344,2,160
160,312,43680,5,0
144,296,43885,1,0
128,280,44089,1,0
48,160,45313,1,0
64,144,45517,1,0
80,128,45721,2,0,B|152:128|152:128|216:64,1,160
288,128,47354,2,0,B|200:224,1,120
192,240,48170,1,0
416,320,50211,5,0
400,304,50415,1,0
384,288,50619,1,0
296,176,51844,1,0
312,160,52048,1,0
328,144,52252,2,0,B|408:200|408:200|360:264,1,160
280,288,53885,2,0,B|160:288,1,120
136,288,54701,1,0
56,64,57150,6,0,B|264:-16|48:248|272:144,1,288.000006866455,6|2
328,160,58782,2,0,B|359:214|417:320|461:278|441:226|346:270|283:329,1,288.000006866455,0|2
216,320,60415,2,0,B|160:332|140:280|140:280|167:149|144:90|96:74|-9:89|21:214|51:271|114:256|209:84|336:104,1,672.000016021729,2|2
408,120,63680,6,0,B|352:168|392:240|336:272,1,160,2|2
248,320,65313,6,0,B|178:295|136:366|80:320,1,160,2|2
160,232,66946,6,0,B|146:159|64:158|76:86,1,160,2|2
256,192,68578,12,0,70211
312,192,70619,1,0
392,224,71027,1,0
336,280,71436,2,0,B|352:328,2,40
264,240,72252,1,0
200,192,72660,1,0
136,144,73068,2,0,B|88:152,2,40
192,88,73885,1,0
248,144,74293,1,0
312,200,74701,2,0,B|344:168,1,40
360,152,75109,2,0,B|432:200|432:200|440:264|440:264|384:344,1,240
312,304,76742,6,0,B|232:272|144:312,1,160
156,203,78170,5,0
156,202,78374,2,0,B|232:168|312:200,1,160
312,96,79803,5,0
312,96,80007,2,0,B|232:64|144:104,1,160
256,192,81231,12,0,83272
80,104,84293,6,0,B|40:144,2,40
96,88,84905,2,0,B|168:224|384:216,1,320
432,224,89191,6,0,B|360:288,1,80
352,296,89803,1,0
352,176,90823,2,0,B|392:216,2,40
336,160,91436,2,0,B|272:288|136:288,1,240
88,232,93068,2,0,B|136:120,1,120
184,216,94701,2,0,B|232:104,1,120
328,64,95925,5,0
344,88,96129,1,0
360,112,96333,1,0
472,160,97354,2,0,B|512:200,2,40
456,144,97966,2,0,B|384:280|168:272,1,320
80,160,102252,6,0,B|152:96,1,80
160,88,102864,1,0
160,208,103885,2,0,B|120:168,2,40
176,224,104497,2,0,B|240:96|376:96,1,240
432,160,106129,2,0,B|408:288,1,120
408,304,106946,1,0
176,232,108987,5,2
160,216,109191,1,2
144,200,109395,1,4
216,72,110619,1,0
232,88,110823,1,2
248,104,111027,2,0,B|336:128|336:128|360:200,1,160,0|2
288,264,112660,2,0,B|200:240|200:240|184:200,1,120,0|2
184,192,113476,1,2
408,280,115517,5,0
400,256,115721,1,2
392,232,115925,1,0
256,200,117150,1,0
232,208,117354,1,2
208,216,117558,2,0,B|144:160|144:160|184:88,2,160,0|2|0
320,56,122048,5,0
336,72,122252,1,0
352,88,122456,1,0
424,216,123680,1,0
408,232,123885,1,0
392,248,124089,2,0,B|312:216|312:216|256:272,1,160
176,216,125721,2,0,B|123:268|123:268|67:244,1,120
56,240,126538,1,0
224,64,128578,5,0
248,64,128782,1,0
272,64,128987,1,0
392,144,130211,1,0
368,144,130415,1,0
344,144,130619,2,0,B|296:208|296:208|208:232,1,160
136,176,132252,2,0,B|184:112|184:112|232:96,1,120
248,96,133068,1,0
256,192,133476,12,4,135517
