osu file format v12

[General]
AudioFilename: 04 Lapis.mp3
AudioLeadIn: 1500
PreviewTime: 67887
Countdown: 0
SampleSet: Normal
StackLeniency: 0.7
Mode: 0
LetterboxInBreaks: 1
WidescreenStoryboard: 0

[Editor]
Bookmarks: 2134,15284,28435,41586,54736,67887,92951,101171,107746,120897,134047,147198,160349,173499
DistanceSpacing: 1.6
BeatDivisor: 4
GridSize: 4

[Metadata]
Title:Lapis
TitleUnicode:Lapis
Artist:SHIKI
ArtistUnicode:SHIKI
Creator:Mercurius
Version:Another
Source:BMS
Tags:trance rozen maiden
BeatmapID:307008
BeatmapSetID:119605

[Difficulty]
HPDrainRate:7
CircleSize:4
OverallDifficulty:8
ApproachRate:8
SliderMultiplier:1.8
SliderTickRate:1

[Events]
//Background and Video events
0,0,"kn_title.png",0,0
//Break Periods
2,41786,53986
2,81645,92201
//Storyboard Layer 0 (Background)
//Storyboard Layer 1 (Fail)
//Storyboard Layer 2 (Pass)
//Storyboard Layer 3 (Foreground)
//Storyboard Sound Samples
//Background Colour Transformations
3,100,163,162,255

[TimingPoints]
2134,410.958904109589,4,1,0,50,1,0
54736,-166.666666666667,4,2,0,50,0,0
67270,-166.666666666667,4,1,0,50,0,0
67887,-100,4,1,0,50,0,1
81346,-100,4,2,0,50,0,0
81445,410.958904109589,4,2,0,50,1,0
92849,-100,4,1,0,50,0,0
107746,-100,4,1,0,50,0,1
120794,-100,4,1,0,50,0,0

[Colours]
Combo1 : 194,194,194
Combo2 : 3,108,186
Combo3 : 32,170,204

[HitObjects]
452,72,2134,5,4,0:0:0:0:
486,202,2442,1,0,0:0:0:0:
354,170,2750,1,0,0:0:0:0:
387,301,3058,1,0,0:0:0:0:
257,267,3366,1,8,0:2:0:0:
257,267,3572,1,8,0:2:0:0:
125,301,3777,5,0,0:0:0:0:
26,202,4086,1,0,0:0:0:0:
158,170,4394,1,0,0:0:0:0:
60,72,4702,1,0,0:0:0:0:
188,32,5010,1,8,0:2:0:0:
188,32,5216,1,8,0:2:0:0:
324,32,5421,5,0,0:0:0:0:
452,72,5729,1,0,0:0:0:0:
354,170,6038,1,0,0:0:0:0:
486,202,6346,1,0,0:0:0:0:
387,301,6654,1,8,0:2:0:0:
387,301,6860,1,8,0:2:0:0:
255,267,7065,5,0,0:0:0:0:
125,301,7373,1,0,0:0:0:0:
158,170,7681,1,0,0:0:0:0:
26,202,7990,1,0,0:0:0:0:
60,72,8298,1,8,0:2:0:0:
60,72,8503,1,8,0:2:0:0:
192,35,8709,6,0,P|256:56|320:36,1,135,4|0,0:0|0:0,0:0:0:0:
499,161,9325,2,0,P|436:140|372:160,1,135
240,188,9942,2,8,L|276:270,1,90,8|8,0:2|0:2,0:0:0:0:
320,349,10353,2,0,P|256:328|192:348,1,135
14,222,10969,2,0,P|77:243|140:224,1,135
272,196,11586,2,8,L|237:113,1,90,8|8,0:2|0:2,0:0:0:0:
148,91,11997,6,0,P|156:158|131:220,1,135
232,308,12613,2,0,P|286:268|352:258,1,135,0|0,0:0|0:0,0:0:0:0:
488,252,13229,2,8,L|453:169,1,90,8|8,0:2|0:2,0:0:0:0:
412,88,13640,2,0,P|346:95|284:70,1,135
78,89,14257,2,0,P|142:108|185:160,1,135,0|0,0:0|0:0,0:0:0:0:
316,196,14873,2,8,L|327:285,1,90,8|8,0:2|0:2,0:0:0:0:
416,300,15284,5,4,0:0:0:0:
477,232,15490,1,2,0:0:0:0:
477,232,15592,2,0,P|445:199|426:159,1,90
409,71,16003,1,0,0:0:0:0:
409,71,16106,2,0,L|320:76,1,90,2|0,0:0|0:0,0:0:0:0:
248,80,16414,2,0,P|226:118|226:163,1,90
262,291,16723,2,0,P|284:252|284:208,1,90
148,160,17134,5,0,0:0:0:0:
148,160,17236,2,0,L|61:137,1,90,2|0,0:0|0:0,0:0:0:0:
148,252,17647,1,0,0:0:0:0:
148,252,17750,2,0,L|236:274,1,90,2|0,0:0|0:0,0:0:0:0:
388,266,18058,2,0,L|300:244,1,90
301,244,18366,1,0,0:0:0:0:
227,66,18572,5,0,0:0:0:0:
227,66,18675,1,0,0:0:0:0:
227,66,18777,2,0,P|231:111|256:148,1,90,2|0,0:0|0:0,0:0:0:0:
348,92,19188,1,0,0:0:0:0:
506,164,19394,2,0,L|416:176,1,90,2|0,0:0|0:0,0:0:0:0:
343,184,19702,2,0,P|327:225|331:270,1,90
388,312,20010,1,0,0:0:0:0:
102,288,20216,5,4,0:0:0:0:
102,288,20318,2,0,P|145:276|190:278,1,90,4|0,0:0|0:0,0:0:0:0:
224,212,20627,2,0,L|159:150,1,90
80,76,21038,1,4,0:0:0:0:
80,76,21106,1,0,0:0:0:0:
80,76,21175,1,0,0:0:0:0:
80,76,21243,1,0,0:0:0:0:
270,45,21449,2,0,L|314:123,1,90,4|0,0:0|0:0,0:0:0:0:
488,207,21860,6,0,P|426:231|360:220,1,135,4|0,0:0|0:0,0:0:0:0:
252,204,22373,1,0,0:0:0:0:
252,204,22476,2,0,P|184:196|140:216,1,90,0|2,0:0|0:0,0:0:0:0:
212,300,22887,1,0,0:0:0:0:
212,300,22955,1,0,0:0:0:0:
212,300,23024,1,0,0:0:0:0:
212,300,23092,2,0,L|291:344,1,90
420,284,23503,5,0,0:0:0:0:
420,284,23606,1,0,0:0:0:0:
421,284,23812,2,0,P|373:237|360:172,1,135
259,61,24325,2,0,P|269:105|257:147,1,90,2|0,0:0|0:0,0:0:0:0:
257,147,24599,1,0,0:0:0:0:
257,147,24668,1,0,0:0:0:0:
257,147,24736,1,0,0:0:0:0:
148,164,24942,1,0,0:0:0:0:
132,56,25147,5,0,0:0:0:0:
133,56,25250,2,0,P|176:66|221:66,1,90
364,44,25661,1,0,0:0:0:0:
364,44,25764,1,0,0:0:0:0:
388,183,25969,2,0,P|344:182|299:188,1,90,2|0,0:0|0:0,0:0:0:0:
288,203,26243,1,0,0:0:0:0:
278,217,26312,1,0,0:0:0:0:
269,232,26380,2,0,L|255:320,1,90
179,118,26791,6,0,P|113:128|53:99,2,135,4|0|0,0:0|0:0|0:0,0:0:0:0:
308,55,27613,1,4,0:0:0:0:
376,180,27818,1,0,0:0:0:0:
376,180,27921,1,0,0:0:0:0:
376,180,28024,1,4,0:0:0:0:
248,244,28229,1,0,0:0:0:0:
176,120,28435,5,4,0:0:0:0:
140,224,28640,1,2,0:0:0:0:
140,223,28743,2,0,L|110:307,1,90
248,244,29154,1,0,0:0:0:0:
247,245,29257,2,0,L|336:240,1,90,2|0,0:0|0:0,0:0:0:0:
328,312,29565,2,0,P|371:302|402:270,1,90
444,212,29873,1,0,0:0:0:0:
356,100,30079,5,0,0:0:0:0:
216,68,30284,1,0,0:0:0:0:
216,68,30387,2,0,L|129:45,1,90,2|0,0:0|0:0,0:0:0:0:
240,232,30798,1,0,0:0:0:0:
240,232,30901,2,0,L|328:254,1,90,2|0,0:0|0:0,0:0:0:0:
415,346,31209,2,0,L|327:324,1,90
256,308,31517,1,0,0:0:0:0:
104,264,31723,5,0,0:0:0:0:
104,264,31825,1,0,0:0:0:0:
104,264,31928,2,0,P|100:219|75:182,1,90,2|0,0:0|0:0,0:0:0:0:
132,92,32339,1,0,0:0:0:0:
232,132,32544,2,0,L|322:120,1,90,2|0,0:0|0:0,0:0:0:0:
322,120,32853,1,0,0:0:0:0:
448,188,33058,1,0,0:0:0:0:
448,188,33161,1,0,0:0:0:0:
456,332,33366,5,4,0:0:0:0:
456,332,33469,2,0,P|413:320|368:322,1,90,4|0,0:0|0:0,0:0:0:0:
300,344,33777,2,0,L|211:337,1,90
312,236,34188,1,4,0:0:0:0:
320,220,34257,1,0,0:0:0:0:
328,204,34325,1,0,0:0:0:0:
336,188,34394,1,0,0:0:0:0:
477,55,34599,2,0,P|452:92|412:112,1,90,4|0,0:0|0:0,0:0:0:0:
304,92,35010,6,0,P|242:68|176:79,1,135,4|0,0:0|0:0,0:0:0:0:
76,40,35524,1,0,0:0:0:0:
75,40,35627,2,0,P|65:83|73:127,1,90,0|2,0:0|0:0,0:0:0:0:
164,188,36038,1,0,0:0:0:0:
164,188,36106,1,0,0:0:0:0:
164,188,36175,1,0,0:0:0:0:
164,188,36243,2,0,L|243:232,1,90
352,228,36654,5,0,0:0:0:0:
352,228,36757,1,0,0:0:0:0:
381,332,36962,2,0,P|314:323|247:335,1,135,0|0,0:0|0:0,0:0:0:0:
160,272,37476,2,0,P|150:228|162:186,1,90,2|0,0:0|0:0,0:0:0:0:
162,186,37750,1,0,0:0:0:0:
162,186,37818,1,0,0:0:0:0:
162,186,37887,1,0,0:0:0:0:
256,132,38092,1,0,0:0:0:0:
364,132,38298,5,0,0:0:0:0:
364,133,38401,2,0,P|374:176|374:221,1,90
288,288,38812,1,0,0:0:0:0:
288,288,38914,1,0,0:0:0:0:
96,252,39120,2,0,P|140:253|185:247,1,90
196,232,39394,1,0,0:0:0:0:
206,218,39462,1,0,0:0:0:0:
215,203,39531,2,0,L|229:115,1,90
308,40,39942,5,4,0:0:0:0:
384,116,40147,1,0,0:0:0:0:
304,188,40353,1,4,0:0:0:0:
228,112,40558,1,0,0:0:0:0:
308,40,40764,5,4,0:0:0:0:
384,116,40969,1,0,0:0:0:0:
396,140,41072,1,0,0:0:0:0:
396,168,41175,1,0,0:0:0:0:
412,192,41277,1,0,0:0:0:0:
412,220,41380,1,0,0:0:0:0:
424,244,41483,1,0,0:0:0:0:
428,272,41586,1,4,0:0:0:0:
354,299,54736,6,0,B|316:283|284:307|247:298,1,107.999996704102
100,208,55558,2,0,B|137:217|169:193|208:208,1,107.999996704102,0|0,0:0|0:0,0:0:0:0:
336,96,56380,2,0,B|280:120|224:84|176:100,2,161.999995056153,2|2|2,0:0|0:0|0:0,0:1:0:0:
428,188,58024,5,0,0:0:0:0:
352,292,58435,1,0,0:0:0:0:
353,292,58846,2,0,P|277:264|198:277,1,161.999995056153,2|0,0:0|0:0,0:0:0:0:
51,181,59668,2,0,P|101:199|155:199,1,107.999996704102,2|0,0:0|0:0,0:0:0:0:
172,103,60284,2,0,P|248:84|328:100,1,161.999995056153,2|0,0:0|0:0,0:0:0:0:
328,100,61312,1,2,0:0:0:0:
432,176,62133,5,2,0:0:0:0:
380,200,62270,1,0,0:0:0:0:
324,188,62407,1,0,0:0:0:0:
268,176,62544,1,2,0:0:0:0:
216,200,62681,1,0,0:0:0:0:
212,256,62818,1,0,0:0:0:0:
253,300,62955,2,2,P|332:312|411:296,2,161.999995056153
260,83,64599,6,0,P|180:92|100:84,1,161.999995056153
48,204,65421,2,0,P|129:195|209:203,1,161.999995056153,0|0,0:0|0:0,0:0:0:0:
332,244,66243,2,0,L|376:342,1,107.999996704102,0|0,0:0|0:0,0:0:0:0:
444,176,66860,2,0,L|401:77,1,107.999996704102
401,77,67373,1,0,0:0:0:0:
304,92,67579,1,0,0:0:0:0:
212,56,67784,1,0,0:0:0:0:
212,56,67887,6,2,P|139:102|128:188,1,180,6|8,0:0|0:0,0:0:0:0:
236,200,68503,1,0,0:0:0:0:
216,366,68709,2,0,L|276:300,1,90,2|2,0:0|0:2,0:0:0:0:
433,230,69120,2,0,L|344:216,1,90,10|0,0:0|0:0,0:0:0:0:
336,108,69531,6,0,L|423:81,1,90
480,172,69942,1,8,0:0:0:0:
448,275,70147,2,2,P|376:227|293:253,1,180,2|0,0:0|0:0,0:0:0:0:
177,369,70764,2,0,L|188:280,1,90,10|0,0:0|0:0,0:0:0:0:
208,172,71175,5,0,0:0:0:0:
124,104,71380,1,0,0:0:0:0:
104,212,71586,1,10,0:0:0:0:
304,128,71997,5,0,0:0:0:0:
404,84,72202,1,0,0:0:0:0:
452,180,72407,1,10,0:0:0:0:
352,224,72613,1,0,0:0:0:0:
256,272,72818,5,0,0:0:0:0:
148,292,73024,2,0,P|105:303|69:329,1,90,0|8,0:0|0:0,0:0:0:0:
184,188,73435,2,2,P|193:101|132:39,1,180,2|0,0:0|0:0,0:0:0:0:
92,140,74051,2,2,L|95:229,1,90,10|0,0:0|0:0,0:0:0:0:
276,224,74462,5,0,0:0:0:0:
276,224,74668,1,0,0:0:0:0:
275,224,74873,2,2,P|328:168|382:150,1,135,10|0,0:0|0:0,0:0:0:0:
432,172,75284,2,0,L|463:223,2,60,0|0|0,0:0|0:0|0:0,0:0:0:0:
272,144,75695,2,0,L|212:144,2,60,10|0|0,0:0|0:0|0:0,0:0:0:0:
356,292,76106,5,0,0:0:0:0:
256,332,76312,1,0,0:0:0:0:
156,292,76517,1,8,0:0:0:0:
156,183,76723,2,2,P|246:191|330:163,1,180,2|0,0:0|0:0,0:0:0:0:
452,48,77339,2,0,L|432:136,1,90,10|0,0:0|0:0,0:0:0:0:
420,328,77750,6,0,L|400:240,1,90,4|0,0:2|0:0,0:2:0:0:
320,112,78161,2,0,L|300:200,1,90,0|0,0:0|0:0,0:0:0:0:
216,324,78572,2,0,L|196:236,1,90,4|0,0:2|0:0,0:0:0:0:
204,40,78983,2,0,L|184:128,1,90,0|0,0:0|0:0,0:0:0:0:
12,260,79394,5,4,0:0:0:0:
216,324,79599,2,0,L|260:337,2,45
240,108,80010,1,0,0:0:0:0:
380,272,80216,1,4,0:0:0:0:
436,64,80421,2,0,L|447:20,2,45
436,64,80832,1,0,0:0:0:0:
308,192,81445,5,2,0:0:0:0:
144,60,92951,5,0,0:0:0:0:
232,124,93157,2,0,L|264:116,4,22.5
176,216,93568,2,0,L|155:221,4,22.5
264,280,93979,1,0,0:0:0:0:
352,340,94184,1,0,0:0:0:0:
368,316,94287,1,0,0:0:0:0:
380,292,94390,1,0,0:0:0:0:
392,268,94492,1,0,0:0:0:0:
408,244,94595,5,4,0:0:0:0:
408,244,94698,2,0,L|401:154,1,90
285,70,95109,1,0,0:0:0:0:
285,70,95212,2,0,L|292:160,1,90,0|2,0:0|0:0,0:0:0:0:
184,172,95623,1,0,0:0:0:0:
184,172,95725,1,0,0:0:0:0:
83,289,95931,2,0,P|149:275|216:276,1,135
217,276,96342,5,0,0:0:0:0:
376,304,96547,1,0,0:0:0:0:
312,188,96753,1,0,0:0:0:0:
312,188,96855,1,0,0:0:0:0:
252,64,97061,2,0,L|164:50,1,90,2|0,0:0|0:0,0:0:0:0:
408,96,97472,1,0,0:0:0:0:
408,96,97575,1,0,0:0:0:0:
408,96,97677,1,0,0:0:0:0:
312,188,97883,5,0,0:0:0:0:
288,176,97986,1,0,0:0:0:0:
260,176,98088,1,0,0:0:0:0:
152,176,98294,2,0,L|108:255,1,90,0|0,0:0|0:0,0:0:0:0:
184,332,98705,1,2,0:0:0:0:
292,320,98910,1,0,0:0:0:0:
292,320,99013,2,0,P|337:313|381:318,1,90
452,332,99321,2,0,L|462:242,1,90,0|4,0:0|0:2,0:0:0:0:
462,242,99629,1,4,0:0:0:0:
424,104,99835,6,0,P|361:123|294:113,1,135
200,60,100349,1,4,0:2:0:0:
188,72,100417,1,0,0:0:0:0:
176,84,100486,1,0,0:0:0:0:
164,96,100554,1,0,0:0:0:0:
68,141,100760,2,0,P|97:176|116:217,1,90,4|0,0:2|0:0,0:0:0:0:
116,326,101171,6,0,L|204:346,1,90,4|0,0:2|0:0,0:0:0:0:
251,204,101581,2,0,L|164:228,1,90,2|0,0:0|0:0,0:0:0:0:
308,320,101992,2,0,L|396:340,1,90
443,198,102403,2,0,L|357:221,1,90,2|0,0:0|0:0,0:0:0:0:
252,256,102814,5,0,0:0:0:0:
220,152,103020,1,0,0:0:0:0:
320,116,103225,1,2,0:0:0:0:
356,220,103431,1,0,0:0:0:0:
204,268,103636,5,0,0:0:0:0:
216,104,103842,1,0,0:0:0:0:
376,107,104047,1,2,0:0:0:0:
370,272,104253,1,0,0:0:0:0:
204,268,104458,5,4,0:2:0:0:
204,268,104561,2,0,P|160:265|115:267,1,90,0|0,0:0|0:0,0:0:0:0:
76,164,104972,1,0,0:0:0:0:
76,163,105075,2,0,P|121:166|166:163,1,90,0|4,0:0|0:2,0:0:0:0:
224,72,105486,1,0,0:0:0:0:
260,64,105588,1,0,0:0:0:0:
296,68,105691,1,0,0:0:0:0:
364,152,105897,1,0,0:0:0:0:
456,96,106102,5,4,0:0:0:0:
460,204,106308,2,0,L|460:232,4,22.5,0|0|0|0|4,0:0|0:0|0:0|0:0|0:0,0:0:0:0:
276,208,106718,2,0,L|258:220,4,22.5,0|0|0|0|4,0:0|0:0|0:0|0:0|0:0,0:0:0:0:
368,264,107129,1,0,0:0:0:0:
276,320,107335,1,4,0:0:0:0:
240,324,107438,1,0,0:0:0:0:
204,328,107540,1,0,0:0:0:0:
168,332,107643,1,0,0:0:0:0:
133,335,107746,6,2,P|63:285|74:199,1,180,6|8,0:0|0:0,0:0:0:0:
180,180,108362,1,0,0:0:0:0:
265,57,108568,2,0,L|176:72,1,90,2|0,0:0|0:0,0:0:0:0:
308,156,108979,2,0,L|397:141,1,90,10|0,0:0|0:0,0:0:0:0:
396,140,109390,5,0,0:0:0:0:
436,244,109595,1,0,0:0:0:0:
348,308,109801,1,8,0:0:0:0:
249,268,110006,2,2,P|161:256|79:293,1,180
332,196,110623,2,0,L|321:106,1,90,10|0,0:0|0:0,0:0:0:0:
216,76,111034,5,0,0:0:0:0:
112,48,111239,1,0,0:0:0:0:
140,152,111445,1,10,0:0:0:0:
244,176,111650,1,0,0:0:0:0:
424,224,111855,5,0,0:0:0:0:
400,328,112061,1,0,0:0:0:0:
296,356,112266,1,10,0:0:0:0:
324,252,112472,1,0,0:0:0:0:
352,148,112677,6,0,L|375:60,1,90
252,112,113088,1,8,0:0:0:0:
208,212,113294,2,2,P|121:195|35:220,1,180,2|0,0:0|0:0,0:0:0:0:
248,312,113910,2,0,L|338:319,1,90,10|0,0:0|0:0,0:0:0:0:
486,235,114321,6,0,L|396:228,1,90,4|0,0:0|0:0,0:0:0:0:
397,228,114732,2,2,P|370:166|376:99,1,135,10|0,0:0|0:0,0:0:0:0:
360,48,115143,1,0,0:0:0:0:
292,68,115280,1,0,0:0:0:0:
220,68,115417,1,0,0:0:0:0:
148,56,115554,2,0,L|92:33,2,60,10|0|0,0:0|0:0|0:0,0:0:0:0:
192,140,115965,6,0,L|220:232,1,90
418,290,116376,2,2,P|351:290|288:312,1,135,10|0,0:0|0:0,0:0:0:0:
240,340,116787,2,0,L|150:340,1,90
112,200,117198,1,10,0:0:0:0:
112,200,117403,1,0,0:0:0:0:
152,64,117609,5,4,0:0:0:0:
288,72,117814,1,4,0:2:0:0:
288,72,117917,1,0,0:0:0:0:
256,212,118123,1,0,0:0:0:0:
256,212,118225,1,0,0:0:0:0:
392,164,118431,1,4,0:0:0:0:
476,280,118636,1,4,0:2:0:0:
440,272,118739,1,0,0:0:0:0:
404,271,118842,2,0,P|360:278|321:300,1,90
212,308,119253,5,4,0:0:0:0:
124,248,119458,1,4,0:2:0:0:
124,248,119561,1,0,0:0:0:0:
124,248,119664,2,0,L|112:158,1,90,4|4,0:0|0:2,0:0:0:0:
52,84,119972,2,0,L|97:76,1,45,0|4,0:0|0:0,0:0:0:0:
176,96,120177,2,0,L|221:88,1,45,0|4,0:0|0:2,0:0:0:0:
376,44,120486,2,0,P|373:88|392:127,1,90,4|4,0:0|0:2,0:0:0:0:
423,268,120897,5,6,0:0:0:0:
423,268,120999,2,0,P|391:236|348:228,1,90,2|0,0:0|0:0,0:0:0:0:
260,288,121410,1,0,0:0:0:0:
152,280,121616,1,0,0:0:0:0:
152,280,121718,2,0,L|136:192,1,90,2|0,0:0|0:0,0:0:0:0:
94,33,122027,2,0,P|97:77|124:112,1,90
148,120,122335,1,0,0:0:0:0:
176,124,122438,1,0,0:0:0:0:
204,128,122540,5,2,0:0:0:0:
424,84,122746,1,0,0:0:0:0:
424,84,122849,2,0,L|334:94,1,90
308,96,123157,1,0,0:0:0:0:
204,220,123362,1,6,0:0:0:0:
96,340,123568,1,0,0:0:0:0:
100,312,123671,1,0,0:0:0:0:
104,284,123773,1,0,0:0:0:0:
92,260,123876,1,0,0:0:0:0:
80,236,123979,1,0,0:0:0:0:
68,212,124081,1,0,0:0:0:0:
52,188,124184,5,6,0:0:0:0:
51,189,124287,2,0,P|68:147|105:123,1,90,2|0,0:0|0:0,0:0:0:0:
261,91,124698,1,0,0:0:0:0:
261,91,124801,2,0,P|244:132|208:156,1,90,0|2,0:0|0:0,0:0:0:0:
232,316,125212,1,0,0:0:0:0:
288,272,125314,2,0,P|331:262|376:260,1,90
447,277,125623,2,0,P|463:235|459:190,1,90,0|6,0:0|0:0,0:0:0:0:
459,190,125931,1,0,0:0:0:0:
296,184,126136,6,0,L|188:188,1,90
180,188,126445,1,0,0:0:0:0:
92,252,126650,1,6,0:0:0:0:
92,252,126753,1,2,0:0:0:0:
47,96,126958,2,2,P|114:104|175:77,1,135,0|6,0:0|0:0,0:0:0:0:
336,68,127472,5,6,0:0:0:0:
296,128,127575,2,0,P|287:173|293:217,1,90,2|0,0:0|0:0,0:0:0:0:
360,300,127986,1,0,0:0:0:0:
360,300,128088,1,0,0:0:0:0:
252,320,128294,1,2,0:0:0:0:
251,321,128397,2,0,P|207:321|147:337,1,90
100,240,128808,1,0,0:0:0:0:
100,240,128910,1,0,0:0:0:0:
200,200,129116,6,0,L|221:161,1,45,6|2,0:0|0:0,0:0:0:0:
276,69,129424,2,0,P|237:45|193:39,1,90
57,71,129732,2,0,P|95:94|140:100,1,90,0|6,0:0|0:0,0:0:0:0:
140,100,130040,1,4,0:0:0:0:
283,177,130246,2,0,P|349:161|416:164,1,135
364,316,130760,5,4,0:2:0:0:
344,300,130862,1,0,0:0:0:0:
316,296,130965,1,0,0:0:0:0:
288,300,131068,1,0,0:0:0:0:
264,308,131171,1,0,0:0:0:0:
236,312,131273,1,0,0:0:0:0:
208,308,131376,1,0,0:0:0:0:
184,296,131479,1,0,0:0:0:0:
160,288,131581,5,4,0:0:0:0:
160,288,131684,1,0,0:0:0:0:
52,288,131890,1,0,0:0:0:0:
48,180,132095,1,0,0:0:0:0:
76,188,132198,1,0,0:0:0:0:
104,184,132301,1,0,0:0:0:0:
132,176,132403,5,4,0:2:0:0:
156,164,132506,1,0,0:0:0:0:
264,184,132712,1,0,0:0:0:0:
472,144,132917,1,0,0:0:0:0:
452,124,133020,1,0,0:0:0:0:
432,108,133123,1,0,0:0:0:0:
404,104,133225,1,4,0:0:0:0:
376,100,133328,1,0,0:0:0:0:
348,100,133431,1,0,0:0:0:0:
324,88,133534,1,0,0:0:0:0:
296,84,133636,5,4,0:0:0:0:
184,52,133842,1,0,0:0:0:0:
100,120,134047,5,6,0:0:0:0:
100,120,134150,2,0,P|132:152|175:160,1,90,2|0,0:0|0:0,0:0:0:0:
268,212,134561,1,0,0:0:0:0:
216,308,134766,1,0,0:0:0:0:
216,308,134869,2,0,L|128:324,1,90,2|0,0:0|0:0,0:0:0:0:
320,336,135177,2,0,P|323:292|350:257,1,90
374,249,135486,1,0,0:0:0:0:
402,245,135588,1,0,0:0:0:0:
430,241,135691,5,2,0:0:0:0:
344,136,135897,1,0,0:0:0:0:
344,136,135999,2,0,L|254:146,1,90
228,152,136308,1,0,0:0:0:0:
108,72,136513,1,2,0:0:0:0:
108,72,136718,1,0,0:0:0:0:
112,100,136821,1,0,0:0:0:0:
116,128,136924,1,0,0:0:0:0:
104,152,137027,1,0,0:0:0:0:
92,176,137129,1,0,0:0:0:0:
80,200,137232,1,0,0:0:0:0:
64,224,137335,5,6,0:0:0:0:
63,223,137438,2,0,P|80:265|117:289,1,90,2|0,0:0|0:0,0:0:0:0:
224,308,137849,1,0,0:0:0:0:
223,309,137951,2,0,P|262:290|306:296,1,90,0|2,0:0|0:0,0:0:0:0:
452,228,138362,1,0,0:0:0:0:
412,168,138465,2,0,P|367:167|323:157,1,90
323,157,138773,1,0,0:0:0:0:
180,84,138979,5,6,0:0:0:0:
179,84,139081,2,0,P|197:126|201:170,1,90,2|0,0:0|0:0,0:0:0:0:
152,264,139492,1,0,0:0:0:0:
152,264,139595,1,0,0:0:0:0:
92,172,139801,1,6,0:0:0:0:
92,172,139903,1,0,0:0:0:0:
199,168,140109,2,2,P|267:165|332:182,1,135,2|6,0:0|0:0,0:0:0:0:
464,104,140623,5,6,0:0:0:0:
464,104,140725,2,0,P|419:109|374:103,1,90,2|0,0:0|0:0,0:0:0:0:
276,60,141136,1,0,0:0:0:0:
276,60,141239,1,0,0:0:0:0:
188,120,141445,1,2,0:0:0:0:
188,121,141547,2,0,P|202:163|201:208,1,90
136,292,141958,1,0,0:0:0:0:
136,292,142061,1,0,0:0:0:0:
235,337,142266,6,0,P|294:305|361:304,2,135,6|4|4,0:0|0:0|0:0,0:0:0:0:
136,292,143088,1,2,0:0:0:0:
136,292,143191,1,0,0:0:0:0:
37,191,143397,2,0,P|105:196|172:188,1,135
324,80,143910,5,4,0:0:0:0:
316,108,144013,1,0,0:0:0:0:
316,136,144116,1,0,0:0:0:0:
324,160,144218,1,0,0:0:0:0:
340,180,144321,1,0,0:0:0:0:
360,196,144424,1,0,0:0:0:0:
372,220,144527,1,0,0:0:0:0:
372,248,144629,1,0,0:0:0:0:
364,272,144732,5,4,0:2:0:0:
364,272,144835,1,0,0:0:0:0:
232,328,145040,1,0,0:0:0:0:
100,272,145246,1,0,0:0:0:0:
100,272,145349,1,0,0:0:0:0:
100,272,145451,1,0,0:0:0:0:
96,244,145554,5,4,0:0:0:0:
88,216,145657,1,0,0:0:0:0:
84,188,145760,1,0,0:0:0:0:
224,212,145965,1,4,0:0:0:0:
364,172,146171,1,0,0:0:0:0:
364,172,146273,1,0,0:0:0:0:
448,56,146479,1,0,0:0:0:0:
424,64,146581,1,0,0:0:0:0:
396,64,146684,1,0,0:0:0:0:
372,56,146787,5,4,0:0:0:0:
228,32,146992,1,0,0:0:0:0:
128,136,147198,6,2,P|193:119|259:134,1,135,2|0,0:0|0:0,0:0:0:0:
324,164,147609,2,0,L|340:260,1,90,8|0,0:2|0:0,0:0:0:0:
352,360,148020,1,0,0:0:0:0:
456,332,148225,1,0,0:0:0:0:
452,296,148328,1,0,0:0:0:0:
460,260,148431,1,8,0:2:0:0:
480,152,148636,1,0,0:0:0:0:
400,76,148842,5,2,0:0:0:0:
292,80,149047,2,0,P|230:103|163:100,2,135,0|0|0,0:0|0:0|0:0,0:0:0:0:
300,188,149869,1,0,0:0:0:0:
300,188,149972,1,0,0:0:0:0:
300,188,150075,1,8,0:2:0:0:
204,232,150280,1,0,0:0:0:0:
272,316,150486,6,2,P|192:279|107:303,1,180,2|8,0:0|0:2,0:0:0:0:
60,204,151102,1,0,0:0:0:0:
100,104,151308,2,0,L|173:157,1,90
248,80,151718,1,8,0:2:0:0:
248,80,151924,1,0,0:0:0:0:
328,152,152129,2,0,P|394:162|455:135,2,135,2|0|0,0:0|0:0|0:0,0:0:0:0:
360,256,152951,1,2,0:2:0:0:
360,256,153054,1,2,0:2:0:0:
256,280,153260,1,0,0:0:0:0:
256,280,153362,2,0,L|247:369,1,90,8|0,0:2|0:0,0:0:0:0:
62,193,153773,6,2,P|127:177|193:192,1,135,2|0,0:0|0:0,0:0:0:0:
252,136,154184,2,0,L|237:48,1,90,8|0,0:2|0:0,0:0:0:0:
368,148,154595,1,0,0:0:0:0:
368,148,154698,2,0,L|383:236,1,90
296,300,155109,1,2,0:2:0:0:
296,300,155212,1,2,0:2:0:0:
196,264,155417,6,0,P|161:208|161:141,2,135,2|0|0,0:0|0:0|0:0,0:0:0:0:
284,200,156239,1,0,0:0:0:0:
284,200,156342,2,0,L|373:184,1,90
444,168,156650,2,0,P|452:123|444:80,1,90,8|0,0:2|0:0,0:0:0:0:
300,64,157061,5,2,0:2:0:0:
268,80,157164,1,2,0:2:0:0:
232,88,157266,1,2,0:2:0:0:
196,88,157369,1,2,0:2:0:0:
160,80,157472,1,2,0:2:0:0:
80,152,157677,1,0,0:0:0:0:
180,196,157883,5,2,0:2:0:0:
216,204,157986,1,2,0:2:0:0:
252,204,158088,1,2,0:2:0:0:
288,196,158191,1,2,0:2:0:0:
320,180,158294,1,2,0:2:0:0:
400,108,158499,1,0,0:0:0:0:
464,196,158705,6,0,L|478:285,1,90,4|0,0:0|0:0,0:0:0:0:
380,336,159116,2,0,P|338:323|294:331,1,90,4|0,0:0|0:0,0:0:0:0:
179,198,159527,2,0,L|192:288,1,90,4|0,0:0|0:0,0:0:0:0:
244,68,159938,2,0,L|156:48,1,90,4|0,0:0|0:0,0:0:0:0:
384,48,160349,6,0,P|467:148|434:274,1,270,4|0,0:2|0:0,0:0:0:0:
328,176,161171,2,0,P|188:140|100:224,1,270,4|0,0:2|0:0,0:0:0:0:
228,284,161992,2,2,P|323:192|317:62,2,270
36,148,163636,6,0,P|143:70|272:93,1,270,4|0,0:2|0:0,0:0:0:0:
240,232,164458,2,0,P|325:328|448:293,1,270,4|0,0:2|0:0,0:0:0:0:
484,136,165280,2,2,P|400:39|277:74,2,270
412,328,166924,6,0,B|325:328|325:328|313:336|313:336|313:320|313:320|301:336|301:336|301:320|301:320|289:336|289:336|289:320|289:320|277:336|277:336|277:320|277:320|265:336|265:336|265:320|265:320|253:336|253:336|253:320|253:320|241:336|241:336|241:320|241:320|229:336|229:336|229:320|229:320|217:336|217:336|217:320|217:320|205:336|205:336|205:320|205:320|193:328|193:328|104:328,1,540,2|2,2:2|2:2,2:2:0:0:
76,73,168671,1,0,2:0:0:0:
94,104,168773,1,0,2:0:0:0:
124,124,168876,1,0,2:0:0:0:
157,139,168979,1,2,2:0:0:0:
193,138,169081,1,0,2:0:0:0:
229,131,169184,1,0,2:0:0:0:
264,119,169287,1,0,2:0:0:0:
300,112,169390,1,2,2:0:0:0:
336,106,169492,1,0,2:0:0:0:
371,116,169595,1,0,2:0:0:0:
405,130,169698,1,0,2:0:0:0:
430,156,169801,1,2,2:0:0:0:
424,263,170006,1,0,0:0:0:0:
330,315,170212,6,0,L|240:315,1,90,2|0,0:0|0:0,0:0:0:0:
182,69,170623,2,0,L|272:69,1,90,2|0,0:0|0:0,0:0:0:0:
104,220,171034,2,0,L|52:146,1,90,2|0,0:0|0:0,0:0:0:0:
408,164,171445,2,0,L|461:237,1,90,2|0,0:0|0:0,0:0:0:0:
256,292,171855,5,4,0:2:0:0:
188,208,172061,1,0,0:0:0:0:
188,208,172164,1,0,0:0:0:0:
188,208,172266,1,4,0:2:0:0:
324,208,172472,1,0,0:0:0:0:
324,208,172575,1,0,0:0:0:0:
324,208,172677,1,4,0:2:0:0:
148,76,172883,5,4,0:0:0:0:
184,84,172986,1,0,0:0:0:0:
220,92,173088,1,4,0:0:0:0:
256,100,173191,1,0,0:0:0:0:
292,92,173294,1,4,0:0:0:0:
328,84,173397,1,0,0:0:0:0:
364,76,173499,1,4,0:0:0:0:
