osu file format v12

[General]
AudioFilename: 03 Jade Star.mp3
AudioLeadIn: 1500
PreviewTime: 52628
Countdown: 0
SampleSet: Soft
StackLeniency: 0.7
Mode: 0
LetterboxInBreaks: 1
WidescreenStoryboard: 1

[Editor]
Bookmarks: 14733,27365,39996,52628,65259,77891,90523,103154,109470,115786,128417,141049,153680
DistanceSpacing: 1.2
BeatDivisor: 4
GridSize: 4

[Metadata]
Title:Jade Star
TitleUnicode:Jade Star
Artist:SHIKI
ArtistUnicode:SHIKI
Creator:Mercurius
Version:Hyper
Source:BMS
Tags:
BeatmapID:317070
BeatmapSetID:124364

[Difficulty]
HPDrainRate:5
CircleSize:4
OverallDifficulty:6
ApproachRate:7
SliderMultiplier:1.4
SliderTickRate:1

[Events]
//Background and Video events
0,0,"JS_title.png",0,0
//Break Periods
//Storyboard Layer 0 (Background)
//Storyboard Layer 1 (Fail)
//Storyboard Layer 2 (Pass)
//Storyboard Layer 3 (Foreground)
//Storyboard Sound Samples
//Background Colour Transformations
3,100,163,162,255

[TimingPoints]
2102,394.736842105263,4,2,0,100,1,0
52628,-100,4,2,0,100,0,1
65259,-100,4,2,0,100,0,0
90523,-100,4,2,0,100,0,1
103154,-100,4,2,0,100,0,0
128417,-100,4,2,0,100,0,1
134733,-100,4,2,0,100,0,0
140259,-100,4,2,0,100,0,1
153582,-100,4,2,0,100,0,0
153680,-100,4,2,0,100,0,1
153779,-100,4,2,0,100,0,0

[HitObjects]
68,120,2102,1,0,0:0:0:0:
184,68,2398,1,0,0:0:0:0:
176,192,2694,1,0,0:0:0:0:
380,64,3680,5,0,0:0:0:0:
432,180,3976,1,0,0:0:0:0:
308,172,4272,1,0,0:0:0:0:
52,288,5259,5,0,0:0:0:0:
176,296,5555,1,0,0:0:0:0:
124,180,5851,1,0,0:0:0:0:
348,328,6838,5,0,0:0:0:0:
340,204,7134,1,0,0:0:0:0:
456,256,7430,1,0,0:0:0:0:
204,96,8417,6,0,P|255:89|300:63,2,105
88,244,9996,2,0,P|81:193|55:148,2,105
308,288,11575,2,0,P|257:295|212:321,2,105
424,140,13154,2,0,P|431:191|457:236,2,105
364,80,13944,2,0,P|294:74|229:98,1,140
71,164,14733,6,0,P|141:160|204:189,1,140
232,268,15325,1,0,0:0:0:0:
315,283,15523,2,0,P|341:306|375:313,1,70
424,196,15917,2,0,P|398:173|364:166,1,70
279,168,16312,6,0,P|213:188|145:176,1,140
76,128,16904,1,0,0:0:0:0:
116,52,17101,2,0,L|192:48,1,70
76,128,17496,2,0,L|6:131,1,70
104,215,17891,6,0,L|243:223,1,140
243,223,18680,2,0,L|272:286,1,70
312,172,19075,2,0,L|283:108,1,70
396,164,19470,6,0,P|428:152|463:154,1,70
444,236,19865,2,0,P|411:247|376:245,1,70,0|0,0:0|0:0,0:0:0:0:
236,208,20259,2,0,P|268:196|303:198,1,70
284,280,20654,2,0,P|251:291|216:289,1,70,0|0,0:0|0:0,0:0:0:0:
156,232,21049,6,0,P|132:166|79:121,1,140
128,52,21641,1,0,0:0:0:0:
208,72,21838,1,0,0:0:0:0:
208,72,21937,1,0,0:0:0:0:
288,44,22134,1,0,0:0:0:0:
288,44,22233,2,0,L|332:98,1,70
487,156,22628,6,0,P|417:157|352:180,1,140
316,256,23220,1,0,0:0:0:0:
232,252,23417,1,0,0:0:0:0:
232,252,23516,1,0,0:0:0:0:
160,296,23713,1,0,0:0:0:0:
160,296,23812,2,0,L|110:246,1,70
36,164,24207,6,0,P|105:168|170:145,1,140
252,120,24799,1,0,0:0:0:0:
332,144,24996,2,0,L|387:101,1,70
296,220,25391,2,0,L|240:262,1,70
256,344,25786,2,0,P|307:334|359:342,2,105
256,344,26575,1,0,0:0:0:0:
256,344,26970,1,0,0:0:0:0:
215,179,27365,6,0,P|282:199|348:179,1,140
336,96,27957,1,0,0:0:0:0:
412,60,28154,2,0,L|481:67,2,70
251,112,28944,6,0,P|184:127|116:113,1,140
32,100,29536,1,0,0:0:0:0:
24,184,29733,2,0,L|90:204,1,70
170,308,30128,2,0,L|104:288,1,70
240,260,30523,6,0,P|306:239|374:251,1,140
456,172,31115,1,0,0:0:0:0:
452,152,31213,1,0,0:0:0:0:
448,132,31312,2,0,L|314:89,1,140
232,72,31904,1,0,0:0:0:0:
163,119,32101,2,0,P|117:96|65:98,2,105
132,200,32891,1,0,0:0:0:0:
132,200,32990,1,0,0:0:0:0:
100,276,33187,1,0,0:0:0:0:
100,276,33286,1,0,0:0:0:0:
244,192,33680,6,0,P|313:194|382:179,1,140
438,111,34273,2,0,P|390:92|340:104,2,105
439,279,35259,2,0,P|374:256|306:266,1,140
228,300,35851,2,0,P|260:340|310:352,2,105
72,240,36838,6,0,P|131:205|198:216,1,140
264,164,37430,2,0,P|325:195|392:182,1,140
416,100,38023,1,0,0:0:0:0:
416,100,38220,1,0,0:0:0:0:
340,60,38417,5,0,0:0:0:0:
340,60,38516,2,0,L|216:72,1,105
152,76,39009,1,0,0:0:0:0:
116,152,39207,1,0,0:0:0:0:
152,228,39404,2,0,L|221:216,2,70
152,312,39996,6,0,P|85:331|19:312,1,140
28,228,40588,1,0,0:0:0:0:
40,144,40785,2,0,L|25:75,2,70
204,112,41575,6,0,P|271:126|339:110,1,140
424,104,42167,1,0,0:0:0:0:
396,184,42364,2,0,L|462:204,1,70
364,260,42759,2,0,L|297:239,1,70
216,216,43154,6,0,P|147:204|81:224,1,140
4,256,43746,1,0,0:0:0:0:
8,276,43844,1,0,0:0:0:0:
12,296,43943,2,0,L|145:338,1,140
228,360,44535,1,0,0:0:0:0:
300,316,44732,2,0,P|346:292|398:294,2,105
228,276,45522,1,0,0:0:0:0:
228,276,45621,1,0,0:0:0:0:
228,192,45818,1,0,0:0:0:0:
228,192,45917,1,0,0:0:0:0:
88,100,46311,6,0,P|157:102|226:87,1,140
308,60,46904,2,0,P|359:52|412:54,2,105
396,204,47890,2,0,P|327:191|257:198,1,140
180,228,48482,2,0,P|129:240|78:229,2,105
292,356,49469,6,0,P|326:296|315:229,1,140
388,186,50061,2,0,P|321:199|260:167,1,140
216,96,50654,1,0,0:0:0:0:
216,96,50851,1,0,0:0:0:0:
280,40,51048,5,0,0:0:0:0:
280,40,51147,2,0,L|404:52,1,105
444,108,51640,1,0,0:0:0:0:
384,168,51838,1,0,0:0:0:0:
400,252,52035,2,0,L|469:248,2,70
328,300,52628,5,0,0:0:0:0:
256,344,52825,1,0,0:0:0:0:
188,296,53023,1,0,0:0:0:0:
120,344,53220,1,0,0:0:0:0:
52,292,53417,2,0,L|52:222,1,70
52,136,53812,2,0,L|52:96,2,35
136,140,54207,5,0,0:0:0:0:
196,84,54404,1,0,0:0:0:0:
260,140,54601,1,0,0:0:0:0:
320,84,54799,1,0,0:0:0:0:
384,140,54996,2,0,L|384:216,1,70
384,296,55391,2,0,L|384:331,2,35
304,272,55786,6,0,P|236:255|169:272,1,140
88,252,56378,1,0,0:0:0:0:
68,172,56575,2,0,L|65:137,2,35
152,192,56970,2,0,L|149:157,2,35
232,140,57365,5,0,0:0:0:0:
304,180,57562,1,0,0:0:0:0:
380,148,57759,1,0,0:0:0:0:
384,64,57957,1,0,0:0:0:0:
312,24,58154,2,0,P|247:48|179:34,1,140
44,136,58944,5,0,0:0:0:0:
120,172,59141,1,0,0:0:0:0:
196,136,59339,1,0,0:0:0:0:
272,168,59536,1,0,0:0:0:0:
348,136,59733,2,0,L|348:66,1,70
432,68,60128,2,0,L|432:108,2,35
432,272,60523,5,0,0:0:0:0:
356,236,60720,1,0,0:0:0:0:
280,272,60917,1,0,0:0:0:0:
204,236,61115,1,0,0:0:0:0:
132,276,61312,2,0,L|132:346,1,70
48,344,61707,2,0,L|48:309,2,35
48,140,62102,6,0,P|115:156|182:139,1,140
244,84,62694,1,0,0:0:0:0:
328,100,62891,2,0,L|330:134,2,35
404,64,63286,2,0,L|406:98,2,35
412,184,63681,5,0,0:0:0:0:
392,264,63878,1,0,0:0:0:0:
316,296,64075,1,0,0:0:0:0:
232,284,64273,1,0,0:0:0:0:
180,220,64470,2,0,P|112:206|47:230,1,140
