osu file format v12

[General]
AudioFilename: 03 Jade Star.mp3
AudioLeadIn: 1500
PreviewTime: 52628
Countdown: 0
SampleSet: Soft
StackLeniency: 0.7
Mode: 0
LetterboxInBreaks: 1
WidescreenStoryboard: 0

[Editor]
Bookmarks: 14733,27365,39996,52628,65259,77891,90523,103154,109470,115786,128417,141049,153680
DistanceSpacing: 1.2
BeatDivisor: 4
GridSize: 4

[Metadata]
Title:Jade Star
TitleUnicode:Jade Star
Artist:SHIKI
ArtistUnicode:SHIKI
Creator:Mercurius
Version:Another
Source:BMS
Tags:
BeatmapID:317066
BeatmapSetID:124364

[Difficulty]
HPDrainRate:7
CircleSize:5
OverallDifficulty:8
ApproachRate:8
SliderMultiplier:1.6
SliderTickRate:1

[Events]
//Background and Video events
0,0,"JS_title.png",0,0
//Break Periods
2,103354,109115
//Storyboard Layer 0 (Background)
//Storyboard Layer 1 (Fail)
//Storyboard Layer 2 (Pass)
//Storyboard Layer 3 (Foreground)
//Storyboard Sound Samples
//Background Colour Transformations
3,100,163,162,255

[TimingPoints]
2102,394.736842105263,4,2,0,100,1,0
52628,-100,4,2,0,100,0,1
65259,-100,4,2,0,100,0,0
90523,-100,4,2,0,100,0,1
103154,-100,4,2,0,100,0,0
128417,-100,4,2,0,100,0,1
134733,-100,4,2,0,100,0,0
140259,-100,4,2,0,100,0,1
153582,-100,4,2,0,100,0,0
153680,-100,4,2,0,100,0,1
153779,-100,4,2,0,100,0,0

[HitObjects]
388,48,2102,5,0,0:0:0:0:
472,164,2398,1,0,0:0:0:0:
328,176,2694,1,0,0:0:0:0:
396,128,3286,1,0,0:0:0:0:
396,128,3484,1,0,0:0:0:0:
260,128,3680,5,0,0:0:0:0:
118,115,3976,1,0,0:0:0:0:
182,245,4272,1,0,0:0:0:0:
188,162,4864,1,0,0:0:0:0:
188,162,5062,1,0,0:0:0:0:
268,268,5259,5,0,0:0:0:0:
384,184,5555,1,0,0:0:0:0:
396,328,5851,1,0,0:0:0:0:
348,260,6443,1,0,0:0:0:0:
348,260,6641,1,0,0:0:0:0:
204,220,6838,5,0,0:0:0:0:
61,219,7134,1,0,0:0:0:0:
130,343,7430,1,0,0:0:0:0:
131,260,8022,1,0,0:0:0:0:
131,260,8220,1,0,0:0:0:0:
136,84,8417,5,0,0:0:0:0:
228,116,8812,1,0,1:0:0:0:
324,104,9601,1,0,1:0:0:0:
408,152,10391,1,0,1:0:0:0:
408,248,11180,1,0,1:0:0:0:
324,200,11970,5,0,1:0:0:0:
228,212,12759,1,0,1:0:0:0:
168,136,13549,1,0,1:0:0:0:
72,124,13944,1,0,1:0:0:0:
72,124,14043,1,0,1:0:0:0:
28,208,14338,1,0,1:0:0:0:
96,272,14536,1,0,1:0:0:0:
96,272,14634,1,0,1:0:0:0:
96,272,14733,6,0,P|146:258|223:273,1,120,0|0,1:0|0:0,0:0:0:0:
235,325,15128,2,0,P|265:301|276:263,1,80,0|0,1:0|0:0,0:0:0:0:
327,181,15523,1,0,1:0:0:0:
327,181,15621,1,0,0:0:0:0:
419,209,15819,1,0,0:0:0:0:
419,209,15917,2,0,L|432:131,1,80,0|0,1:0|0:0,0:0:0:0:
364,24,16312,6,0,P|311:52|251:56,1,120,0|0,1:0|0:0,0:0:0:0:
196,88,16707,2,0,L|119:67,1,80,0|0,1:0|0:0,0:0:0:0:
27,151,17101,1,0,1:0:0:0:
27,151,17200,2,0,P|66:147|103:161,1,80
120,224,17496,2,0,L|133:303,1,80,0|0,1:0|0:0,0:0:0:0:
228,316,17891,6,0,P|297:281|374:297,1,160,0|0,1:0|1:0,0:0:0:0:
464,332,18483,1,0,0:0:0:0:
492,240,18680,2,0,L|417:210,1,80,0|0,1:0|0:0,0:0:0:0:
385,94,19075,2,0,L|460:124,1,80,0|0,1:0|0:0,0:0:0:0:
292,64,19470,6,0,P|226:104|224:181,1,160,0|0,1:0|1:0,0:0:0:0:
223,181,20062,1,0,0:0:0:0:
276,260,20259,1,0,1:0:0:0:
224,340,20457,1,0,0:0:0:0:
132,312,20654,1,0,1:0:0:0:
132,216,20851,1,0,0:0:0:0:
9,123,21049,6,0,P|68:128|127:121,1,120,0|0,1:0|0:0,0:0:0:0:
150,113,21444,1,0,1:0:0:0:
240,84,21641,2,0,L|277:155,1,80,0|0,0:0|1:0,0:0:0:0:
289,176,21937,1,0,0:0:0:0:
382,270,22134,1,0,0:0:0:0:
382,270,22233,2,0,P|390:232|382:193,1,80,0|0,1:0|0:0,0:0:0:0:
287,176,22628,6,0,P|229:188|170:180,2,120,0|0|0,1:0|0:0|1:0,0:0:0:0:
112,104,23417,1,0,1:0:0:0:
111,105,23516,2,0,P|84:133|74:172,1,80
76,196,23812,1,0,1:0:0:0:
76,196,24009,1,0,0:0:0:0:
48,320,24207,6,0,P|105:329|155:298,1,120,0|0,1:0|0:0,0:0:0:0:
216,276,24601,2,0,P|208:237|227:203,2,80,0|0|0,0:0|1:0|1:0,0:0:0:0:
272,308,25095,1,0,0:0:0:0:
400,320,25292,1,0,0:0:0:0:
400,320,25391,2,0,L|393:240,1,80,0|0,1:0|0:0,0:0:0:0:
384,112,25786,6,0,P|443:119|501:107,2,120,0|0|0,1:0|0:0|1:0,0:0:0:0:
297,72,26575,1,0,1:0:0:0:
297,72,26970,1,0,1:0:0:0:
360,252,27365,6,0,B|283:234|283:234|212:268,1,160,0|0,1:0|1:0,0:0:0:0:
124,308,27957,1,0,0:0:0:0:
36,268,28154,2,0,L|1:195,2,80,0|0|0,1:0|0:0|1:0,0:0:0:0:
4,196,28944,6,0,B|74:162|74:162|154:179,1,160,0|0,1:0|1:0,0:0:0:0:
208,264,29536,1,0,0:0:0:0:
300,232,29733,2,0,B|292:192|292:192|304:154,1,80,0|0,1:0|0:0,0:0:0:0:
404,66,30128,2,0,B|412:106|412:106|400:144,1,80,0|0,1:0|0:0,0:0:0:0:
303,156,30523,6,0,P|226:172|150:151,1,160,0|0,1:0|1:0,0:0:0:0:
56,64,31115,1,0,0:0:0:0:
76,80,31213,1,0,0:0:0:0:
96,95,31312,2,0,P|119:150|106:207,2,120,0|0|0,1:0|0:0|1:0,0:0:0:0:
52,288,32101,6,0,L|124:322,1,80,0|0,1:0|0:0,0:0:0:0:
288,304,32496,1,0,1:0:0:0:
200,264,32694,1,0,0:0:0:0:
348,232,32891,1,0,1:0:0:0:
348,232,32990,1,0,0:0:0:0:
348,232,33088,1,0,0:0:0:0:
208,168,33286,1,0,1:0:0:0:
304,148,33483,1,0,0:0:0:0:
372,76,33680,5,0,1:0:0:0:
372,75,33779,2,0,B|428:93|428:93|461:141,1,120,0|0,1:0|0:0,0:0:0:0:
412,224,34273,1,0,1:0:0:0:
412,224,34371,2,0,B|355:241|355:241|322:289,1,120,0|0,1:0|0:0,0:0:0:0:
228,264,34865,1,0,1:0:0:0:
228,264,35062,1,0,0:0:0:0:
58,281,35259,5,0,1:0:0:0:
58,281,35358,2,0,B|114:264|114:264|148:216,1,120,0|0,1:0|0:0,0:0:0:0:
164,120,35851,1,0,1:0:0:0:
163,120,35950,2,0,B|218:99|218:99|276:109,1,120,0|0,1:0|0:0,0:0:0:0:
312,200,36444,1,0,1:0:0:0:
312,200,36641,1,0,0:0:0:0:
404,219,36838,6,0,P|448:156|428:81,1,160,0|0,1:0|0:0,0:0:0:0:
332,68,37430,2,0,P|252:76|172:72,1,160,0|0,1:0|0:0,0:0:0:0:
80,48,38023,1,0,1:0:0:0:
56,140,38220,1,0,0:0:0:0:
148,168,38417,5,0,1:0:0:0:
148,168,38516,2,0,L|130:246,1,80
116,308,38812,2,0,P|156:349|212:338,1,120,0|0,1:0|0:0,0:0:0:0:
236,280,39207,1,0,1:0:0:0:
356,232,39404,2,0,L|338:310,2,80,0|0|0,0:0|1:0|0:0,0:0:0:0:
379,108,39996,6,0,P|302:120|228:91,1,160,0|0,1:0|1:0,0:0:0:0:
148,40,40588,1,0,0:0:0:0:
68,92,40786,1,0,1:0:0:0:
96,184,40983,1,0,0:0:0:0:
192,188,41180,1,0,1:0:0:0:
192,188,41575,6,0,P|269:200|343:171,1,160,0|0,1:0|1:0,0:0:0:0:
372,80,42167,1,0,0:0:0:0:
280,52,42365,1,0,1:0:0:0:
252,144,42562,1,0,0:0:0:0:
220,236,42759,1,0,1:0:0:0:
188,328,42957,1,0,0:0:0:0:
284,311,43154,6,0,P|361:293|439:306,1,160,0|0,1:0|1:0,0:0:0:0:
472,216,43746,1,0,0:0:0:0:
448,208,43845,1,0,0:0:0:0:
423,199,43944,2,0,P|355:160|328:87,1,160,0|0,1:0|1:0,0:0:0:0:
256,148,44536,1,0,0:0:0:0:
188,80,44733,6,0,L|124:128,1,80,0|0,1:0|0:0,0:0:0:0:
140,148,45029,2,0,B|80:136|80:136|20:140,1,120,0|0,1:0|1:0,0:0:0:0:
24,236,45523,1,0,1:0:0:0:
24,236,45621,1,0,1:0:0:0:
120,244,45819,1,0,1:0:0:0:
120,244,45917,2,0,P|122:283|109:321,1,80,0|0,1:0|0:0,0:0:0:0:
216,248,46312,5,0,1:0:0:0:
215,247,46411,2,0,P|212:207|225:169,1,80,0|0,1:0|0:0,0:0:0:0:
225,169,46707,2,0,P|284:180|348:168,2,120,0|0|0,1:0|0:0|1:0,0:0:0:0:
284,56,47496,1,0,1:0:0:0:
284,56,47694,1,0,0:0:0:0:
408,88,47891,5,0,1:0:0:0:
408,88,47990,2,0,L|445:158,1,80,0|0,1:0|0:0,0:0:0:0:
456,180,48286,2,0,B|400:204|400:204|340:204,2,120,0|0|0,1:0|0:0|1:0,0:0:0:0:
424,304,49075,1,0,1:0:0:0:
424,304,49273,1,0,0:0:0:0:
296,304,49470,6,0,B|236:316|196:296|137:302,1,160,0|0,1:0|0:0,0:0:0:0:
21,214,50062,2,0,B|80:208|120:228|180:216,1,160,0|0,1:0|0:0,0:0:0:0:
256,156,50654,1,0,1:0:0:0:
256,156,50851,1,0,0:0:0:0:
184,48,51049,5,0,1:0:0:0:
76,120,51246,1,0,0:0:0:0:
148,228,51444,1,0,1:0:0:0:
256,156,51641,1,0,1:0:0:0:
256,156,51740,1,0,1:0:0:0:
356,76,51937,1,0,1:0:0:0:
356,76,52036,1,0,1:0:0:0:
428,184,52233,1,0,1:0:0:0:
324,260,52430,1,0,1:0:0:0:
324,260,52529,1,0,1:0:0:0:
323,260,52628,6,0,P|312:298|310:338,1,80,0|0,1:0|0:0,0:0:0:0:
188,296,53023,2,0,P|192:256|186:217,1,80,0|0,1:0|1:0,0:0:0:0:
135,180,53319,2,0,P|97:188|58:179,1,80,0|0,0:0|1:0,0:0:0:0:
100,92,53713,1,0,0:0:0:0:
66,58,53812,1,0,1:0:0:0:
100,24,53911,1,0,0:0:0:0:
133,58,54009,1,0,1:0:0:0:
257,41,54207,6,0,P|255:81|244:120,1,80,0|0,1:0|0:0,0:0:0:0:
142,290,54601,2,0,P|144:250|156:212,1,80,0|0,1:0|1:0,0:0:0:0:
220,212,54898,2,0,L|300:212,1,80,0|0,0:0|1:0,0:0:0:0:
428,212,55292,1,0,0:0:0:0:
461,246,55391,1,0,1:0:0:0:
428,280,55490,1,0,0:0:0:0:
394,246,55588,1,0,1:0:0:0:
335,131,55786,6,0,P|320:95|316:55,1,80,0|0,1:0|0:0,0:0:0:0:
220,72,56180,1,0,1:0:0:0:
124,52,56378,1,0,1:0:0:0:
120,76,56476,1,0,0:0:0:0:
100,168,56674,1,0,1:0:0:0:
4,248,56871,1,0,0:0:0:0:
28,252,56970,1,0,1:0:0:0:
52,256,57069,1,0,0:0:0:0:
76,260,57167,1,0,1:0:0:0:
172,276,57365,6,0,P|197:306|205:345,1,80,0|0,1:0|0:0,0:0:0:0:
284,216,57759,2,0,P|259:186|250:148,1,80,0|0,1:0|0:0,0:0:0:0:
324,44,58154,1,0,1:0:0:0:
324,44,58253,2,0,P|349:74|357:113,1,80,0|0,1:0|0:0,0:0:0:0:
357,113,58549,2,0,L|448:128,1,80,0|0,1:0|0:0,0:0:0:0:
483,243,58944,6,0,P|408:220|333:244,1,160,0|0,1:0|1:0,0:0:0:0:
288,332,59536,1,0,1:0:0:0:
196,312,59733,1,0,0:0:0:0:
196,312,59832,2,0,L|172:212,1,80,0|0,1:0|0:0,0:0:0:0:
172,212,60128,1,0,1:0:0:0:
164,188,60226,1,0,0:0:0:0:
156,164,60325,1,0,1:0:0:0:
44,104,60523,6,0,P|119:127|194:103,1,160,0|0,1:0|1:0,0:0:0:0:
268,44,61115,1,0,1:0:0:0:
360,76,61312,1,0,0:0:0:0:
360,76,61411,2,0,L|421:158,1,80,0|0,1:0|0:0,0:0:0:0:
421,158,61707,1,0,1:0:0:0:
434,180,61805,1,0,0:0:0:0:
447,201,61904,1,0,1:0:0:0:
334,263,62101,6,0,B|272:236|236:292|179:259,1,160,0|0,1:0|1:0,0:0:0:0:
216,172,62694,1,0,1:0:0:0:
176,84,62891,1,0,0:0:0:0:
176,84,62990,2,0,P|138:69|99:70,1,80,0|0,1:0|0:0,0:0:0:0:
84,88,63286,1,0,1:0:0:0:
68,104,63384,1,0,0:0:0:0:
52,120,63483,1,0,1:0:0:0:
76,244,63680,5,0,1:0:0:0:
188,304,63878,1,0,0:0:0:0:
316,304,64075,1,0,1:0:0:0:
432,244,64273,1,0,0:0:0:0:
408,108,64470,1,0,1:0:0:0:
408,108,64569,1,0,1:0:0:0:
408,108,64766,2,0,L|288:108,1,120,0|0,1:0|1:0,0:0:0:0:
54,119,65259,6,0,P|132:111|199:151,1,160,0|0,1:0|1:0,0:0:0:0:
176,244,65851,1,0,0:0:0:0:
176,244,65950,1,0,0:0:0:0:
176,244,66049,1,0,1:0:0:0:
220,328,66246,2,0,L|299:317,2,80,0|0|0,0:0|1:0|0:0,0:0:0:0:
284,224,66838,6,0,L|363:234,1,80,0|0,1:0|0:0,0:0:0:0:
499,145,67233,2,0,L|420:156,1,80,0|0,1:0|0:0,0:0:0:0:
375,68,67628,2,0,B|296:92|296:92|219:92,1,160,0|0,1:0|1:0,0:0:0:0:
124,92,68220,1,0,0:0:0:0:
56,159,68417,6,0,B|56:218|56:218|24:280,2,120,0|0|0,1:0|0:0|1:0,0:0:0:0:
152,160,69207,1,0,0:0:0:0:
224,224,69404,1,0,0:0:0:0:
296,160,69601,1,0,1:0:0:0:
368,224,69799,1,0,0:0:0:0:
440,160,69996,2,0,B|440:100|440:100|467:46,2,120,0|0|0,1:0|0:0|1:0,0:0:0:0:
440,352,70786,5,0,1:0:0:0:
440,160,71180,1,0,1:0:0:0:
276,260,71575,6,0,B|216:260|216:260|168:240|168:240|120:240,1,160,0|0,1:0|1:0,0:0:0:0:
70,144,72167,1,0,0:0:0:0:
96,144,72266,1,0,0:0:0:0:
120,144,72365,1,0,1:0:0:0:
237,76,72562,1,0,0:0:0:0:
213,76,72661,1,0,0:0:0:0:
187,76,72759,1,0,1:0:0:0:
304,143,72957,1,0,0:0:0:0:
236,210,73154,6,0,B|232:252|232:252|216:272|216:272|209:323,2,120,0|0|0,1:0|0:0|1:0,0:0:0:0:
188,128,73944,1,0,1:0:0:0:
187,128,74042,2,0,P|151:142|111:141,1,80
48,128,74338,2,0,L|30:206,1,80,0|0,1:0|0:0,0:0:0:0:
156,240,74733,6,0,P|274:223|393:239,1,240,0|0,1:0|1:0,0:0:0:0:
393,239,75424,1,0,0:0:0:0:
393,239,75523,1,0,1:0:0:0:
316,340,75720,1,0,0:0:0:0:
260,224,75917,1,0,1:0:0:0:
204,108,76115,1,0,0:0:0:0:
203,107,76312,6,0,P|146:91|90:108,2,120,0|0|0,1:0|0:0|1:0,0:0:0:0:
296,140,77101,2,0,L|368:104,1,80,0|0,1:0|0:0,0:0:0:0:
256,228,77496,1,0,1:0:0:0:
212,312,77694,1,0,0:0:0:0:
192,324,77792,1,0,0:0:0:0:
171,336,77891,6,0,P|95:321|56:254,1,160,0|0,1:0|1:0,0:0:0:0:
88,164,78483,1,0,0:0:0:0:
88,164,78582,1,0,0:0:0:0:
88,164,78680,1,0,1:0:0:0:
128,76,78878,2,0,L|208:76,2,80,0|0|0,0:0|1:0|0:0,0:0:0:0:
248,164,79470,5,0,1:0:0:0:
344,164,79667,1,0,0:0:0:0:
488,80,79865,5,0,1:0:0:0:
392,80,80062,1,0,0:0:0:0:
296,248,80259,2,0,B|248:308|248:308|169:335,1,160,0|0,1:0|1:0,0:0:0:0:
108,260,80851,1,0,0:0:0:0:
39,191,81049,6,0,P|16:139|42:87,2,120,0|0|0,1:0|0:0|1:0,0:0:0:0:
120,140,81838,1,0,1:0:0:0:
196,84,82036,1,0,0:0:0:0:
276,136,82233,1,0,1:0:0:0:
352,192,82430,1,0,0:0:0:0:
428,248,82628,2,0,P|451:195|425:143,2,120,0|0|0,1:0|0:0|0:0,0:0:0:0:
256,336,83417,5,0,1:0:0:0:
428,248,83812,1,0,1:0:0:0:
255,159,84207,6,0,B|196:140|196:140|99:140,1,160,0|0,1:0|1:0,0:0:0:0:
8,228,84799,1,0,0:0:0:0:
32,228,84898,1,0,0:0:0:0:
56,228,84996,1,0,1:0:0:0:
144,316,85194,1,0,0:0:0:0:
120,316,85293,1,0,0:0:0:0:
96,316,85391,1,0,1:0:0:0:
184,228,85588,1,0,0:0:0:0:
280,228,85786,6,0,B|304:264|304:264|304:304|304:304|325:334,2,120,0|0|0,1:0|0:0|1:0,0:0:0:0:
232,148,86575,1,0,1:0:0:0:
232,148,86674,2,0,L|300:104,1,80
352,67,86970,2,0,P|391:71|423:94,1,80,0|0,1:0|0:0,0:0:0:0:
339,196,87365,6,0,P|225:227|109:201,1,240,0|0,1:0|1:0,0:0:0:0:
109,201,88055,1,0,0:0:0:0:
109,201,88154,1,0,1:0:0:0:
88,108,88351,1,0,0:0:0:0:
168,52,88549,1,0,1:0:0:0:
240,116,88746,1,0,0:0:0:0:
212,208,88944,6,0,L|190:284,1,80,0|0,1:0|0:0,0:0:0:0:
96,304,89338,1,0,1:0:0:0:
304,184,89536,1,0,1:0:0:0:
304,184,89634,1,0,1:0:0:0:
396,160,89832,1,0,1:0:0:0:
396,160,89930,2,0,L|417:83,1,80,0|0,1:0|0:0,0:0:0:0:
432,248,90325,1,0,1:0:0:0:
432,248,90424,1,0,1:0:0:0:
432,248,90523,6,0,L|409:324,1,80,0|0,1:0|0:0,0:0:0:0:
312,324,90917,2,0,L|289:248,1,80,0|0,1:0|1:0,0:0:0:0:
280,224,91213,2,0,L|257:148,1,80,0|0,0:0|1:0,0:0:0:0:
228,56,91608,1,0,0:0:0:0:
204,56,91707,1,0,1:0:0:0:
180,56,91805,1,0,0:0:0:0:
156,56,91904,1,0,1:0:0:0:
36,176,92101,6,0,L|116:176,1,80,0|0,1:0|0:0,0:0:0:0:
204,325,92496,2,0,L|224:248,1,80,0|0,1:0|1:0,0:0:0:0:
232,224,92792,2,0,L|251:146,1,80,0|0,0:0|1:0,0:0:0:0:
284,56,93187,1,0,0:0:0:0:
308,56,93286,1,0,1:0:0:0:
332,56,93384,1,0,0:0:0:0:
356,56,93483,1,0,1:0:0:0:
476,176,93680,6,0,L|396:176,1,80,0|0,1:0|0:0,0:0:0:0:
324,240,94075,1,0,1:0:0:0:
256,172,94273,1,0,1:0:0:0:
256,172,94371,1,0,0:0:0:0:
188,240,94569,1,0,1:0:0:0:
120,172,94766,1,0,0:0:0:0:
95,172,94865,1,0,1:0:0:0:
71,172,94963,1,0,0:0:0:0:
46,172,95062,1,0,1:0:0:0:
44,268,95259,6,0,L|44:348,1,80,0|0,1:0|0:0,0:0:0:0:
148,116,95654,2,0,L|148:36,1,80,0|0,1:0|0:0,0:0:0:0:
248,268,96049,1,0,1:0:0:0:
248,268,96148,2,0,L|248:348,1,80,0|0,1:0|0:0,0:0:0:0:
268,256,96444,2,0,L|268:176,1,80,0|0,1:0|0:0,0:0:0:0:
184,80,96838,5,0,1:0:0:0:
68,132,97036,1,0,0:0:0:0:
68,260,97233,1,0,1:0:0:0:
192,288,97430,1,0,0:0:0:0:
256,176,97628,1,0,1:0:0:0:
256,176,97726,1,0,0:0:0:0:
352,88,97924,1,0,0:0:0:0:
376,88,98023,1,0,1:0:0:0:
376,112,98121,1,0,0:0:0:0:
352,112,98220,1,0,1:0:0:0:
484,168,98417,5,0,1:0:0:0:
511,291,98615,1,0,0:0:0:0:
401,355,98812,1,0,1:0:0:0:
306,269,99009,1,0,0:0:0:0:
357,152,99207,1,0,1:0:0:0:
357,152,99305,1,0,0:0:0:0:
248,84,99503,1,0,0:0:0:0:
227,73,99601,1,0,1:0:0:0:
216,94,99700,1,0,0:0:0:0:
238,105,99799,1,0,1:0:0:0:
36,176,99996,6,0,L|116:176,1,80,0|0,1:0|0:0,0:0:0:0:
188,240,100391,1,0,1:0:0:0:
256,172,100588,1,0,1:0:0:0:
256,172,100687,1,0,0:0:0:0:
324,240,100884,1,0,1:0:0:0:
392,172,101082,1,0,0:0:0:0:
417,172,101180,1,0,1:0:0:0:
441,172,101279,1,0,0:0:0:0:
466,172,101378,1,0,1:0:0:0:
468,268,101575,6,0,L|468:348,1,80,0|0,1:0|0:0,0:0:0:0:
364,116,101970,2,0,L|364:36,1,80,0|0,1:0|0:0,0:0:0:0:
264,268,102365,1,0,1:0:0:0:
264,268,102463,2,0,L|264:348,1,80,0|0,1:0|0:0,0:0:0:0:
244,256,102759,2,0,L|244:176,1,80,0|0,1:0|0:0,0:0:0:0:
256,48,103154,5,0,0:0:0:0:
256,192,109865,5,0,0:0:0:0:
312,164,110654,1,0,0:0:0:0:
312,100,111444,1,0,0:0:0:0:
256,72,112233,1,0,0:0:0:0:
200,100,113023,1,0,0:0:0:0:
200,164,113812,1,0,0:0:0:0:
348,288,114207,5,0,1:0:0:0:
256,316,114404,1,0,0:0:0:0:
168,280,114601,1,0,1:0:0:0:
128,192,114799,1,0,1:0:0:0:
136,168,114898,1,0,1:0:0:0:
144,148,114996,1,0,1:0:0:0:
152,124,115095,1,0,1:0:0:0:
160,100,115194,1,0,1:0:0:0:
256,84,115391,1,0,1:0:0:0:
348,104,115588,1,0,1:0:0:0:
348,104,115687,1,0,1:0:0:0:
348,104,115786,6,0,P|399:131|417:187,1,120,0|0,1:0|0:0,0:0:0:0:
412,212,116180,1,0,1:0:0:0:
348,284,116378,1,0,0:0:0:0:
256,252,116575,2,0,L|192:300,3,80,0|0|0|0,1:0|0:0|1:0|0:0,1:0:0:0:
103,267,117365,6,0,P|57:233|49:175,1,120,0|0,1:0|0:0,0:0:0:0:
56,152,117759,1,0,1:0:0:0:
120,80,117957,1,0,0:0:0:0:
216,68,118154,2,0,L|294:85,1,80,0|0,1:0|0:0,0:0:0:0:
414,189,118549,2,0,L|336:172,1,80,0|0,1:0|0:0,0:0:0:0:
248,208,118944,6,0,P|170:191|91:206,1,160,0|0,1:0|1:0,0:0:0:0:
220,328,119536,1,0,0:0:0:0:
240,316,119634,1,0,0:0:0:0:
260,304,119733,2,0,P|338:289|416:305,1,160,0|0,1:0|1:0,0:0:0:0:
480,232,120325,1,0,0:0:0:0:
452,140,120523,6,0,L|379:105,1,80,0|0,1:0|0:0,0:0:0:0:
216,124,120917,1,0,1:0:0:0:
304,164,121115,1,0,0:0:0:0:
156,196,121312,1,0,1:0:0:0:
156,196,121411,1,0,0:0:0:0:
156,196,121509,1,0,0:0:0:0:
296,260,121707,1,0,1:0:0:0:
200,280,121904,1,0,0:0:0:0:
132,352,122101,5,0,1:0:0:0:
132,353,122200,2,0,B|76:335|76:335|43:287,1,120,0|0,1:0|0:0,0:0:0:0:
92,204,122694,1,0,1:0:0:0:
92,204,122792,2,0,B|120:156|120:156|182:139,1,120,0|0,1:0|0:0,0:0:0:0:
228,52,123286,1,0,1:0:0:0:
228,52,123483,1,0,0:0:0:0:
404,44,123680,5,0,1:0:0:0:
404,44,123779,2,0,B|348:61|348:61|314:109,1,120,0|0,1:0|0:0,0:0:0:0:
298,205,124273,1,0,1:0:0:0:
299,205,124371,2,0,B|244:226|244:226|186:216,1,120,0|0,1:0|0:0,0:0:0:0:
150,125,124865,1,0,1:0:0:0:
150,125,125062,1,0,0:0:0:0:
76,184,125259,6,0,P|32:247|52:322,1,160,0|0,1:0|0:0,0:0:0:0:
144,300,125851,2,0,P|224:292|304:296,1,160,0|0,1:0|0:0,0:0:0:0:
388,344,126444,1,0,1:0:0:0:
440,264,126641,1,0,0:0:0:0:
360,212,126838,5,0,1:0:0:0:
360,212,126937,2,0,P|356:172|378:134,1,80
360,76,127233,2,0,L|240:68,1,120,0|0,1:0|0:0,0:0:0:0:
216,66,127628,1,0,1:0:0:0:
114,194,127825,2,0,L|132:116,2,80,0|0|0,0:0|1:0|0:0,0:0:0:0:
114,194,128417,5,0,1:0:0:0:
92,288,128615,1,0,0:0:0:0:
184,308,128812,1,0,1:0:0:0:
208,216,129009,1,0,0:0:0:0:
232,212,129108,1,0,0:0:0:0:
256,208,129207,1,0,0:0:0:0:
280,204,129305,1,0,0:0:0:0:
304,200,129404,1,0,0:0:0:0:
328,196,129503,1,0,0:0:0:0:
352,192,129601,2,0,L|430:176,1,80,0|0,1:0|0:0,0:0:0:0:
496,248,129996,5,0,1:0:0:0:
456,336,130194,1,0,0:0:0:0:
364,316,130391,1,0,1:0:0:0:
348,220,130588,1,0,0:0:0:0:
324,216,130687,1,0,0:0:0:0:
300,212,130786,1,0,2:0:0:0:
276,208,130884,1,0,0:0:0:0:
252,204,130983,1,0,0:0:0:0:
228,200,131082,1,0,0:0:0:0:
204,196,131180,2,0,L|125:180,1,80,0|0,1:0|0:0,0:0:0:0:
32,164,131575,5,0,1:0:0:0:
48,68,131773,1,0,0:0:0:0:
144,84,131970,1,0,1:0:0:0:
240,96,132167,1,0,0:0:0:0:
264,92,132266,1,0,0:0:0:0:
288,88,132365,1,0,0:0:0:0:
312,84,132463,1,0,0:0:0:0:
336,80,132562,1,0,0:0:0:0:
360,76,132661,1,0,0:0:0:0:
384,72,132759,2,0,L|463:56,1,80,0|0,1:0|0:0,0:0:0:0:
356,164,133154,6,0,P|332:238|364:309,1,160,0|0,1:0|0:0,0:0:0:0:
448,360,133746,2,0,P|373:336|302:368,1,160,0|0,1:0|0:0,0:0:0:0:
302,368,134338,1,0,1:0:0:0:
112,344,134733,6,0,L|122:305,3,40,0|0|0|0,1:0|0:0|0:0|0:0,0:0:0:0:
116,284,135128,2,0,L|105:245,3,40,0|0|0|0,1:0|0:0|0:0|0:0,0:0:0:0:
100,220,135523,1,0,0:0:0:0:
104,196,135621,1,0,0:0:0:0:
108,172,135720,1,0,0:0:0:0:
112,148,135819,1,0,0:0:0:0:
116,124,135917,1,0,1:0:0:0:
236,80,136115,1,0,1:0:0:0:
360,116,136312,6,0,L|400:140,3,40,0|0|0|0,1:0|0:0|0:0|0:0,0:0:0:0:
400,160,136707,2,0,L|420:196,3,40,0|0|0|0,1:0|0:0|0:0|0:0,0:0:0:0:
416,220,137101,1,0,0:0:0:0:
412,244,137200,1,0,0:0:0:0:
408,268,137299,1,0,0:0:0:0:
400,292,137398,1,0,0:0:0:0:
376,296,137496,1,0,1:0:0:0:
352,300,137595,1,0,0:0:0:0:
328,304,137694,1,0,1:0:0:0:
304,308,137792,1,0,0:0:0:0:
280,312,137891,6,0,B|196:324|196:324|124:301,1,160,0|0,1:0|0:0,0:0:0:0:
52,193,138483,2,0,B|136:181|136:181|208:204,1,160,0|0,1:0|0:0,0:0:0:0:
336,192,139075,1,0,1:0:0:0:
336,192,139273,1,0,0:0:0:0:
288,72,139470,2,0,B|344:88|344:88|404:76,2,120,0|0|0,1:0|0:0|1:0,0:0:0:0:
164,44,140259,5,0,1:0:0:0:
164,44,140358,1,0,1:0:0:0:
84,144,140555,1,0,1:0:0:0:
120,268,140753,1,0,1:0:0:0:
244,292,140950,1,0,1:0:0:0:
244,292,141049,6,0,L|322:306,1,80,0|0,1:0|0:0,0:0:0:0:
450,211,141444,2,0,L|372:224,1,80,0|0,1:0|0:0,0:0:0:0:
300,164,141838,1,0,1:0:0:0:
348,80,142036,1,0,0:0:0:0:
324,72,142135,1,0,0:0:0:0:
300,68,142234,1,0,0:0:0:0:
276,72,142332,1,0,0:0:0:0:
252,80,142431,1,0,0:0:0:0:
232,92,142529,1,0,0:0:0:0:
212,104,142628,6,0,L|133:118,1,80,0|0,1:0|0:0,0:0:0:0:
23,183,143023,2,0,L|100:208,1,80,0|0,1:0|0:0,0:0:0:0:
112,304,143417,1,0,0:0:0:0:
136,296,143516,1,0,0:0:0:0:
160,292,143615,1,0,0:0:0:0:
184,296,143713,1,0,0:0:0:0:
208,304,143812,2,0,P|244:320|284:324,1,80,0|0,1:0|0:0,0:0:0:0:
380,344,144207,5,0,1:0:0:0:
360,216,144404,1,0,0:0:0:0:
340,88,144601,1,0,1:0:0:0:
452,148,144799,1,0,0:0:0:0:
452,148,144898,1,0,0:0:0:0:
451,148,144996,2,0,P|420:171|395:203,1,80,0|0,1:0|0:0,0:0:0:0:
223,139,145391,2,0,P|263:144|299:159,1,80,0|0,1:0|0:0,0:0:0:0:
240,236,145786,2,0,B|150:199|86:251|2:223,2,240
404,336,147365,5,0,1:0:0:0:
396,316,147463,1,0,0:0:0:0:
388,296,147562,1,0,0:0:0:0:
380,272,147661,1,0,0:0:0:0:
352,232,147759,1,0,1:0:0:0:
356,208,147858,1,0,0:0:0:0:
360,184,147957,1,0,0:0:0:0:
364,160,148055,1,0,0:0:0:0:
368,112,148154,2,0,L|352:75,3,40,0|0|0|0,1:0|0:0|0:0|0:0,0:0:0:0:
308,60,148549,1,0,1:0:0:0:
284,52,148648,1,0,0:0:0:0:
260,44,148746,1,0,0:0:0:0:
4,108,148944,5,0,1:0:0:0:
24,116,149042,1,0,0:0:0:0:
44,124,149141,1,0,0:0:0:0:
68,132,149240,1,0,0:0:0:0:
108,160,149338,1,0,1:0:0:0:
132,156,149437,1,0,0:0:0:0:
156,152,149536,1,0,0:0:0:0:
180,148,149634,1,0,0:0:0:0:
228,144,149733,2,0,L|264:159,3,40,0|0|0|0,1:0|0:0|0:0|0:0,0:0:0:0:
300,192,150128,1,0,1:0:0:0:
312,212,150227,1,0,0:0:0:0:
324,232,150325,1,0,0:0:0:0:
336,252,150424,1,0,0:0:0:0:
360,292,150523,6,0,B|296:356|296:356|224:332|147:344,2,240
328,103,152101,2,0,P|382:80|441:83,2,120
328,104,152891,1,0,1:0:0:0:
140,144,153286,1,0,1:0:0:0:
272,284,153680,1,0,1:0:0:0:
