osu file format v9

[General]
AudioFilename: BABYLON.mp3
AudioLeadIn: 0
PreviewTime: 5123
Countdown: 0
SampleSet: Normal
StackLeniency: 0.5
Mode: 0
LetterboxInBreaks: 0

[Editor]
DistanceSpacing: 1
BeatDivisor: 4
GridSize: 16

[Metadata]
Title:BABYLON
Artist:SHIKI
Creator:miccoliasms
Version:Normal
Source:BMS
Tags:Lunet mizuki Alace ignorethis

[Difficulty]
HPDrainRate:3
CircleSize:3
OverallDifficulty:4
ApproachRate:4
SliderMultiplier:1
SliderTickRate:1

[Events]
//Background and Video events
Video,0,"SHIKI- Babylon.flv"
0,0,"babylon.jpg"
//Break Periods
2,78586,84804
//Storyboard Layer 0 (Background)
//Storyboard Layer 1 (Fail)
//Storyboard Layer 2 (Pass)
//Storyboard Layer 3 (Foreground)
//Storyboard Sound Samples
//Background Colour Transformations
3,100,163,162,255

[TimingPoints]
5123,315.789473684211,4,1,0,60,1,0
35280,-133.333333333333,4,2,0,45,0,0
45386,-100,4,1,0,60,0,0
78307,-100,4,1,0,5,0,0
78544,-100,4,1,0,60,0,0
85965,1276.59574468085,4,2,0,5,1,0
88518,315.789473684211,4,1,0,60,1,0
118754,-100,4,1,0,5,0,0

[Colours]
Combo1 : 128,255,0
Combo2 : 255,128,64
Combo3 : 128,128,255
Combo4 : 255,128,255

[HitObjects]
368,64,5123,2,0,B|408:112|384:200,1,100,4|2
344,248,5754,2,0,B|280:248,1,50,0|0
192,264,6228,2,0,B|112:192,1,100
160,104,6859,2,0,B|248:184,2,100
160,104,7649,5,2
248,56,7965,1,2
344,56,8280,1,2
432,104,8596,1,2
344,152,8912,2,0,B|256:200,1,100
328,272,9544,2,0,B|424:220,2,100,0|0|4
232,296,10491,5,2
136,272,10807,2,0,B|88:272,1,50
72,176,11280,2,0,B|120:152|200:160,1,100
176,56,11912,2,0,B|232:80|264:128,2,100
176,56,12701,5,2
176,160,13017,1,2
216,256,13333,1,2
304,312,13649,1,2
400,320,13965,2,0,B|400:264|352:224,1,100
416,144,14596,2,0,B|464:176|480:256,2,100,0|0|4
336,80,15544,5,2
240,64,15859,2,0,B|192:88,1,50
136,168,16333,2,0,B|80:136|80:64,2,100
232,200,17280,2,0,B|288:224|312:312,1,100
320,320,17754,2,0,B|424:320,2,100,2|2|2
216,320,18701,1,2
136,256,19017,2,0,B|72:168|112:64,1,200,2|2
176,144,19965,1,2
264,200,20280,5,0
360,208,20596,1,0
456,176,20912,1,0
456,176,21070,1,0
496,80,21386,2,0,B|392:80,1,100
304,32,22017,2,0,B|272:72|288:128,2,100
304,32,22807,5,2
304,32,23123,1,0
208,48,23438,1,2
208,48,23754,1,0
112,64,24070,2,0,B|8:88,1,100,2|2
64,176,24701,2,0,B|180:148,1,100,2|2
256,192,25333,5,4
320,272,25649,1,0
256,352,25965,1,0
256,352,26123,1,0
192,272,26438,2,0,B|88:272,1,100
128,176,27070,2,0,B|264:176,2,100
128,176,27859,5,2
88,80,28175,2,0,B|32:96|24:152,2,100
192,80,29123,1,2
288,112,29438,1,0
384,144,29754,1,2
480,176,30070,1,0
408,248,30386,6,0,B|456:352,2,100
408,248,31175,1,0
312,256,31491,2,0,B|288:368,2,100
224,208,32438,2,0,B|136:272,1,100
143,266,32912,5,4
256,96,33544,1,4
368,264,34175,1,4
368,264,34491,1,4
264,264,34807,2,0,B|144:264,1,100
192,168,35438,6,0,B|24:152,1,149.999995529652,4|0
136,32,36701,2,0,B|312:48,1,149.999995529652
384,160,37965,6,0,B|208:144,1,149.999995529652
296,280,39228,2,0,B|464:296,2,149.999995529652,0|0|4
152,240,41123,5,0
232,112,41754,1,0
360,192,42386,1,0
272,312,43017,1,0
272,312,43649,1,0
304,168,44280,5,4
232,136,44596,1,0
200,208,44912,1,2
272,240,45228,1,0
224,328,45544,6,0,B|160:328,2,50,4|0|8
272,328,46017,2,0,B|416:328,2,100,0|8|0
248,288,46807,2,0,B|184:192,1,100,0|8
248,120,47438,2,0,B|312:216,1,100,0|8
360,288,48070,5,0
440,224,48386,1,8
360,160,48701,1,0
440,96,49017,1,8
360,32,49333,2,0,B|240:32,1,100,0|8
256,136,49965,2,0,B|144:136,1,100,0|8
112,224,50596,6,0,B|176:304|304:288,1,200,4|8
360,104,51859,2,0,B|272:24|128:64,1,200,4|8
304,208,53123,6,0,B|408:208,2,100,0|8|0
200,208,54070,1,8
160,112,54386,2,0,B|256:56|360:120,1,200,0|8
328,312,55649,5,4
328,312,55965,1,8
232,280,56280,1,0
232,280,56596,1,8
136,248,56912,2,0,B|24:208,1,100,0|8
24,112,57544,2,0,B|144:160,1,100,0|8
216,168,58175,5,4
216,168,58491,1,8
312,128,58807,1,0
312,128,59123,1,8
408,88,59438,2,0,B|512:40,1,100,0|8
512,144,60070,2,0,B|400:192,1,100,0|8
320,192,60701,6,0,B|240:128|112:144,1,200,4|0
40,184,61649,1,8
40,288,61965,2,0,B|112:352|256:336,1,200,4|0
304,272,62912,1,8
272,176,63228,6,0,B|216:192|208:256,2,100,4|8|0
272,176,64175,1,8
352,120,64491,2,0,B|400:88|400:32,2,100,0|8|0
352,120,65438,1,8
360,216,65754,6,0,B|400:312|512:344,2,200,4|0|0
320,128,67333,1,8
232,176,67649,1,0
184,88,67965,1,8
96,136,68280,6,0,B|104:256,1,100,0|8
168,312,68912,2,0,B|160:192,1,100,0|8
208,120,69544,2,0,B|216:256,2,100,0|8|0
208,120,70491,1,8
296,72,70807,6,0,B|312:184,1,100,4|8
392,112,71438,2,0,B|336:200,1,100,0|8
440,208,72070,2,0,B|328:232,1,100,0|8
408,304,72701,2,0,B|312:264,1,100,0|8
224,296,73333,6,0,B|152:216|144:96,1,200
328,24,74596,2,0,B|384:112|392:224,2,200,0|0|4
256,192,76017,12,0,78386
256,192,86124,12,0,87879
256,72,88518,6,0,B|200:48,6,50,0|0|2|0|0|0|2
256,72,89781,6,0,B|320:160|272:264,1,200,4|0
184,304,90728,1,8
160,208,91044,2,0,B|64:144,1,100,0|8
88,56,91675,2,0,B|192:128,1,100,0|8
264,72,92307,6,0,B|272:128|224:184,2,100,4|8|0
264,72,93254,1,8
360,104,93570,2,0,B|400:208,1,100,0|8
368,296,94202,2,0,B|320:176,1,100,0|8
240,160,94833,5,0
184,240,95149,1,8
240,320,95465,1,0
240,320,95781,1,8
296,240,96096,1,0
352,152,96412,1,8
288,72,96728,1,0
288,72,97044,1,8
232,152,97360,6,0,B|128:152,1,100,4|8
80,240,97991,2,0,B|216:240,1,100,0|8
280,240,98623,1,0
280,240,98939,1,8
376,216,99254,1,0
376,216,99570,1,8
424,128,99886,6,0,B|464:112|520:128,2,75,2|0|0
424,80,100518,2,0,B|440:40|496:24,2,75,2|0|0
376,88,101149,2,0,B|344:56|344:0,2,75,2|0|0
368,136,101781,2,0,B|328:136|280:104,2,75,2|0|0
400,176,102412,2,0,B|320:240,1,100,4|8
360,328,103044,2,0,B|408:288,2,50,0|0|8
264,296,103675,5,0
168,264,103991,1,8
72,232,104307,1,0
72,232,104623,1,8
112,144,104939,6,0,B|72:120|24:128,2,75,4|8|0
160,168,105570,2,0,B|200:200|272:200,1,100,0|8
296,112,106202,2,0,B|240:112,2,50,0|0|8
400,112,106833,2,0,B|520:112,1,100,0|8
448,200,107465,6,0,B|392:208,2,50,0|0|8
352,224,108096,2,0,B|304:256,2,50,0|0|8
256,248,108728,2,0,B|192:232,2,50,0|0|8
168,200,109360,2,0,B|104:96,1,100,0|8
24,80,109991,6,0,B|80:184,1,100,4|8
40,264,110623,2,0,B|136:288,1,100,0|8
216,352,111254,2,0,B|312:312,1,100,0|8
408,328,111886,2,0,B|448:224,1,100,0|8
352,192,112518,5,4
176,88,113149,1,4
136,280,113781,1,4
136,280,114096,1,4
232,312,114412,2,0,B|272:336|336:352,2,100,0|0|4
256,192,115202,12,0,118833
