osu file format v9

[General]
AudioFilename: BABYLON.mp3
AudioLeadIn: 0
PreviewTime: 5123
Countdown: 0
SampleSet: Soft
StackLeniency: 0.5
Mode: 0
LetterboxInBreaks: 0

[Editor]
DistanceSpacing: 1.1
BeatDivisor: 4
GridSize: 4

[Metadata]
Title:BABYLON
Artist:SHIKI
Creator:miccoliasms
Version:Hyper
Source:BMS
Tags:Lunet mizuki Alace ignorethis

[Difficulty]
HPDrainRate:7
CircleSize:4
OverallDifficulty:8
ApproachRate:8
SliderMultiplier:1.6
SliderTickRate:0.5

[Events]
//Background and Video events
Video,0,"SHIKI- Babylon.flv"
0,0,"babylon.jpg"
//Break Periods
2,76059,80162
//Storyboard Layer 0 (Background)
//Storyboard Layer 1 (Fail)
//Storyboard Layer 2 (Pass)
//Storyboard Layer 3 (Foreground)
//Storyboard Sound Samples
//Background Colour Transformations
3,100,163,162,255

[TimingPoints]
5123,315.789473684211,4,2,0,75,1,0
13965,-76.9230769230769,4,2,0,100,0,0
15228,-100,4,2,0,90,0,0
34175,-76.9230769230769,4,1,0,50,0,0
34254,-76.9230769230769,4,1,0,60,0,0
34412,-76.9230769230769,4,1,0,70,0,0
34570,-76.9230769230769,4,1,0,80,0,0
34728,-76.9230769230769,4,1,0,87,0,0
35438,-142.857142857143,4,2,0,65,0,0
45544,-100,4,1,0,70,0,0
55649,-100,4,1,0,80,0,0
80596,-100,4,1,0,60,0,0
85965,1276.59574468085,4,2,0,5,1,0
88518,315.789473684211,4,1,0,40,1,0
88833,-100,4,1,0,50,0,0
89149,-100,4,1,0,60,0,0
89465,-100,4,1,0,70,0,0
89781,-100,4,1,0,80,0,0
109912,-100,4,1,0,85,0,0
111175,-100,4,1,0,90,0,0
112439,-100,4,1,0,80,0,0
112675,-100,4,2,0,100,0,0
112912,-100,4,1,0,80,0,0
113307,-100,4,2,0,100,0,0
113544,-100,4,1,0,80,0,0
113860,-100,4,2,0,100,0,0
114018,-100,4,1,0,80,0,0
114175,-100,4,2,0,100,0,0

[Colours]
Combo1 : 128,255,0
Combo2 : 255,128,64
Combo3 : 128,128,255
Combo4 : 255,128,255

[HitObjects]
144,92,5123,1,4
60,164,5438,1,0
168,188,5754,2,0,B|216:204|228:248,1,80,2|2
225,239,6228,5,2
432,88,6544,1,2
225,239,6859,1,2
432,88,7175,1,2
225,239,7491,2,0,B|175:243|159:283,1,80,2|2
161,280,7965,5,2
84,252,8123,1,2
40,184,8280,1,0
24,104,8438,1,2
24,104,8754,6,0,B|108:100|168:28,1,160,2|2
220,92,9228,1,0
264,160,9386,2,0,B|360:164|392:244,1,160,2|2
448,348,9859,1,4
64,348,10175,5,4
108,196,10491,1,0
200,328,10807,2,0,B|248:312|256:264,1,80,2|2
253,273,11280,5,2
356,40,11596,1,2
253,273,11912,1,2
460,120,12228,1,2
253,273,12544,2,0,B|224:236|180:232,1,80,2|2
187,232,13017,5,2
108,232,13175,1,2
28,232,13333,1,0
68,164,13491,2,0,B|112:88|192:72,1,160,2|2
284,72,13965,6,0,B|388:100,1,103.999998140335,4|0
492,160,14280,2,0,B|388:188,1,103.999998140335,4|0
280,244,14596,2,0,B|384:272,1,103.999998140335,4|0
488,332,14911,2,0,B|384:360,1,103.999998140335,4|0
284,360,15228,5,4
284,360,15544,1,0
216,320,15701,1,2
160,264,15859,2,0,B|76:264,1,80,0|2
80,264,16333,5,2
80,264,16649,1,2
120,196,16807,1,0
168,132,16965,2,0,B|224:68|328:88,1,160,2|2
392,96,17438,1,0
460,136,17596,2,0,B|480:180|452:224,1,80,2|2
458,213,18070,5,2
384,240,18228,1,2
312,272,18386,1,0
240,304,18544,1,2
240,304,18859,6,0,B|180:248|88:292,1,160,2|2
24,244,19333,1,0
96,204,19491,1,2
176,188,19649,2,0,B|256:168|300:88,1,160,4|4
464,148,20280,5,4
464,148,20596,1,0
452,228,20754,1,2
440,308,20912,2,0,B|356:320,1,80,0|2
360,319,21386,5,2
360,319,21701,1,2
312,256,21859,1,0
268,188,22017,2,0,B|224:120|120:124,1,160,2|2
48,132,22491,1,0
96,196,22649,1,2
16,208,22807,5,2
196,344,23123,1,2
272,316,23280,1,2
344,276,23438,1,0
396,212,23596,1,2
152,60,23912,5,2
396,212,24228,1,2
344,276,24386,1,0
272,316,24544,1,2
196,344,24701,1,0
116,348,24859,1,2
116,348,24938,1,2
116,348,25017,2,0,B|28:348,1,80,0|2
80,248,25333,5,4
80,248,25649,1,0
132,188,25807,1,2
168,116,25965,2,0,B|256:116,1,80,0|2
248,116,26438,5,2
248,116,26754,1,2
316,156,26912,1,0
380,204,27070,2,0,B|424:280|388:360,1,160,2|2
312,340,27544,2,0,B|232:316,1,80,0|2
136,284,27859,5,2
136,284,28175,1,2
80,224,28333,1,2
64,144,28491,1,0
76,64,28649,2,0,B|236:116,1,160,2|2
304,84,29123,6,0,B|336:160,1,80,0|2
440,252,29438,2,0,B|408:176,1,80,0|2
368,280,29754,2,0,B|284:272|224:352,1,160,4|4
148,344,30228,1,0
68,344,30386,5,4
48,120,30701,1,0
96,56,30859,1,2
132,128,31017,2,0,B|212:148,1,80,0|2
209,147,31491,5,2
209,147,31807,1,2
284,120,31965,1,0
352,80,32123,2,0,B|408:152|496:176,1,160,2|2
452,244,32596,2,0,B|424:324,1,80,0|2
344,320,32912,5,2
40,280,33228,1,2
112,244,33386,1,2
168,188,33544,1,0
204,116,33701,2,0,B|364:80,1,160,2|2
448,156,34175,5,0
448,156,34333,1,0
376,260,34491,1,0
376,260,34649,1,0
264,320,34807,2,0,B|204:232,1,103.999998140335
68,128,35123,2,0,B|128:216,1,103.999998140335
192,160,35438,5,4
292,96,35912,1,0
408,92,36386,1,0
464,100,36544,1,0
492,148,36701,2,0,B|496:208|448:260,1,111.999997329712
408,280,37175,2,0,B|360:320|304:264,1,111.999997329712
144,304,37965,5,0
48,232,38438,2,0,B|104:212|120:144,1,111.999997329712
164,132,38912,1,0
208,152,39070,1,0
252,128,39228,2,0,B|320:104|364:156,1,111.999997329712
388,188,39701,2,0,B|352:248|284:240,1,111.999997329712
276,288,40175,1,0
88,304,40491,5,0
100,256,40649,1,0
112,208,40807,1,0
124,160,40965,1,0
224,160,41280,1,0
176,72,41596,1,0
176,72,41754,1,0
460,72,42386,1,0
424,304,43017,5,0
412,256,43175,1,0
400,208,43333,1,0
388,160,43491,1,0
288,160,43806,1,0
336,72,44122,1,0
336,72,44280,1,0
52,72,44912,1,0
256,332,45544,5,0
256,332,45859,1,0
460,192,46491,1,0
256,52,47123,1,0
52,192,47755,1,0
52,192,48070,5,0
128,332,48386,1,0
192,284,48544,1,0
352,284,48859,2,0,B|432:284,2,80
272,284,49333,1,0
384,172,49649,1,0
432,108,49807,1,0
272,124,50123,1,0
288,44,50280,1,0
156,136,50596,5,0
104,76,50754,1,0
80,152,50912,1,0
136,208,51070,2,0,B|168:300|248:312,1,160
324,292,51544,2,0,B|404:276,1,80
480,256,51859,1,0
364,48,52175,1,0
400,120,52333,1,0
240,96,52649,1,0
304,144,52807,1,0
368,192,52965,1,0
332,264,53123,6,0,B|368:348,2,80
256,292,53596,2,0,B|192:344|104:328,1,160
24,340,54070,1,0
52,264,54228,1,0
256,192,54386,12,4,55649
424,184,55807,5,0
424,184,55886,1,0
424,184,55965,2,0,B|376:192|360:244,1,80,2|2
332,312,56280,2,0,B|244:312,1,80,0|2
164,312,56596,2,0,B|76:312,1,80,0|2
24,192,56912,5,0
96,240,57070,1,0
96,240,57149,1,0
96,240,57228,2,0,B|144:232|160:180,1,80,2|2
188,112,57543,2,0,B|276:112,1,80,0|2
356,112,57859,2,0,B|444:112,1,80,0|2
460,220,58175,5,0
412,292,58333,1,0
412,292,58412,1,0
412,292,58491,2,0,B|340:240,1,80,2|2
312,356,58807,2,0,B|275:274,1,80,0|2
192,360,59123,2,0,B|201:271,1,80,0|2
136,196,59438,5,0
136,196,59596,1,0
200,112,59754,1,2
200,112,59912,1,2
312,112,60070,1,0
312,112,60228,1,0
376,196,60386,1,2
376,196,60544,1,2
408,288,60701,6,0,B|456:300|480:336,2,80,0|0|2
320,308,61175,1,2
320,308,61254,1,0
320,308,61333,2,0,B|240:336,1,80,0|2
160,304,61649,2,0,B|80:332,1,80,0|2
28,248,61965,6,0,B|76:178,1,80
159,157,62281,2,0,B|207:87,1,80,2|2
292,92,62596,1,0
316,92,62675,1,0
340,92,62754,1,2
404,152,62912,1,0
428,152,62991,1,0
452,152,63070,1,2
400,288,63228,5,0
316,268,63386,1,0
316,268,63465,1,0
316,268,63544,2,0,B|272:276|236:236,1,80,2|2
116,256,63859,2,0,B|131:213|183:202,1,80,0|2
228,88,64175,2,0,B|256:122|240:173,1,80,0|2
344,192,64491,5,2
420,108,64649,2,0,B|440:72,2,40,0|0|2
448,192,64965,2,0,B|496:192,2,40,0|0|2
420,276,65280,2,0,B|440:312,2,40,0|0|2
344,192,65596,1,2
256,240,65754,6,0,B|172:260|132:356,2,160,4|0|0
272,152,66544,1,0
336,92,66701,1,0
424,76,66859,1,0
480,156,67017,6,0,B|465:244,1,80
385,368,67333,2,0,B|399:279,1,80
360,137,67649,2,0,B|345:225,1,80
256,196,67965,5,0
256,196,68123,1,0
256,196,68280,2,0,B|176:176|124:96,2,160
232,280,69070,1,0
316,308,69228,1,0
340,224,69386,1,0
416,300,69544,5,0
256,36,69859,1,0
96,300,70175,1,0
64,220,70333,1,0
64,220,70412,1,0
64,220,70491,1,0
36,136,70649,1,0
112,68,70807,6,0,B|136:144|232:168,1,160
288,232,71280,2,0,B|312:156|408:132,1,160
492,112,71754,1,0
464,344,72070,6,0,B|440:268|344:244,1,160
288,180,72543,2,0,B|264:256|168:280,1,160
84,300,73017,1,0
44,120,73333,5,0
220,92,73649,1,0
188,172,73807,1,0
404,72,74123,1,0
372,152,74281,1,0
332,228,74438,1,0
376,336,74596,6,0,B|296:312,1,80
136,336,74912,2,0,B|216:312,1,80
256,228,75228,2,0,B|256:184,8,40,0|0|0|0|0|0|0|0|4
104,76,80912,5,0
104,76,81386,2,0,B|160:144,1,80
256,328,82175,1,0
256,328,82649,2,0,B|256:248,1,80
408,76,83438,1,0
408,76,83912,2,0,B|352:144,1,80
80,192,84701,5,0
256,320,85017,1,0
432,192,85333,1,0
256,64,85649,1,0
256,192,85965,12,0,88199
232,60,88518,6,0,B|216:104,15,40
240,136,89781,6,0,B|288:168,2,40,6|0|0
304,228,90096,2,0,B|352:260,2,40,2|0|0
364,324,90412,2,0,B|412:356,2,40,2|0|0
268,324,90728,2,0,B|184:324,1,80,0|2
88,284,91044,5,0
88,188,91202,2,0,B|88:132,2,40,2|0|0
180,124,91518,2,0,B|180:68,2,40,2|0|0
280,76,91833,2,0,B|280:20,2,40,2|0|0
376,72,92149,1,2
460,156,92307,6,0,B|423:200,2,40,2|0|0
361,211,92622,2,0,B|324:255,2,40,2|0|0
260,260,92938,2,0,B|223:304,2,40,2|0|0
270,165,93254,1,0
176,192,93412,5,2
144,208,93491,1,0
112,224,93570,1,0
80,240,93649,1,0
48,256,93728,1,0
40,160,93886,2,0,B|56:80,1,80,2|0
140,124,94202,2,0,B|156:44,1,80,2|0
236,96,94518,2,0,B|252:16,1,80,2|2
328,120,94833,6,0,B|380:104|408:152,1,80,2|0
488,232,95149,2,0,B|436:248|408:200,1,80,2|2
332,264,95465,2,0,B|356:316,2,40,0|0|2
248,212,95781,2,0,B|203:248,2,40,0|0|2
160,148,96096,6,0,B|184:96,2,40,2|0|0
76,200,96412,2,0,B|31:163,2,40,2|0|0
64,296,96728,2,0,B|144:336,1,80,0|2
280,348,97044,2,0,B|200:308,1,80,0|2
328,280,97360,5,2
328,280,97439,1,0
328,280,97518,1,0
328,280,97596,1,0
328,280,97675,2,0,B|384:260|400:212,1,80,2|2
472,40,98149,1,2
390,232,98465,1,2
316,168,98623,1,2
236,344,98939,1,2
212,252,99096,1,2
60,372,99412,1,0
60,372,99491,1,0
60,372,99570,1,2
60,276,99728,1,2
56,180,99886,6,0,B|72:100,1,80,2|0
112,128,100123,2,0,B|128:48,1,80,2|0
168,76,100360,1,2
144,168,100518,6,0,B|160:248,1,80,2|0
200,220,100755,2,0,B|216:300,1,80,2|0
256,272,100992,1,2
224,184,101149,6,0,B|240:104,1,80,2|0
280,132,101386,2,0,B|296:52,1,80,2|0
336,80,101623,1,2
312,172,101781,6,0,B|328:252,1,80,2|0
368,224,102018,2,0,B|384:304,1,80,2|0
424,276,102255,1,2
496,216,102412,5,2
456,128,102570,1,0
416,40,102728,2,0,B|368:72,2,40,2|0|0
296,40,103044,2,0,B|284:96,2,40,2|0|0
188,92,103360,2,0,B|219:140,2,40,2|0|2
100,64,103675,5,2
62,154,103833,1,0
28,245,103991,2,0,B|84:256,2,40,2|0|0
112,329,104307,2,0,B|159:297,2,40,2|0|0
226,369,104623,2,0,B|237:312,2,40,2|0|0
320,304,104939,5,2
404,280,105096,1,0
464,216,105254,1,2
492,132,105412,1,2
340,40,105728,1,2
284,108,105886,1,0
228,176,106044,1,2
188,348,106360,5,2
244,280,106518,1,0
300,212,106675,1,2
328,296,106833,2,0,B|412:296,1,80,0|2
496,224,107149,2,0,B|412:224,1,80,0|2
456,128,107465,5,2
372,96,107623,1,0
340,84,107702,1,0
316,56,107781,1,2
240,96,107939,1,0
208,108,108018,1,0
184,136,108097,1,2
148,216,108254,1,0
116,204,108333,1,0
92,176,108412,2,0,B|60:96,1,80,2|2
28,224,108728,5,2
36,240,108807,1,0
44,256,108886,1,0
52,272,108965,1,0
60,288,109044,2,0,B|96:368,2,80,2|0|2
148,292,109518,1,0
148,292,109596,1,0
148,292,109675,2,0,B|236:292,1,80,2|2
304,348,109991,5,2
408,348,110149,1,0
336,272,110307,1,2
432,233,110465,1,0
336,196,110623,1,2
410,123,110781,1,0
308,128,110939,1,2
349,32,111096,1,2
168,68,111254,6,0,B|252:68,1,80,0|2
120,144,111570,2,0,B|204:144,1,80,0|2
72,220,111886,2,0,B|156:220,1,80,0|2
24,296,112202,2,0,B|108:296,1,80,0|2
196,344,112518,5,0
456,344,112833,1,4
428,260,112991,1,0
428,260,113070,1,0
428,260,113149,1,0
196,344,113465,1,4
244,272,113623,1,0
244,272,113702,1,0
244,272,113781,2,0,B|172:224,1,80,0|4
36,200,114096,2,0,B|108:248,1,80,0|4
44,120,114412,5,4
256,192,114728,1,4
468,264,115044,1,4
