osu file format v9

[General]
AudioFilename: BABYLON.mp3
AudioLeadIn: 0
PreviewTime: 5123
Countdown: 0
SampleSet: Soft
StackLeniency: 0.5
Mode: 0
LetterboxInBreaks: 0

[Editor]
Bookmarks: 25333,55649,65754,99886
DistanceSpacing: 1.5
BeatDivisor: 2
GridSize: 8

[Metadata]
Title:BABYLON
Artist:SHIKI
Creator:miccoliasms
Version:Beginner
Source:BMS
Tags:Lunet mizuki Alace ignorethis

[Difficulty]
HPDrainRate:1
CircleSize:3
OverallDifficulty:1
ApproachRate:3
SliderMultiplier:0.8
SliderTickRate:0.5

[Events]
//Background and Video events
Video,0,"SHIKI- Babylon.flv"
0,0,"babylon.jpg"
//Break Periods
2,79849,84525
//Storyboard Layer 0 (Background)
//Storyboard Layer 1 (Fail)
//Storyboard Layer 2 (Pass)
//Storyboard Layer 3 (Foreground)
//Storyboard Sound Samples
//Background Colour Transformations
3,100,163,162,255

[TimingPoints]
5123,315.789473684211,4,1,0,50,1,0
15149,-100,4,1,0,70,0,0
35280,-125,4,2,0,20,0,0
45386,-100,4,1,0,70,0,0
76017,-100,4,2,0,5,0,0
85965,1276.59574468085,4,2,0,5,1,0
88518,315.789473684211,4,1,0,60,1,0
88833,-100,4,1,0,65,0,0
89149,-100,4,1,0,70,0,0
89465,-100,4,1,0,75,0,0
89623,-100,4,1,0,80,0,0
112044,-83.3333333333333,4,1,0,90,0,0
114886,-100,4,2,0,5,0,0

[Colours]
Combo1 : 128,255,0
Combo2 : 255,128,64
Combo3 : 128,128,255
Combo4 : 255,128,255

[HitObjects]
120,304,5123,2,0,B|56:192|120:72,1,240
192,136,6386,2,0,B|304:240|400:128,1,240
344,56,7649,2,0,B|176:40,2,160
424,104,9228,2,0,B|472:40,2,80
376,184,10175,6,0,B|304:296|160:248,1,240
248,168,11438,2,0,B|109:121|37:233,1,240
144,288,12701,2,0,B|296:344,2,160
112,176,14280,2,0,B|192:200,2,80
192,104,15228,6,2,B|352:72,1,160
448,104,16491,2,2,B|424:184,1,80
336,152,17123,2,8,B|312:232,1,80
280,320,17754,6,0,B|200:320|200:320|136:272,1,160
232,64,19017,2,0,B|312:64|312:64|376:112,1,160
200,192,20280,6,0,B|192:288|272:328,1,160,2|2
440,232,21544,2,2,B|440:192|408:160,1,80
344,88,22175,2,8,B|264:112,1,80
232,200,22807,2,0,B|232:288|160:336,1,160,0|0
64,168,24070,2,0,B|64:80|135:32,1,160,0|0
328,56,25333,6,2,B|344:136|344:136|280:184,1,160
112,88,26596,2,2,B|80:128|88:168,1,80
136,240,27228,2,8,B|216:224,1,80
256,136,27859,2,0,B|312:72|400:80,1,160
472,256,29123,2,0,B|416:320|328:312,1,160
144,264,30386,6,2,B|112:104,1,160
280,200,31649,2,2,B|264:120,1,80
344,64,32280,2,8,B|432:96,1,80
456,184,32912,6,0,B|328:280,1,160
56,200,34175,2,0,B|184:104,1,160
328,56,35438,6,0,B|400:48|448:96,1,128
416,168,36386,2,0,B|392:232,1,64
320,248,37017,2,0,B|296:312,2,64
320,168,37965,6,0,B|288:112|224:88,1,128
152,120,38912,2,0,B|136:184,1,64
120,256,39544,2,0,B|88:272|88:272|56:272,2,64
192,240,40491,6,0,B|264:240|320:272,1,128
392,288,41438,2,0,B|424:232,1,64
456,160,42070,2,0,B|472:128|464:96,2,64
424,232,43017,6,0,B|304:176,1,128
224,48,44280,1,2
112,152,44912,2,2,B|176:176,1,64
128,264,45544,6,0,B|256:328|360:272,1,240
360,144,46807,2,0,B|252:74|132:138,1,240
216,184,48070,2,0,B|288:216,1,80
224,288,48701,1,0
304,344,49017,1,0
392,320,49333,2,0,B|472:264|456:184,1,160
264,168,50596,6,0,B|120:88,2,160
432,264,52491,1,0
248,328,53123,2,0,B|208:328|168:304,1,80
96,248,53754,2,0,B|120:168,1,80
208,200,54386,2,0,B|232:120,3,80
304,64,55649,6,0,B|352:136|304:216,1,160
208,320,56912,2,0,B|160:248|208:168,1,160
344,256,58175,2,0,B|328:176,2,80
168,128,59438,2,0,B|184:208,2,80
360,88,60701,6,0,B|280:64,1,80
200,112,61333,2,0,B|176:192,1,80
232,272,61965,2,0,B|312:296,1,80
408,288,62596,2,0,B|432:240|416:208,1,80
320,208,63228,6,0,B|272:144,2,80
368,128,64175,1,0
416,48,64491,2,0,B|464:112,2,80
272,112,65754,6,0,B|112:72,1,160
80,144,66701,2,0,B|64:184|64:184|72:224,1,80
232,192,67649,2,0,B|208:272,1,80
272,320,68280,6,0,B|352:320|416:256,1,160
464,192,69228,2,0,B|416:128,1,80
256,96,70175,1,0
192,48,70491,1,0
128,96,70807,6,0,B|96:176|128:256,1,160
256,344,72070,2,0,B|293:269|253:189,1,160
128,96,73333,6,0,B|168:256,1,160
312,328,74596,2,0,B|392:304,1,80
432,240,75228,2,0,B|408:160,2,80
256,192,76175,12,0,79649
256,192,85965,12,0,87879
336,240,88518,6,0,B|376:240,6,40
256,192,89781,6,2,B|184:152,1,80
104,104,90412,1,8
104,104,90728,1,8
112,200,91044,2,2,B|112:248|144:272,1,80
232,304,91675,2,8,B|304:272,1,80
400,288,92307,5,2
400,288,92623,1,2
448,208,92939,1,8
448,208,93254,1,8
408,120,93570,2,2,B|368:48,1,80
304,120,94202,2,8,B|344:192,1,80
384,272,94833,6,0,B|304:320|224:272,1,160
128,112,96096,2,0,B|208:64|288:112,1,160
336,296,97360,6,0,B|379:223|331:143,1,160
176,88,98623,2,0,B|132:160|180:240,1,160
360,304,99886,6,0,B|320:312|280:304,1,80
192,264,100518,2,0,B|184:224|192:184,1,80
232,96,101149,2,0,B|272:88|312:96,1,80
408,120,101781,2,0,B|416:160|408:200,1,80
312,224,102412,1,0
216,248,102728,2,0,B|184:320,2,80
120,224,103675,1,0
184,152,103991,6,0,B|160:72,2,80
272,104,104939,6,0,B|336:48|424:72,1,160
456,160,105886,2,0,B|432:248,1,80
336,248,106518,2,0,B|312:328,2,80
360,152,107465,6,0,B|384:72,2,80
288,88,108412,2,0,B|208:64,3,80
224,160,109675,1,0
168,232,109991,6,0,B|248:256,3,80
328,200,111254,2,0,B|408:224,2,80
304,88,112202,6,2,B|208:80,1,96.0000022888184,0|0
160,184,112833,2,2,B|256:192,1,96.0000022888184
368,160,113465,6,2,B|344:256,1,96.0000022888184
424,336,114096,2,2,B|447:242,1,96.0000022888184
472,128,114728,1,0
256,192,115044,12,0,118833
