osu file format v9

[General]
AudioFilename: BABYLON.mp3
AudioLeadIn: 0
PreviewTime: 5123
Countdown: 0
SampleSet: Normal
StackLeniency: 0.5
Mode: 0
LetterboxInBreaks: 0

[Editor]
DistanceSpacing: 1.1
BeatDivisor: 4
GridSize: 8

[Metadata]
Title:BABYLON
Artist:SHIKI
Creator:miccoliasms
Version:Another
Source:BMS
Tags:Lunet mizuki Alace ignorethis

[Difficulty]
HPDrainRate:7
CircleSize:4
OverallDifficulty:8
ApproachRate:8
SliderMultiplier:1.6
SliderTickRate:1

[Events]
//Background and Video events
Video,0,"SHIKI- Babylon.flv"
0,0,"babylon.jpg"
//Break Periods
2,76059,79846
//Storyboard Layer 0 (Background)
//Storyboard Layer 1 (Fail)
//Storyboard Layer 2 (Pass)
//Storyboard Layer 3 (Foreground)
//Storyboard Sound Samples
//Background Colour Transformations
3,100,163,162,255

[TimingPoints]
5123,315.789473684211,4,1,0,60,1,0
35438,-100,4,2,0,40,0,0
45465,-100,4,1,0,60,0,0
84544,-100,4,2,0,50,0,0
85491,-100,4,2,0,60,0,0
85965,1276.59574468085,4,2,0,5,1,0
88518,315.789473684211,4,1,0,60,1,0
88833,-100,4,1,0,65,0,0
89149,-100,4,1,0,70,0,0
89465,-100,4,1,0,75,0,0
89781,-100,4,1,0,80,0,0
115123,-100,4,2,0,5,0,0

[Colours]
Combo1 : 128,255,0
Combo2 : 255,128,64
Combo3 : 128,128,255
Combo4 : 255,128,255

[HitObjects]
96,48,5123,2,0,B|56:96|104:152|104:152,1,80,2|0
184,248,5438,2,0,B|224:200|176:144|176:144,1,80,2|0
168,96,5754,1,2
248,120,5912,2,0,B|328:176|408:120|408:120,1,160,2|2
456,64,6386,1,0
456,64,6544,1,2
400,120,6701,1,0
400,120,6859,1,2
416,200,7017,1,0
416,200,7175,1,2
392,280,7333,6,0,B|360:328|312:320|312:320,1,80,0|2
248,304,7649,2,0,B|192:288|168:328|168:328,2,80,2|0|2
328,320,8123,1,0
304,240,8280,1,2
224,224,8438,2,0,B|120:200|120:96|120:96,1,160,2|2
248,144,8912,1,0
248,144,9070,2,0,B|304:152|312:216|312:216,2,80,2|0|2
168,128,9544,5,0
104,80,9701,2,0,B|80:56|80:56,4,20,2|0|0|0|4
96,168,10017,2,0,B|64:184|64:184,3,20,2|0|0|0
128,192,10175,6,0,B|184:264|128:344|128:344,1,160,6|2
224,256,10649,1,0
224,256,10807,2,0,B|264:224|312:256|312:256,2,80,2|0|0
128,192,11280,2,0,B|176:104|280:120|280:120,1,160,2|2
288,216,11754,6,0,B|264:264|216:256|216:256,1,80,0|2
104,80,12070,2,0,B|128:32|176:40|176:40,1,80,0|2
248,48,12386,1,0
248,48,12544,1,2
328,64,12701,6,0,B|416:88|416:88,1,80,2|0
424,216,13017,2,0,B|336:192|336:192,1,80,2|0
272,176,13333,1,2
272,176,13491,2,0,B|200:240|272:328|272:328,1,160,2|2
266,320,13965,5,4
184,320,14123,2,0,B|152:320|152:320,4,20,2|0|0|0|4
344,320,14438,2,0,B|376:320|376:320,4,20,2|0|0|0|4
264,240,14754,1,6
216,176,14912,1,2
184,152,14991,1,0
144,144,15070,1,2
104,160,15149,1,0
72,192,15228,1,6
48,272,15386,5,0
112,320,15544,2,0,B|152:344|200:320|200:320,1,80,10|0
264,240,15859,2,0,B|224:216|176:240|176:240,2,80,2|0|8
336,200,16333,2,0,B|400:120|352:48|352:48,1,160,2|2
432,192,16807,2,0,B|400:232|416:280|416:280,1,80,8|2
352,320,17123,2,0,B|304:296|256:328|256:328,1,80,0|2
208,360,17438,1,8
208,360,17596,1,2
200,280,17754,6,0,B|192:192|192:192,1,80,2|0
80,136,18070,2,0,B|88:224|88:224,1,80,10|0
96,296,18386,1,2
208,360,18544,1,2
176,240,18701,1,8
288,296,18859,1,2
248,176,19017,1,0
360,232,19175,5,2
360,232,19254,1,0
360,232,19333,1,8
320,112,19491,1,2
320,112,19570,1,0
320,112,19649,1,0
360,232,19807,1,2
304,288,19965,1,10
272,312,20044,1,0
232,320,20123,1,0
192,312,20201,1,0
160,288,20280,1,6
112,224,20438,5,0
88,144,20596,2,0,B|64:96|96:64|96:64,1,80,10|0
160,112,20912,1,2
224,56,21070,1,2
160,112,21228,1,8
240,136,21386,2,0,B|336:176|400:128|400:128,1,160,2|2
304,224,21859,2,0,B|256:208|224:224|224:224,1,80,8|2
160,272,22175,1,0
80,256,22333,1,2
80,256,22412,1,0
80,256,22491,1,8
56,176,22649,1,2
80,96,22807,6,0,B|96:48|152:48|152:48,1,80,2|0
220,226,23123,2,0,B|204:274|148:274|148:274,1,80,10|0
208,88,23438,2,0,B|224:40|280:40|280:40,1,80,2|2
344,56,23754,1,8
344,56,23912,1,2
368,136,24070,6,0,B|376:240|472:256|472:256,2,160,2|10|2
424,80,24859,1,2
424,80,24938,1,0
424,80,25017,1,10
368,136,25175,1,2
288,112,25333,6,0,B|200:88|200:88,1,80,2|0
128,192,25649,2,0,B|216:216|216:216,1,80,10|0
280,240,25965,1,2
360,264,26123,1,2
440,288,26280,1,8
416,208,26438,2,0,B|352:24|352:24,1,160,2|2
328,184,26912,2,0,B|368:280|368:280,1,80,8|2
240,200,27228,5,0
224,328,27386,1,2
160,152,27544,5,8
56,224,27701,1,2
120,80,27859,5,2
160,8,28017,1,0
160,8,28175,1,10
240,24,28333,1,0
304,72,28491,2,0,B|344:104|400:88|400:88,2,80,2|2|8
232,112,28965,2,0,B|216:208|304:256|304:256,1,160,2|2
408,304,29438,6,0,B|416:256|376:232|376:232,1,80,10|0
200,272,29754,2,0,B|192:320|232:344|232:344,1,80,2|0
408,304,30070,1,10
376,232,30228,1,0
344,160,30386,6,0,B|320:120|344:80|344:80,2,80,6|0|10
376,232,30859,1,0
296,224,31017,2,0,B|248:208|208:224|208:224,1,80,2|2
144,328,31333,2,0,B|192:344|232:328|232:328,1,80,8|2
304,304,31649,1,0
432,200,31807,1,2
272,208,31965,1,8
408,304,32123,1,2
352,152,32280,1,0
424,120,32438,5,2
360,72,32596,1,8
288,104,32754,1,2
280,184,32912,1,2
344,232,33070,1,0
416,200,33228,1,10
352,152,33386,5,0
288,104,33544,2,0,B|240:72|272:8|272:8,1,80,2|0
208,144,33859,2,0,B|256:176|224:240|224:240,1,80,10|2
152,200,34175,1,0
184,272,34333,1,2
264,288,34491,1,8
304,216,34649,1,2
272,144,34807,1,2
240,120,34886,1,0
200,112,34965,1,2
160,128,35044,1,0
136,160,35123,1,10
136,200,35201,1,0
152,240,35280,1,2
184,256,35359,1,0
224,256,35438,6,0,B|272:248|296:288|296:288,2,80,2|0|0
160,304,35912,2,0,B|136:352|80:344|80:344,2,80,2|0|2
152,224,36386,2,0,B|112:192|136:136|136:136,1,80,2|0
160,72,36701,2,0,B|216:0|320:40|320:40,1,160,2|0
432,80,37175,2,0,B|376:152|272:112|272:112,1,160,2|2
160,72,37649,1,2
160,72,37807,1,0
136,152,37965,6,0,B|112:192|136:232|136:232,1,80,2|0
208,192,38280,2,0,B|216:248|272:256|272:256,1,80,0|2
288,176,38596,2,0,B|328:200|368:176|368:176,2,80,0|0|2
240,112,39070,1,0
320,104,39228,2,0,B|496:88|496:88,1,160,2|0
384,176,39701,2,0,B|208:192|208:192,1,160,2|0
144,200,40175,2,0,B|104:232|128:280|128:280,1,80,2|0
208,256,40491,6,0,B|376:320|376:320,1,160,2|0
304,200,40965,2,0,B|136:136|136:136,1,160,2|2
80,112,41438,1,2
80,112,41596,1,0
144,56,41754,2,0,B|176:24|216:32|216:32,1,80,2|0
288,72,42070,2,0,B|336:104|384:64|384:64,1,80,0|0
416,16,42386,1,2
456,88,42544,1,0
408,152,42701,1,0
440,224,42859,1,0
408,296,43017,6,0,B|352:376|240:336|240:336,1,160,2|0
136,312,43491,2,0,B|192:232|304:272|304:272,1,160
408,296,43965,2,0,B|432:248|400:208|400:208,1,80,2|0
328,112,44280,2,0,B|280:192|336:272|336:272,1,160,2|0
224,192,44754,2,0,B|272:112|216:32|216:32,1,160
220,39,45228,1,2
220,39,45386,1,0
144,56,45544,6,0,B|64:80|64:80,1,80,2|0
200,112,45859,2,0,B|176:192|176:192,1,80,10|2
280,88,46175,2,0,B|352:152|352:152,1,80,0|2
296,16,46491,2,0,B|400:0|400:0,1,80,8|2
296,16,46807,5,2
296,16,46965,1,0
280,88,47123,1,10
280,88,47280,1,2
200,112,47438,1,0
200,112,47596,1,2
144,56,47754,1,8
144,56,47912,1,2
128,136,48070,6,0,B|144:192|200:184|200:184,1,80,2|0
240,304,48386,2,0,B|224:248|168:256|168:256,1,80,10|2
56,248,48701,6,0,B|72:304|128:296|128:296,1,80,0|2
296,176,49017,2,0,B|280:120|224:128|224:128,1,80,8|2
160,120,49333,5,2
88,160,49491,1,0
160,192,49649,5,10
128,264,49807,1,2
208,248,49965,5,0
216,328,50123,1,2
280,280,50280,6,2,B|360:328|440:280|440:280,1,160,10|2
496,232,50754,1,0
456,160,50912,2,0,B|416:128|440:80|440:80,2,80,10|2|0
496,232,51386,1,2
416,232,51544,1,8
376,160,51701,1,2
416,88,51859,6,0,B|504:24|504:24,1,80,2|0
352,32,52175,2,0,B|264:96|264:96,1,80,10|2
224,128,52491,1,0
144,136,52649,1,2
96,72,52807,1,8
176,64,52965,1,2
144,136,53123,5,2
64,144,53280,1,0
112,208,53438,1,10
192,200,53596,1,2
272,192,53754,2,0,B|360:184|360:184,1,80,0|2
440,280,54070,2,0,B|352:288|352:288,1,80,8|2
280,296,54386,5,2
272,296,54465,1,0
264,296,54544,1,0
256,296,54623,1,0
248,296,54701,1,2
240,296,54780,1,0
232,296,54859,1,0
224,296,54938,1,0
216,296,55017,5,2
208,296,55096,1,0
200,296,55175,1,0
192,296,55254,1,0
184,296,55333,1,2
176,296,55412,1,0
168,296,55491,1,0
160,296,55570,1,0
152,296,55649,6,0,B|120:296|96:272|96:272,3,40,2|0|0|0
104,280,55965,2,0,B|64:256|72:216|72:216,3,40,10|0|0|0
72,240,56280,2,0,B|48:216|72:176|72:176,3,40,2|0|0|0
64,192,56596,2,0,B|56:160|80:136|80:136,3,40,10|0|0|0
72,144,56912,5,2
80,136,56991,1,0
88,128,57070,1,0
96,120,57149,1,0
128,136,57228,5,10
136,128,57307,1,0
144,120,57386,1,0
152,112,57465,1,0
192,128,57544,5,2
200,120,57623,1,0
208,112,57701,1,0
216,104,57780,1,0
248,120,57859,5,10
256,112,57938,1,0
264,104,58017,1,0
272,96,58096,1,0
280,88,58175,6,0,B|336:88|336:88,3,40,2|0|0|0
336,88,58491,2,0,B|376:112|376:112,3,40,10|0|0|0
376,120,58807,2,0,B|400:160|400:160,3,40,2|0|0|0
400,168,59123,2,0,B|392:216|392:216,3,40,10|0|0|0
392,216,59438,5,2
384,224,59517,1,0
376,232,59596,1,0
368,240,59675,1,0
360,248,59754,1,10
352,256,59833,1,0
344,264,59912,1,0
336,272,59991,1,0
328,280,60070,5,2
320,288,60149,1,0
312,296,60228,1,0
304,304,60307,1,0
296,312,60386,1,10
288,320,60465,1,0
280,328,60544,1,0
272,336,60623,1,0
264,344,60701,6,0,B|208:352,1,40,2|0
216,352,60859,2,0,B|144:360|144:360,1,40
168,360,61017,2,0,B|112:368|112:368,1,40,10|0
120,368,61175,2,0,B|64:376|64:376,1,40
56,328,61333,6,0,B|112:320|112:320,1,40,2|0
104,320,61491,2,0,B|160:312|160:312,1,40
152,312,61649,2,0,B|200:304|200:304,1,40,10|0
200,304,61807,2,0,B|264:288|264:288,1,40
240,240,61965,6,0,B|192:248|192:248,1,40,2|0
192,248,62123,2,0,B|144:256|144:256,1,40
144,256,62280,2,0,B|80:264|80:264,1,40,10|0
96,264,62438,2,0,B|32:272|32:272,1,40
32,216,62596,6,0,B|88:208|88:208,1,40,2|0
80,208,62754,2,0,B|136:200|136:200,1,40
128,200,62912,2,0,B|192:192|192:192,1,40,10|0
176,192,63070,2,0,B|232:184|232:184,1,40
224,184,63228,5,2
232,184,63307,1,0
240,184,63386,1,0
248,184,63465,1,0
256,184,63544,2,0,B|352:184|352:184,1,80,10|0
472,248,63859,2,0,B|376:248|376:248,1,80,2|0
280,312,64175,5,10
288,312,64254,1,0
296,312,64333,1,0
304,312,64412,1,0
312,312,64491,1,2
320,312,64570,1,0
328,312,64649,1,0
336,312,64728,1,0
344,312,64807,1,10
352,312,64886,1,0
360,312,64965,1,0
368,312,65044,1,0
376,312,65123,2,0,B|408:304|416:288|416:288,3,40,2|0|0|0
416,288,65438,2,0,B|448:264|440:240|440:240,3,40,10|0|8|0
440,224,65754,6,0,B|408:128|488:80,1,160,2|8
352,104,66228,1,0
352,104,66386,2,0,B|376:152|328:192,1,80,0|2
272,216,66701,1,10
192,200,66859,2,0,B|96:168|24:248|24:248,1,160,2|0
160,272,67333,2,0,B|208:296|240:264|240:264,1,80,8|0
224,120,67649,2,0,B|176:96|144:128|144:128,1,80,2|0
88,176,67965,1,10
80,256,68123,1,0
136,312,68280,6,0,B|216:360|288:320|288:320,1,160,2|8
384,232,68754,2,0,B|336:208|304:232|304:232,1,80
384,328,69070,1,2
448,280,69228,1,10
456,200,69386,2,0,B|480:112|416:48|416:48,1,160,2|0
296,24,69859,2,0,B|280:72|312:96|312:96,1,80,8|0
280,224,70175,2,0,B|296:176|264:152|264:152,1,80,0|2
232,128,70412,1,0
192,128,70491,1,8
136,184,70649,1,2
168,256,70807,6,2,B|216:344|312:320|312:320,1,160,2|8
368,272,71280,2,2,B|368:176|472:152|472:152,1,160,2|0
416,32,71754,2,2,B|416:128|312:152|312:152,1,160,10|0
240,136,72228,2,0,B|192:112|200:64|200:64,1,80,0|8
192,200,72544,2,0,B|240:224|232:272|232:272,1,80,2|0
200,336,72859,1,0
120,336,73017,1,8
80,264,73175,1,0
128,200,73333,6,2,B|176:112|128:48|128:48,1,160,2|8
224,136,73807,2,2,B|200:184|232:224|232:224,1,80,2|0
288,264,74123,1,2
288,264,74280,1,8
368,256,74438,2,2,B|456:216|432:112|432:112,1,160,2|0
400,48,74912,1,8
328,16,75070,1,2
248,24,75228,1,0
176,64,75386,5,2
144,88,75465,1,0
120,120,75544,1,8
104,160,75623,1,0
96,200,75701,1,2
104,240,75780,1,0
120,272,75859,1,6
112,72,80596,6,0,B|40:240|40:240,1,160
48,219,81386,1,0
48,219,81544,1,0
400,312,82175,5,0
463,164,82649,1,0
463,164,82807,1,0
256,192,83438,5,0
256,192,83912,1,0
256,192,84070,1,0
256,48,84701,5,0
88,320,85017,1,0
424,320,85333,1,0
256,48,85649,1,4
256,192,86124,12,0,88198
80,48,88518,5,0
88,48,88596,1,0
96,48,88675,1,0
104,48,88754,1,0
112,48,88833,1,0
120,48,88912,1,0
128,48,88991,1,0
136,48,89070,1,0
144,48,89149,1,0
152,48,89228,1,0
160,48,89307,1,0
168,48,89386,1,0
176,48,89465,1,0
184,48,89544,1,0
192,48,89623,1,0
200,48,89702,1,0
208,48,89781,6,0,B|256:56|264:104|264:104,1,80,2|0
392,168,90096,2,0,B|344:160|336:112|336:112,1,80,10|0
336,16,90412,1,2
416,72,90570,1,2
416,72,90649,1,0
472,152,90807,1,2
472,152,90886,1,0
456,248,91044,6,0,B|440:304|392:304|392:304,1,80,2|0
304,296,91360,1,10
240,224,91518,1,0
224,128,91675,2,0,B|144:72|144:72,1,80,2|0
152,128,91912,2,0,B|80:80|80:80,1,80,2|0
40,56,92149,1,2
16,152,92307,6,0,B|0:192|16:240|16:240,1,80,2|0
80,360,92623,1,10
104,328,92702,1,0
112,288,92781,1,0
96,248,92860,1,0
72,216,92939,2,0,B|40:176|80:112|80:112,1,80,2|0
112,160,93175,2,0,B|80:112|120:56|120:56,1,80,2|0
136,48,93412,1,2
224,8,93570,5,2
232,16,93649,1,0
240,24,93728,1,0
248,32,93807,1,0
256,40,93886,1,10
264,48,93965,1,0
272,56,94044,1,0
344,120,94202,5,2
336,128,94281,1,0
328,136,94360,1,0
320,144,94439,1,0
312,152,94518,1,10
240,216,94675,1,0
168,280,94833,5,2
200,304,94912,1,0
240,312,94991,1,0
280,304,95070,1,0
312,280,95149,1,10
240,216,95307,1,0
160,152,95465,5,2
192,128,95544,1,0
232,120,95623,1,0
272,128,95702,1,0
304,152,95781,1,10
240,216,95939,1,0
104,320,96096,5,2
144,352,96175,1,0
192,368,96254,1,0
240,376,96333,1,0
288,368,96412,1,10
336,344,96491,1,0
368,304,96570,1,0
384,256,96649,1,0
384,208,96728,2,0,B|384:160|384:160,3,40,2|0|0|0
376,120,97044,2,0,B|344:80,3,40,10|0|0|0
312,56,97360,5,2
264,32,97439,1,0
216,24,97518,1,0
168,32,97596,1,0
120,56,97675,1,10
88,96,97754,1,0
64,144,97833,1,0
56,192,97912,1,0
72,240,97991,2,0,B|88:280|88:280,3,40,2|0|0|0
120,320,98307,2,0,B|152:344|152:344,3,40,10|0|0|0
200,360,98623,5,2
248,368,98702,1,0
296,360,98781,1,0
344,344,98860,1,0
384,312,98939,1,10
440,224,99096,1,0
432,120,99254,2,0,B|424:72|384:56|384:56,1,80,2|0
344,48,99491,1,0
296,48,99570,1,10
200,48,99728,1,0
152,128,99886,6,0,B|128:168|152:208|152:208,1,80,2|0
256,200,100123,2,0,B|280:160|256:120|256:120,1,80,2|0
208,160,100360,1,2
176,256,100518,6,0,B|176:312|224:328|224:328,1,80,2|0
296,280,100754,2,0,B|296:224|248:208|248:208,1,80,2|0
232,272,100991,1,2
288,352,101149,6,0,B|328:376|368:360|368:360,1,80,2|0
384,264,101386,2,0,B|344:240|304:256|304:256,1,80,2|0
336,312,101623,1,2
432,320,101781,6,0,B|480:296|480:232|480:232,1,80,2|0
400,192,102018,2,0,B|352:216|352:280|352:280,1,80,2|0
416,256,102254,1,2
480,184,102412,6,0,B|512:144|488:96|488:96,1,80,2|0
432,32,102728,1,10
424,32,102807,1,0
416,32,102886,1,0
408,32,102965,1,0
400,32,103044,1,2
392,32,103123,1,0
384,32,103202,1,0
376,32,103281,1,0
368,32,103360,1,10
360,32,103439,1,0
352,32,103518,1,0
344,32,103596,1,0
336,32,103675,2,0,B|280:32|256:88|256:88,1,80,2|0
264,168,103991,5,10
256,168,104070,1,0
248,168,104149,1,0
240,168,104228,1,0
232,168,104307,1,2
224,168,104386,1,0
216,168,104465,1,0
208,168,104544,1,0
200,168,104623,1,10
192,168,104702,1,0
184,168,104781,1,0
176,168,104860,1,0
168,168,104939,2,0,B|112:168|88:224|88:224,1,80,2|0
96,304,105254,6,0,B|104:352|152:360|152:360,1,80,10|0
280,296,105570,2,0,B|272:248|224:240|224:240,1,80,0|2
304,368,105886,1,8
360,288,106044,1,2
416,208,106202,2,0,B|464:136|464:136,1,80,0|2
408,8,106518,2,0,B|360:80|360:80,1,80,8|0
312,152,106833,1,2
256,232,106991,1,0
312,152,107149,1,10
344,240,107307,1,0
312,152,107465,6,0,B|264:128|264:72|264:72,1,80,2|0
152,16,107781,1,10
184,40,107860,1,0
200,72,107939,1,0
200,112,108018,1,0
184,144,108096,1,2
144,216,108254,1,0
104,144,108412,5,10
72,168,108491,1,0
56,208,108570,1,0
56,248,108649,1,0
80,280,108728,1,2
112,296,108807,1,0
152,304,108886,1,0
192,288,108965,1,0
224,264,109044,1,10
232,224,109123,1,0
224,184,109202,1,0
272,120,109360,5,2
296,88,109439,1,0
328,72,109518,1,0
368,64,109596,1,0
408,72,109675,1,10
472,120,109833,1,0
496,200,109991,5,4
496,200,110149,1,2
472,280,110307,1,8
472,280,110465,1,2
408,328,110623,1,4
408,328,110781,1,2
328,344,110939,1,8
328,344,111096,1,2
248,328,111254,1,4
176,288,111412,2,0,B|152:272|152:272,4,20,2|0|0|0|12
240,256,111728,2,0,B|232:224|232:224,4,20,2|0|0|0|4
312,288,112044,5,2
344,272,112123,1,0
368,240,112202,1,8
384,200,112281,1,0
384,160,112360,1,2
368,120,112439,1,0
344,88,112518,1,6
0,192,112833,5,8
0,192,112991,1,2
0,192,113070,1,0
0,192,113149,1,6
256,384,113465,5,8
256,384,113623,1,2
256,384,113702,1,0
256,384,113781,1,6
392,192,113939,5,2
392,192,114018,1,0
392,192,114096,1,14
256,0,114254,5,2
256,0,114333,1,0
256,0,114412,1,6
256,192,114728,5,10
256,192,115044,1,6
256,192,115123,12,0,118833
