osu file format v9

[General]
AudioFilename: Aqua Marine.mp3
AudioLeadIn: 0
PreviewTime: 17759
Countdown: 0
SampleSet: Soft
StackLeniency: 0.7
Mode: 0
LetterboxInBreaks: 1

[Editor]
DistanceSpacing: 1
BeatDivisor: 4
GridSize: 8

[Metadata]
Title:Aqua Marine
Artist:SHIKI
Creator:soulfear
Version:Another
Source:BMS
Tags:Seiken Densetsu gdeath AngelHoney

[Difficulty]
HPDrainRate:6
CircleSize:5
OverallDifficulty:8
ApproachRate:8
SliderMultiplier:1.8
SliderTickRate:1

[Events]
//Background and Video events
Video,-4045,"[SHIKI] Aqua Marine.avi"
0,0,"Aqua Marine.jpg"
//Break Periods
2,62207,66775
//Storyboard Layer 0 (Background)
//Storyboard Layer 1 (Fail)
//Storyboard Layer 2 (Pass)
//Storyboard Layer 3 (Foreground)
//Storyboard Sound Samples
//Background Colour Transformations
3,100,163,162,255

[TimingPoints]
1385,344.827586206897,4,2,1,55,1,0
17870,344.827586206897,4,1,1,50,1,0
67525,-200,4,2,1,60,0,0
82697,-200,4,1,1,60,0,0
83042,-200,4,2,1,60,0,0
83128,-100,4,2,1,80,0,0
83473,-100,4,1,1,80,0,0
83990,-100,4,2,1,80,0,0
84076,-200,4,2,1,80,0,0
84421,-200,4,2,1,75,0,0
103387,-100,4,2,1,70,0,0
106145,-100,4,1,1,50,0,0
127007,-200,4,1,1,60,0,0
127180,-200,4,2,1,80,0,0
127223,-200,4,1,1,60,0,0
127438,-200,4,2,1,80,0,0
127482,-100,4,1,1,80,0,0

[Colours]
Combo1 : 255,255,0
Combo2 : 255,255,255
Combo3 : 0,255,255
Combo4 : 255,128,255

[HitObjects]
184,224,1385,1,2
356,172,1729,1,0
272,136,1902,1,2
184,116,2074,1,0
256,280,2419,5,0
344,260,2591,1,2
428,232,2764,1,0
412,144,2936,1,2
320,148,3109,1,0
232,156,3281,1,2
148,184,3453,1,0
328,184,3798,5,0
244,220,3971,1,2
156,232,4143,2,0,B|68:232,1,90,0|2
136,288,4488,2,0,B|224:288,1,90,0|2
312,256,4833,1,0
148,184,5178,5,0
208,116,5350,1,2
120,96,5522,1,0
56,160,5695,1,2
80,244,5867,1,0
80,244,6040,1,2
168,244,6212,5,0
192,240,6298,1,0
216,244,6384,1,2
240,240,6471,1,0
264,244,6557,1,0
288,240,6643,1,0
312,244,6729,1,2
336,240,6816,1,0
360,244,6902,1,2
184,204,7247,5,0
96,220,7419,1,2
44,296,7591,1,0
216,240,7936,5,0
304,260,8109,1,2
392,248,8281,1,0
348,168,8453,1,2
256,160,8626,1,0
220,160,8712,1,0
184,160,8798,1,2
96,184,8971,1,0
28,244,9316,5,0
104,292,9488,1,2
160,220,9660,1,0
196,248,9747,1,0
220,284,9833,1,2
284,220,10005,1,0
320,248,10091,1,0
344,284,10178,1,2
408,224,10350,1,0
284,96,10695,5,0
308,184,10867,1,2
256,256,11040,1,0
200,184,11212,1,2
112,204,11385,1,0
112,240,11471,1,0
128,272,11557,1,2
212,304,11729,5,0
232,312,11816,1,0
256,316,11902,1,2
280,316,11988,1,0
300,312,12074,1,0
324,312,12160,1,0
348,312,12247,1,2
256,192,16040,12,4,17870
124,176,18214,5,0
252,48,18559,1,2
284,224,18904,1,0
364,184,19076,1,2
332,100,19249,1,0
192,212,19594,1,0
104,212,19766,1,0
44,144,19938,1,2
152,288,20283,5,0
332,304,20628,1,0
400,248,20801,1,0
348,176,20973,1,0
184,104,21318,5,2
220,280,21663,1,0
240,100,22007,1,0
264,188,22180,1,0
176,208,22352,1,0
356,224,22697,5,0
392,216,22783,1,0
428,220,22870,1,0
464,228,22956,1,0
460,264,23042,1,0
380,300,23214,1,0
328,128,23387,5,0
160,188,23732,1,0
176,276,23904,1,0
208,360,24076,1,2
148,188,24421,1,2
96,136,24594,1,0
40,76,24766,1,2
216,108,25111,1,0
268,180,25283,1,0
328,248,25456,1,2
148,272,25801,5,0
184,272,25887,1,0
220,272,25973,1,2
256,280,26059,1,0
292,288,26145,2,0,B|336:288,6,45
312,220,26835,6,0,B|400:220,1,90,2|0
332,164,27180,2,0,B|420:164,1,90,0|2
352,108,27525,1,2
440,84,27697,1,0
356,48,27870,1,0
180,88,28214,5,0
88,96,28387,1,0
24,160,28559,1,8
24,168,28645,1,8
24,176,28732,1,8
24,184,28818,1,8
24,192,28904,1,8
188,116,29249,5,0
168,296,29594,1,2
280,156,29938,5,0
236,236,30111,1,2
152,200,30283,1,2
332,180,30628,1,0
376,168,30714,1,0
420,172,30801,1,0
464,184,30887,1,0
496,216,30973,1,2
328,280,31318,5,0
148,296,31663,1,0
60,140,32007,1,0
124,76,32180,1,0
212,84,32352,1,2
384,132,32697,5,0
432,300,33042,1,2
256,272,33387,1,0
232,280,33473,1,0
208,288,33559,1,0
184,296,33645,1,0
160,304,33732,1,0
152,124,34076,5,0
216,60,34249,1,0
288,112,34421,1,0
384,264,34766,1,0
208,296,35111,1,2
120,288,35283,1,0
36,156,35628,1,2
120,124,35801,1,2
260,236,36145,5,0
296,236,36232,1,0
332,228,36318,1,0
368,220,36404,1,0
404,220,36490,1,2
264,104,36835,5,0
100,176,37180,1,0
160,348,37525,1,0
160,348,37611,1,0
160,348,37697,1,0
248,332,37870,1,2
364,192,38214,5,0
276,204,38387,1,2
200,156,38559,1,2
112,140,38732,1,0
48,204,38904,1,0
40,224,38990,1,0
36,248,39076,1,0
128,252,39249,1,0
164,252,39335,1,0
200,252,39421,1,0
292,256,39594,5,8
320,220,39680,1,8
308,176,39766,1,8
296,132,39852,1,8
276,92,39938,1,12
92,168,40283,5,0
264,112,40628,1,2
212,284,40973,5,0
296,256,41145,1,2
380,216,41318,1,2
200,208,41663,1,0
200,208,41749,1,0
200,208,41835,1,0
164,128,42007,1,2
44,232,42352,5,0
100,60,42697,1,0
100,152,42870,1,0
164,212,43042,1,0
252,232,43214,1,0
320,172,43387,1,2
160,84,43732,5,0
240,44,43904,1,2
340,100,44076,1,2
260,144,44249,1,0
176,176,44421,1,0
212,260,44594,1,0
304,296,44766,1,0
304,296,44852,1,0
304,296,44938,1,0
400,312,45111,1,0
464,248,45283,1,0
388,196,45456,5,0
300,184,45628,1,0
224,120,45801,1,0
144,160,45973,1,0
64,200,46145,1,2
228,272,46490,1,0
320,264,46663,1,2
404,228,46835,1,2
380,140,47007,1,0
312,76,47180,1,0
312,76,47266,1,0
312,76,47352,1,0
220,76,47525,1,0
76,184,47870,5,0
128,260,48042,1,2
208,304,48214,1,0
272,240,48387,1,0
340,180,48559,1,0
168,120,48904,5,2
120,196,49076,1,0
76,276,49249,1,0
240,200,49594,5,2
264,204,49680,1,0
288,208,49766,1,0
344,136,49938,1,0
264,96,50111,1,0
176,104,50283,1,0
84,108,50456,1,0
84,196,50628,5,8
88,232,50714,1,8
100,268,50801,1,8
120,300,50887,1,8
152,312,50973,1,12
332,312,51318,1,0
224,168,51663,1,2
392,144,52007,5,0
420,228,52180,1,2
404,316,52352,1,0
312,316,52525,1,0
224,292,52697,1,0
224,292,52783,1,0
224,292,52870,1,0
136,268,53042,1,2
108,88,53387,5,0
196,104,53559,1,2
288,104,53732,1,0
368,60,53904,1,0
368,144,54076,5,0
360,164,54163,1,0
352,184,54249,1,0
352,272,54421,1,2
264,268,54594,1,0
188,196,54766,1,0
104,164,54938,1,2
88,76,55111,5,2
88,76,55197,1,0
88,76,55283,1,0
176,92,55456,1,0
264,80,55628,1,0
324,148,55801,1,0
324,148,55887,1,0
324,148,55973,1,0
256,208,56145,1,0
116,320,56490,5,0
72,240,56663,1,0
80,208,56749,1,0
96,180,56835,1,0
176,140,57007,1,0
256,88,57180,5,2
332,136,57352,1,0
356,156,57438,1,0
372,184,57525,1,0
296,232,57697,1,2
212,268,57870,5,0
200,268,57956,1,0
188,268,58042,1,0
176,268,58128,1,0
164,268,58214,1,0
152,268,58301,1,0
140,268,58387,1,0
128,268,58473,1,0
116,268,58559,1,2
60,96,58904,5,0
148,108,59076,1,2
232,72,59249,1,0
244,64,59335,1,0
256,60,59421,1,0
268,56,59507,1,0
280,56,59594,1,0
292,56,59680,1,0
304,60,59766,1,0
316,64,59852,1,0
328,72,59938,5,2
304,160,60111,1,0
392,148,60283,1,0
304,176,60456,1,2
216,200,60628,1,2
304,228,60801,1,0
232,308,60973,5,0
268,308,61059,1,0
304,304,61145,1,0
380,256,61318,1,0
380,244,61404,1,0
380,232,61490,1,0
380,220,61576,1,0
380,208,61663,1,0
380,196,61749,1,0
380,184,61835,1,0
380,172,61921,1,0
380,160,62007,1,8
216,164,67525,6,0,B|216:208,1,45,2|0
256,192,67870,2,0,B|256:236,1,45,2|0
296,220,68214,1,2
340,220,68387,1,0
384,220,68559,1,2
204,244,68904,6,0,B|204:288,1,45,2|0
164,272,69249,2,0,B|164:316,1,45,2|0
124,300,69594,1,2
80,300,69766,1,0
36,300,69938,1,2
212,264,70283,6,0,B|212:220,1,45,2|0
172,236,70628,2,0,B|172:192,1,45,2|0
132,208,70973,1,2
88,208,71145,1,0
44,208,71318,1,2
200,120,71663,6,0,B|200:164,1,45,2|0
240,148,72007,2,0,B|240:192,1,45,2|0
280,176,72352,1,2
324,176,72525,1,0
368,176,72697,1,2
196,128,73042,5,2
160,156,73214,1,0
256,64,73559,1,0
300,64,73732,1,2
372,120,74076,5,0
396,156,74249,1,2
368,192,74421,1,0
336,224,74594,1,2
300,252,74766,1,0
300,252,74852,1,0
300,252,74938,1,2
256,256,75111,1,0
164,256,75456,5,0
124,240,75628,1,2
80,224,75801,1,0
92,136,76145,5,0
128,108,76318,1,2
168,84,76490,1,0
256,92,76835,5,0
300,92,77007,1,2
344,96,77180,1,0
388,96,77352,1,2
404,140,77525,1,0
428,140,77611,1,0
452,140,77697,1,2
392,172,77870,1,0
416,172,77956,1,0
440,172,78042,1,2
464,172,78128,1,0
484,172,78214,5,0
436,220,78387,1,2
400,244,78559,1,0
304,240,78904,1,0
260,232,79076,1,2
216,224,79249,1,0
132,192,79594,5,0
124,148,79766,1,2
196,200,80111,1,2
188,84,80456,1,2
232,76,80628,1,0
320,92,80973,5,0
364,104,81145,1,2
280,140,81490,1,2
292,236,81835,1,2
248,252,82007,1,0
256,116,82352,5,0
248,72,82525,1,2
228,216,82870,2,0,B|196:248,1,45
112,220,83128,1,2
200,116,83301,1,2
200,116,83387,1,8
376,72,83559,5,0
304,336,83732,1,0
80,152,83904,1,0
376,204,84076,5,4
24,216,84766,1,2
384,204,85456,1,2
132,108,86490,5,0
212,64,86835,1,2
300,76,87180,1,0
76,308,87525,1,2
156,352,87870,1,0
240,324,88214,1,2
32,156,89421,5,0
80,96,89594,1,4
152,152,89938,1,0
260,72,90283,1,2
248,160,90628,1,0
352,160,90973,1,2
108,276,92007,5,2
196,288,92352,1,0
240,296,92525,1,0
284,276,92697,1,2
368,240,93042,1,0
292,192,93387,1,2
244,116,93732,1,0
56,196,94766,5,0
144,180,95111,1,2
188,176,95283,1,0
276,184,95628,1,0
320,184,95801,1,2
408,180,96145,1,0
388,268,96490,1,2
124,320,97525,5,0
140,232,97870,1,2
108,200,98042,1,0
104,148,98214,1,0
176,80,98559,1,2
196,120,98732,1,0
280,160,99076,1,0
308,180,99249,1,2
392,332,100283,5,0
212,312,100628,1,2
124,292,100801,1,0
72,120,101145,1,0
144,64,101318,1,2
292,164,101663,1,0
444,68,102007,1,2
80,192,103042,5,0
244,120,103387,1,2
296,76,103559,1,0
360,96,103732,1,2
352,164,103904,1,0
340,184,103990,1,0
324,196,104076,1,2
156,256,104421,5,2
176,320,104594,1,0
168,168,104766,1,2
104,192,104938,1,0
36,180,105111,1,2
28,148,105197,1,0
36,116,105283,1,0
256,192,105370,12,0,106145
111,260,106490,5,0
232,124,106835,1,2
272,300,107180,1,0
332,233,107352,1,2
385,156,107525,1,2
224,239,107870,1,0
224,239,107956,1,0
224,239,108042,1,0
154,188,108214,1,2
101,339,108559,1,0
63,161,108904,5,0
108,240,109076,1,0
195,259,109249,1,0
282,234,109421,1,0
310,147,109594,1,2
127,151,109938,5,0
177,77,110111,1,2
291,75,110283,1,2
244,152,110456,1,0
188,223,110628,1,0
260,279,110801,1,0
365,259,110973,1,0
365,259,111059,1,0
365,259,111145,1,0
450,229,111318,1,0
474,142,111490,1,0
382,135,111663,5,0
300,167,111835,1,0
201,151,112007,1,0
152,225,112180,1,0
103,300,112352,1,2
281,280,112697,5,0
356,227,112870,1,2
412,154,113042,1,2
346,90,113214,1,0
256,69,113387,1,0
256,69,113473,1,0
256,69,113559,1,0
175,115,113732,1,2
105,280,114076,5,0
189,320,114249,1,2
279,318,114421,1,0
302,231,114594,1,0
332,145,114766,1,0
153,179,115111,1,2
149,268,115283,1,0
151,359,115456,1,0
255,212,115801,5,2
277,204,115887,1,0
301,195,115973,1,0
314,104,116145,1,0
224,110,116318,1,0
151,161,116490,1,0
74,210,116663,1,0
118,286,116835,5,8
140,316,116921,1,8
168,341,117007,1,8
202,360,117094,1,8
235,353,117180,1,12
390,262,117525,1,0
225,192,117870,1,2
359,87,118214,5,0
426,146,118387,1,2
455,231,118559,1,2
375,277,118732,1,0
288,301,118904,1,0
288,301,118990,1,0
288,301,119076,1,0
200,324,119249,1,2
84,182,119594,5,0
168,152,119766,1,2
248,106,119938,1,0
295,26,120111,1,0
337,100,120283,5,0
342,121,120370,1,0
344,142,120456,1,0
389,218,120628,1,2
309,260,120801,1,0
209,233,120973,1,0
120,248,121145,1,2
61,181,121318,5,2
61,181,121404,1,0
61,181,121490,1,0
144,150,121663,1,0
216,96,121835,1,0
301,125,122007,1,0
301,125,122094,1,0
301,125,122180,1,0
272,212,122352,1,0
328,40,122697,5,0
400,96,122870,1,0
412,128,122956,1,0
416,164,123042,1,0
364,236,123214,1,0
320,316,123387,5,2
232,316,123559,1,0
200,304,123645,1,0
164,316,123732,1,0
200,232,123904,1,2
176,144,124076,5,0
264,164,124249,1,0
180,192,124421,1,0
164,212,124507,1,0
152,236,124594,1,0
152,264,124680,1,0
152,292,124766,1,2
244,208,125111,5,0
244,208,125283,1,2
332,184,125456,1,0
332,184,125628,1,0
408,232,125801,1,0
408,232,125887,1,0
408,232,125973,1,0
352,304,126145,5,2
268,336,126318,1,0
300,252,126490,1,0
304,228,126576,1,0
300,204,126663,1,2
256,188,126835,1,2
228,216,127007,6,0,B|196:248,1,45
156,272,127266,2,0,B|124:304,1,45,0|0
224,312,127525,1,0
436,28,127783,1,0
76,220,128042,1,0
436,184,128214,5,4
