osu file format v12

[General]
AudioFilename: Air ANOTHER.mp3
AudioLeadIn: 0
PreviewTime: -1
Countdown: 0
SampleSet: None
StackLeniency: 0.7
Mode: 3
LetterboxInBreaks: 1
SpecialStyle: 0
WidescreenStoryboard: 0

[Editor]
DistanceSpacing: 1
BeatDivisor: 4
GridSize: 8

[Metadata]
Title:Air
TitleUnicode:Air
Artist:SHIKI
ArtistUnicode:SHIKI
Creator:Doorknob
Version:Lv.02 ANOTHER
Source:BMS
Tags:
BeatmapID:300019
BeatmapSetID:116219

[Difficulty]
HPDrainRate:7
CircleSize:7
OverallDifficulty:7
ApproachRate:5
SliderMultiplier:1.4
SliderTickRate:1

[Events]
//Background and Video events
0,0,"title.jpg",0,0
Video,5333,"Air BGA.avi"
//Break Periods
//Storyboard Layer 0 (Background)
//Storyboard Layer 1 (Fail)
//Storyboard Layer 2 (Pass)
//Storyboard Layer 3 (Foreground)
//Storyboard Sound Samples
//Background Colour Transformations
3,100,163,162,255

[TimingPoints]
0,333.333333333333,4,2,0,0,1,0

[HitObjects]
402,192,5333,1,0,0:0:0:0:
256,192,5416,1,0,0:0:0:0:
109,192,5500,1,0,0:0:0:0:
329,192,5583,1,0,0:0:0:0:
36,192,5666,1,0,0:0:0:0:
256,192,5666,1,0,0:0:0:0:
109,192,5750,1,0,0:0:0:0:
402,192,5833,1,0,0:0:0:0:
256,192,5916,1,0,0:0:0:0:
109,192,6000,1,0,0:0:0:0:
475,192,6083,1,0,0:0:0:0:
182,192,6166,1,0,0:0:0:0:
109,192,6250,1,0,0:0:0:0:
36,192,6333,1,0,0:0:0:0:
402,192,6333,1,0,0:0:0:0:
256,192,6416,1,0,0:0:0:0:
329,192,6500,1,0,0:0:0:0:
182,192,6583,1,0,0:0:0:0:
402,192,6666,1,0,0:0:0:0:
256,192,6750,1,0,0:0:0:0:
109,192,6833,1,0,0:0:0:0:
329,192,6916,1,0,0:0:0:0:
36,192,7000,1,0,0:0:0:0:
256,192,7000,1,0,0:0:0:0:
109,192,7083,1,0,0:0:0:0:
402,192,7166,1,0,0:0:0:0:
256,192,7250,1,0,0:0:0:0:
109,192,7333,1,0,0:0:0:0:
475,192,7416,1,0,0:0:0:0:
182,192,7500,1,0,0:0:0:0:
109,192,7583,1,0,0:0:0:0:
36,192,7666,1,0,0:0:0:0:
402,192,7666,1,0,0:0:0:0:
256,192,7750,1,0,0:0:0:0:
329,192,7833,1,0,0:0:0:0:
182,192,7916,1,0,0:0:0:0:
402,192,8000,1,0,0:0:0:0:
256,192,8083,1,0,0:0:0:0:
109,192,8166,1,0,0:0:0:0:
329,192,8250,1,0,0:0:0:0:
36,192,8333,1,0,0:0:0:0:
256,192,8333,1,0,0:0:0:0:
109,192,8416,1,0,0:0:0:0:
402,192,8500,1,0,0:0:0:0:
256,192,8583,1,0,0:0:0:0:
109,192,8666,1,0,0:0:0:0:
475,192,8750,1,0,0:0:0:0:
182,192,8833,1,0,0:0:0:0:
109,192,8916,1,0,0:0:0:0:
36,192,9000,1,0,0:0:0:0:
402,192,9000,1,0,0:0:0:0:
256,192,9083,1,0,0:0:0:0:
329,192,9166,1,0,0:0:0:0:
182,192,9250,1,0,0:0:0:0:
402,192,9333,1,0,0:0:0:0:
256,192,9416,1,0,0:0:0:0:
109,192,9500,1,0,0:0:0:0:
329,192,9583,1,0,0:0:0:0:
36,192,9666,1,0,0:0:0:0:
256,192,9666,1,0,0:0:0:0:
109,192,9750,1,0,0:0:0:0:
402,192,9833,1,0,0:0:0:0:
256,192,9916,1,0,0:0:0:0:
109,192,10000,1,0,0:0:0:0:
475,192,10083,1,0,0:0:0:0:
182,192,10166,1,0,0:0:0:0:
109,192,10250,1,0,0:0:0:0:
36,192,10333,1,0,0:0:0:0:
329,192,10333,1,0,0:0:0:0:
256,192,10416,1,0,0:0:0:0:
329,192,10500,1,0,0:0:0:0:
182,192,10583,1,0,0:0:0:0:
36,192,10666,1,0,0:0:0:0:
402,192,10666,1,0,0:0:0:0:
182,192,10750,1,0,0:0:0:0:
256,192,10750,1,0,0:0:0:0:
36,192,10833,1,0,0:0:0:0:
182,192,10916,1,0,0:0:0:0:
329,192,10916,1,0,0:0:0:0:
36,192,11000,1,0,0:0:0:0:
256,192,11000,1,0,0:0:0:0:
182,192,11083,1,0,0:0:0:0:
36,192,11166,1,0,0:0:0:0:
402,192,11166,1,0,0:0:0:0:
182,192,11250,1,0,0:0:0:0:
256,192,11250,1,0,0:0:0:0:
36,192,11333,1,0,0:0:0:0:
182,192,11416,1,0,0:0:0:0:
475,192,11416,1,0,0:0:0:0:
36,192,11500,1,0,0:0:0:0:
256,192,11500,1,0,0:0:0:0:
182,192,11583,1,0,0:0:0:0:
36,192,11666,1,0,0:0:0:0:
402,192,11666,1,0,0:0:0:0:
182,192,11750,1,0,0:0:0:0:
36,192,11833,1,0,0:0:0:0:
329,192,11833,1,0,0:0:0:0:
182,192,11916,1,0,0:0:0:0:
36,192,12000,1,0,0:0:0:0:
402,192,12000,1,0,0:0:0:0:
182,192,12083,1,0,0:0:0:0:
256,192,12083,1,0,0:0:0:0:
36,192,12166,1,0,0:0:0:0:
182,192,12250,1,0,0:0:0:0:
329,192,12250,1,0,0:0:0:0:
36,192,12333,1,0,0:0:0:0:
256,192,12333,1,0,0:0:0:0:
182,192,12416,1,0,0:0:0:0:
36,192,12500,1,0,0:0:0:0:
402,192,12500,1,0,0:0:0:0:
182,192,12583,1,0,0:0:0:0:
256,192,12583,1,0,0:0:0:0:
36,192,12666,1,0,0:0:0:0:
182,192,12750,1,0,0:0:0:0:
475,192,12750,1,0,0:0:0:0:
36,192,12833,1,0,0:0:0:0:
256,192,12833,1,0,0:0:0:0:
182,192,12916,1,0,0:0:0:0:
36,192,13000,1,0,0:0:0:0:
402,192,13000,1,0,0:0:0:0:
182,192,13083,1,0,0:0:0:0:
36,192,13166,1,0,0:0:0:0:
329,192,13166,1,0,0:0:0:0:
182,192,13250,1,0,0:0:0:0:
36,192,13333,1,0,0:0:0:0:
402,192,13333,1,0,0:0:0:0:
182,192,13416,1,0,0:0:0:0:
256,192,13416,1,0,0:0:0:0:
36,192,13500,1,0,0:0:0:0:
182,192,13583,1,0,0:0:0:0:
329,192,13583,1,0,0:0:0:0:
36,192,13666,1,0,0:0:0:0:
256,192,13666,1,0,0:0:0:0:
182,192,13750,1,0,0:0:0:0:
36,192,13833,1,0,0:0:0:0:
402,192,13833,1,0,0:0:0:0:
182,192,13916,1,0,0:0:0:0:
256,192,13916,1,0,0:0:0:0:
36,192,14000,1,0,0:0:0:0:
182,192,14083,1,0,0:0:0:0:
475,192,14083,1,0,0:0:0:0:
36,192,14166,1,0,0:0:0:0:
256,192,14166,1,0,0:0:0:0:
182,192,14250,1,0,0:0:0:0:
36,192,14333,1,0,0:0:0:0:
329,192,14333,1,0,0:0:0:0:
182,192,14416,1,0,0:0:0:0:
36,192,14500,1,0,0:0:0:0:
402,192,14500,1,0,0:0:0:0:
182,192,14583,1,0,0:0:0:0:
36,192,14666,1,0,0:0:0:0:
475,192,14666,1,0,0:0:0:0:
109,192,14722,1,0,0:0:0:0:
256,192,14777,1,0,0:0:0:0:
36,192,14833,1,0,0:0:0:0:
182,192,14916,1,0,0:0:0:0:
402,192,14916,1,0,0:0:0:0:
36,192,15000,1,0,0:0:0:0:
182,192,15083,1,0,0:0:0:0:
36,192,15166,1,0,0:0:0:0:
329,192,15166,1,0,0:0:0:0:
182,192,15250,1,0,0:0:0:0:
36,192,15333,1,0,0:0:0:0:
109,192,15388,1,0,0:0:0:0:
475,192,15416,1,0,0:0:0:0:
256,192,15444,1,0,0:0:0:0:
36,192,15500,1,0,0:0:0:0:
182,192,15583,1,0,0:0:0:0:
36,192,15666,1,0,0:0:0:0:
402,192,15666,1,0,0:0:0:0:
109,192,15722,1,0,0:0:0:0:
256,192,15777,1,0,0:0:0:0:
36,192,15833,1,0,0:0:0:0:
329,192,15833,1,0,0:0:0:0:
182,192,15916,1,0,0:0:0:0:
36,192,16000,1,0,0:0:0:0:
256,192,16166,1,0,0:0:0:0:
402,192,16166,1,0,0:0:0:0:
36,192,16333,1,0,0:0:0:0:
256,192,16333,1,0,0:0:0:0:
402,192,16333,1,0,0:0:0:0:
182,192,16500,1,0,0:0:0:0:
329,192,16500,1,0,0:0:0:0:
36,192,16666,1,0,0:0:0:0:
256,192,16666,1,0,0:0:0:0:
402,192,16666,1,0,0:0:0:0:
109,192,16833,1,0,0:0:0:0:
256,192,16916,1,0,0:0:0:0:
402,192,16916,1,0,0:0:0:0:
36,192,17000,1,0,0:0:0:0:
109,192,17083,1,0,0:0:0:0:
182,192,17166,1,0,0:0:0:0:
329,192,17166,1,0,0:0:0:0:
36,192,17333,1,0,0:0:0:0:
256,192,17500,1,0,0:0:0:0:
402,192,17500,1,0,0:0:0:0:
36,192,17666,1,0,0:0:0:0:
256,192,17666,1,0,0:0:0:0:
402,192,17666,1,0,0:0:0:0:
182,192,17833,1,0,0:0:0:0:
329,192,17833,1,0,0:0:0:0:
36,192,18000,1,0,0:0:0:0:
256,192,18000,1,0,0:0:0:0:
402,192,18000,1,0,0:0:0:0:
109,192,18166,1,0,0:0:0:0:
256,192,18250,1,0,0:0:0:0:
402,192,18250,1,0,0:0:0:0:
36,192,18333,1,0,0:0:0:0:
182,192,18416,1,0,0:0:0:0:
329,192,18500,1,0,0:0:0:0:
475,192,18500,1,0,0:0:0:0:
36,192,18666,1,0,0:0:0:0:
256,192,18833,1,0,0:0:0:0:
402,192,18833,1,0,0:0:0:0:
36,192,19000,1,0,0:0:0:0:
256,192,19000,1,0,0:0:0:0:
402,192,19000,1,0,0:0:0:0:
182,192,19166,1,0,0:0:0:0:
329,192,19166,1,0,0:0:0:0:
36,192,19333,1,0,0:0:0:0:
256,192,19333,1,0,0:0:0:0:
402,192,19333,1,0,0:0:0:0:
109,192,19500,1,0,0:0:0:0:
256,192,19583,1,0,0:0:0:0:
402,192,19583,1,0,0:0:0:0:
36,192,19666,1,0,0:0:0:0:
109,192,19750,1,0,0:0:0:0:
182,192,19833,1,0,0:0:0:0:
329,192,19833,1,0,0:0:0:0:
36,192,20000,1,0,0:0:0:0:
256,192,20166,1,0,0:0:0:0:
402,192,20166,1,0,0:0:0:0:
36,192,20333,1,0,0:0:0:0:
256,192,20333,1,0,0:0:0:0:
402,192,20333,1,0,0:0:0:0:
182,192,20500,1,0,0:0:0:0:
329,192,20500,1,0,0:0:0:0:
36,192,20666,1,0,0:0:0:0:
256,192,20666,1,0,0:0:0:0:
475,192,20666,1,0,0:0:0:0:
109,192,20833,1,0,0:0:0:0:
256,192,20916,1,0,0:0:0:0:
475,192,20916,1,0,0:0:0:0:
36,192,21000,1,0,0:0:0:0:
109,192,21083,1,0,0:0:0:0:
256,192,21166,1,0,0:0:0:0:
402,192,21166,1,0,0:0:0:0:
36,192,21333,1,0,0:0:0:0:
256,192,21500,1,0,0:0:0:0:
402,192,21500,1,0,0:0:0:0:
36,192,21666,1,0,0:0:0:0:
256,192,21666,1,0,0:0:0:0:
402,192,21666,1,0,0:0:0:0:
182,192,21833,1,0,0:0:0:0:
329,192,21833,1,0,0:0:0:0:
36,192,22000,1,0,0:0:0:0:
256,192,22000,1,0,0:0:0:0:
402,192,22000,1,0,0:0:0:0:
109,192,22166,1,0,0:0:0:0:
256,192,22250,1,0,0:0:0:0:
402,192,22250,1,0,0:0:0:0:
36,192,22333,1,0,0:0:0:0:
109,192,22416,1,0,0:0:0:0:
182,192,22500,1,0,0:0:0:0:
329,192,22500,1,0,0:0:0:0:
36,192,22666,1,0,0:0:0:0:
256,192,22833,1,0,0:0:0:0:
402,192,22833,1,0,0:0:0:0:
36,192,23000,1,0,0:0:0:0:
256,192,23000,1,0,0:0:0:0:
402,192,23000,1,0,0:0:0:0:
182,192,23166,1,0,0:0:0:0:
329,192,23166,1,0,0:0:0:0:
36,192,23333,1,0,0:0:0:0:
256,192,23333,1,0,0:0:0:0:
402,192,23333,1,0,0:0:0:0:
109,192,23500,1,0,0:0:0:0:
256,192,23583,1,0,0:0:0:0:
402,192,23583,1,0,0:0:0:0:
36,192,23666,1,0,0:0:0:0:
182,192,23750,1,0,0:0:0:0:
329,192,23833,1,0,0:0:0:0:
475,192,23833,1,0,0:0:0:0:
36,192,24000,1,0,0:0:0:0:
256,192,24166,1,0,0:0:0:0:
402,192,24166,1,0,0:0:0:0:
36,192,24333,1,0,0:0:0:0:
256,192,24333,1,0,0:0:0:0:
402,192,24333,1,0,0:0:0:0:
182,192,24500,1,0,0:0:0:0:
329,192,24500,1,0,0:0:0:0:
36,192,24666,1,0,0:0:0:0:
256,192,24666,1,0,0:0:0:0:
402,192,24666,1,0,0:0:0:0:
109,192,24833,1,0,0:0:0:0:
256,192,24916,1,0,0:0:0:0:
402,192,24916,1,0,0:0:0:0:
36,192,25000,1,0,0:0:0:0:
109,192,25083,1,0,0:0:0:0:
182,192,25166,1,0,0:0:0:0:
329,192,25166,1,0,0:0:0:0:
36,192,25333,1,0,0:0:0:0:
329,192,25500,1,0,0:0:0:0:
475,192,25500,1,0,0:0:0:0:
36,192,25666,1,0,0:0:0:0:
329,192,25666,1,0,0:0:0:0:
475,192,25666,1,0,0:0:0:0:
256,192,25833,1,0,0:0:0:0:
402,192,25833,1,0,0:0:0:0:
36,192,26000,1,0,0:0:0:0:
329,192,26000,1,0,0:0:0:0:
475,192,26000,1,0,0:0:0:0:
109,192,26166,1,0,0:0:0:0:
256,192,26166,1,0,0:0:0:0:
182,192,26250,1,0,0:0:0:0:
329,192,26250,1,0,0:0:0:0:
475,192,26250,1,0,0:0:0:0:
36,192,26333,1,0,0:0:0:0:
109,192,26416,1,0,0:0:0:0:
256,192,26416,1,0,0:0:0:0:
182,192,26500,1,0,0:0:0:0:
329,192,26500,1,0,0:0:0:0:
402,192,26500,1,0,0:0:0:0:
109,192,26583,1,0,0:0:0:0:
36,192,26666,1,0,0:0:0:0:
109,192,26833,1,0,0:0:0:0:
256,192,26833,1,0,0:0:0:0:
402,192,26833,1,0,0:0:0:0:
36,192,27000,1,0,0:0:0:0:
256,192,27000,1,0,0:0:0:0:
402,192,27000,1,0,0:0:0:0:
109,192,27166,1,0,0:0:0:0:
182,192,27166,1,0,0:0:0:0:
329,192,27166,1,0,0:0:0:0:
36,192,27333,1,0,0:0:0:0:
256,192,27333,1,0,0:0:0:0:
402,192,27333,1,0,0:0:0:0:
109,192,27500,1,0,0:0:0:0:
256,192,27583,1,0,0:0:0:0:
402,192,27583,1,0,0:0:0:0:
36,192,27666,1,0,0:0:0:0:
109,192,27833,1,0,0:0:0:0:
182,192,27833,1,0,0:0:0:0:
329,192,27833,1,0,0:0:0:0:
36,192,28000,1,0,0:0:0:0:
109,192,28166,1,0,0:0:0:0:
256,192,28166,1,0,0:0:0:0:
402,192,28166,1,0,0:0:0:0:
36,192,28333,1,0,0:0:0:0:
256,192,28333,1,0,0:0:0:0:
402,192,28333,1,0,0:0:0:0:
109,192,28500,1,0,0:0:0:0:
182,192,28500,1,0,0:0:0:0:
329,192,28500,1,0,0:0:0:0:
36,192,28666,1,0,0:0:0:0:
256,192,28666,1,0,0:0:0:0:
402,192,28666,1,0,0:0:0:0:
109,192,28833,1,0,0:0:0:0:
256,192,28916,1,0,0:0:0:0:
402,192,28916,1,0,0:0:0:0:
36,192,29000,1,0,0:0:0:0:
109,192,29166,1,0,0:0:0:0:
256,192,29166,1,0,0:0:0:0:
475,192,29166,1,0,0:0:0:0:
36,192,29333,1,0,0:0:0:0:
109,192,29500,1,0,0:0:0:0:
256,192,29500,1,0,0:0:0:0:
402,192,29500,1,0,0:0:0:0:
36,192,29666,1,0,0:0:0:0:
256,192,29666,1,0,0:0:0:0:
402,192,29666,1,0,0:0:0:0:
109,192,29833,1,0,0:0:0:0:
182,192,29833,1,0,0:0:0:0:
329,192,29833,1,0,0:0:0:0:
36,192,30000,1,0,0:0:0:0:
256,192,30000,1,0,0:0:0:0:
402,192,30000,1,0,0:0:0:0:
109,192,30166,1,0,0:0:0:0:
256,192,30250,1,0,0:0:0:0:
402,192,30250,1,0,0:0:0:0:
36,192,30333,1,0,0:0:0:0:
109,192,30500,1,0,0:0:0:0:
182,192,30500,1,0,0:0:0:0:
329,192,30500,1,0,0:0:0:0:
36,192,30666,1,0,0:0:0:0:
109,192,30833,1,0,0:0:0:0:
256,192,30833,1,0,0:0:0:0:
402,192,30833,1,0,0:0:0:0:
36,192,31000,1,0,0:0:0:0:
256,192,31000,1,0,0:0:0:0:
402,192,31000,1,0,0:0:0:0:
109,192,31166,1,0,0:0:0:0:
182,192,31166,1,0,0:0:0:0:
329,192,31166,1,0,0:0:0:0:
36,192,31333,1,0,0:0:0:0:
256,192,31333,1,0,0:0:0:0:
475,192,31333,1,0,0:0:0:0:
109,192,31500,1,0,0:0:0:0:
256,192,31583,1,0,0:0:0:0:
475,192,31583,1,0,0:0:0:0:
36,192,31666,1,0,0:0:0:0:
109,192,31833,1,0,0:0:0:0:
256,192,31833,1,0,0:0:0:0:
402,192,31833,1,0,0:0:0:0:
36,192,32000,1,0,0:0:0:0:
109,192,32166,1,0,0:0:0:0:
256,192,32166,1,0,0:0:0:0:
402,192,32166,1,0,0:0:0:0:
36,192,32333,1,0,0:0:0:0:
256,192,32333,1,0,0:0:0:0:
402,192,32333,1,0,0:0:0:0:
109,192,32499,1,0,0:0:0:0:
182,192,32499,1,0,0:0:0:0:
329,192,32499,1,0,0:0:0:0:
36,192,32666,1,0,0:0:0:0:
256,192,32666,1,0,0:0:0:0:
402,192,32666,1,0,0:0:0:0:
109,192,32833,1,0,0:0:0:0:
256,192,32916,1,0,0:0:0:0:
402,192,32916,1,0,0:0:0:0:
36,192,33000,1,0,0:0:0:0:
109,192,33166,1,0,0:0:0:0:
182,192,33166,1,0,0:0:0:0:
329,192,33166,1,0,0:0:0:0:
36,192,33333,1,0,0:0:0:0:
109,192,33500,1,0,0:0:0:0:
256,192,33500,1,0,0:0:0:0:
402,192,33500,1,0,0:0:0:0:
36,192,33666,1,0,0:0:0:0:
256,192,33666,1,0,0:0:0:0:
402,192,33666,1,0,0:0:0:0:
109,192,33833,1,0,0:0:0:0:
182,192,33833,1,0,0:0:0:0:
329,192,33833,1,0,0:0:0:0:
36,192,34000,1,0,0:0:0:0:
256,192,34000,1,0,0:0:0:0:
402,192,34000,1,0,0:0:0:0:
109,192,34166,1,0,0:0:0:0:
256,192,34250,1,0,0:0:0:0:
402,192,34250,1,0,0:0:0:0:
36,192,34333,1,0,0:0:0:0:
109,192,34500,1,0,0:0:0:0:
256,192,34500,1,0,0:0:0:0:
475,192,34500,1,0,0:0:0:0:
36,192,34666,1,0,0:0:0:0:
109,192,34833,1,0,0:0:0:0:
256,192,34833,1,0,0:0:0:0:
402,192,34833,1,0,0:0:0:0:
36,192,35000,1,0,0:0:0:0:
256,192,35000,1,0,0:0:0:0:
402,192,35000,1,0,0:0:0:0:
109,192,35166,1,0,0:0:0:0:
182,192,35166,1,0,0:0:0:0:
329,192,35166,1,0,0:0:0:0:
36,192,35333,1,0,0:0:0:0:
256,192,35333,1,0,0:0:0:0:
402,192,35333,1,0,0:0:0:0:
109,192,35500,1,0,0:0:0:0:
256,192,35583,1,0,0:0:0:0:
402,192,35583,1,0,0:0:0:0:
36,192,35666,1,0,0:0:0:0:
109,192,35833,1,0,0:0:0:0:
182,192,35833,1,0,0:0:0:0:
329,192,35833,1,0,0:0:0:0:
109,192,36166,1,0,0:0:0:0:
256,192,36166,1,0,0:0:0:0:
402,192,36166,1,0,0:0:0:0:
256,192,36333,1,0,0:0:0:0:
402,192,36333,1,0,0:0:0:0:
109,192,36500,1,0,0:0:0:0:
182,192,36500,1,0,0:0:0:0:
329,192,36500,1,0,0:0:0:0:
256,192,36666,1,0,0:0:0:0:
475,192,36666,1,0,0:0:0:0:
109,192,36833,1,0,0:0:0:0:
256,192,36916,1,0,0:0:0:0:
475,192,36916,1,0,0:0:0:0:
109,192,37166,1,0,0:0:0:0:
256,192,37166,1,0,0:0:0:0:
402,192,37166,1,0,0:0:0:0:
36,192,37333,1,0,0:0:0:0:
475,192,37333,1,0,0:0:0:0:
36,192,38500,1,0,0:0:0:0:
36,192,38666,1,0,0:0:0:0:
329,192,39000,1,0,0:0:0:0:
256,192,39333,1,0,0:0:0:0:
329,192,39500,1,0,0:0:0:0:
36,192,39833,1,0,0:0:0:0:
36,192,40000,1,0,0:0:0:0:
256,192,40000,1,0,0:0:0:0:
109,192,40500,1,0,0:0:0:0:
182,192,41000,1,0,0:0:0:0:
36,192,41166,1,0,0:0:0:0:
36,192,41333,1,0,0:0:0:0:
402,192,41333,1,0,0:0:0:0:
256,192,41666,1,0,0:0:0:0:
36,192,42000,1,0,0:0:0:0:
182,192,42000,1,0,0:0:0:0:
109,192,42166,1,0,0:0:0:0:
36,192,42666,1,0,0:0:0:0:
329,192,42666,1,0,0:0:0:0:
109,192,42833,1,0,0:0:0:0:
109,192,43166,1,0,0:0:0:0:
36,192,43333,1,0,0:0:0:0:
109,192,43500,1,0,0:0:0:0:
182,192,43500,1,0,0:0:0:0:
109,192,43833,1,0,0:0:0:0:
256,192,43833,1,0,0:0:0:0:
36,192,44000,1,0,0:0:0:0:
402,192,44000,1,0,0:0:0:0:
109,192,44166,1,0,0:0:0:0:
329,192,44333,1,0,0:0:0:0:
109,192,44500,1,0,0:0:0:0:
36,192,44666,1,0,0:0:0:0:
402,192,44666,1,0,0:0:0:0:
109,192,44833,1,0,0:0:0:0:
475,192,44833,1,0,0:0:0:0:
109,192,45166,1,0,0:0:0:0:
36,192,45333,1,0,0:0:0:0:
402,192,45333,1,0,0:0:0:0:
109,192,45500,1,0,0:0:0:0:
109,192,45833,1,0,0:0:0:0:
36,192,46000,1,0,0:0:0:0:
109,192,46166,1,0,0:0:0:0:
256,192,46166,1,0,0:0:0:0:
109,192,46500,1,0,0:0:0:0:
329,192,46500,1,0,0:0:0:0:
36,192,46666,1,0,0:0:0:0:
475,192,46666,1,0,0:0:0:0:
109,192,46833,1,0,0:0:0:0:
36,192,47000,1,0,0:0:0:0:
402,192,47000,1,0,0:0:0:0:
109,192,47166,1,0,0:0:0:0:
36,192,47333,1,0,0:0:0:0:
329,192,47333,1,0,0:0:0:0:
182,192,47500,1,0,0:0:0:0:
402,192,47500,1,0,0:0:0:0:
109,192,47583,1,0,0:0:0:0:
256,192,47583,1,0,0:0:0:0:
36,192,47666,1,0,0:0:0:0:
402,192,47750,1,0,0:0:0:0:
36,192,47833,1,0,0:0:0:0:
256,192,47833,1,0,0:0:0:0:
402,192,47916,1,0,0:0:0:0:
36,192,48000,1,0,0:0:0:0:
475,192,48000,1,0,0:0:0:0:
182,192,48166,1,0,0:0:0:0:
36,192,48333,1,0,0:0:0:0:
182,192,48500,1,0,0:0:0:0:
36,192,48666,1,0,0:0:0:0:
182,192,48833,1,0,0:0:0:0:
36,192,49000,1,0,0:0:0:0:
182,192,49166,1,0,0:0:0:0:
36,192,49333,1,0,0:0:0:0:
182,192,49500,1,0,0:0:0:0:
36,192,49666,1,0,0:0:0:0:
402,192,49666,1,0,0:0:0:0:
182,192,49833,1,0,0:0:0:0:
36,192,50000,1,0,0:0:0:0:
329,192,50000,1,0,0:0:0:0:
182,192,50166,1,0,0:0:0:0:
402,192,50166,1,0,0:0:0:0:
36,192,50333,1,0,0:0:0:0:
182,192,50500,1,0,0:0:0:0:
36,192,50666,1,0,0:0:0:0:
329,192,50666,1,0,0:0:0:0:
182,192,50833,1,0,0:0:0:0:
36,192,51000,1,0,0:0:0:0:
109,192,51166,1,0,0:0:0:0:
182,192,51166,1,0,0:0:0:0:
36,192,51333,1,0,0:0:0:0:
182,192,51500,1,0,0:0:0:0:
36,192,51666,1,0,0:0:0:0:
256,192,51666,1,0,0:0:0:0:
182,192,51833,1,0,0:0:0:0:
36,192,52000,1,0,0:0:0:0:
475,192,52000,1,0,0:0:0:0:
182,192,52166,1,0,0:0:0:0:
36,192,52333,1,0,0:0:0:0:
402,192,52333,1,0,0:0:0:0:
182,192,52500,1,0,0:0:0:0:
36,192,52666,1,0,0:0:0:0:
329,192,52666,1,0,0:0:0:0:
182,192,52833,1,0,0:0:0:0:
256,192,52833,1,0,0:0:0:0:
36,192,53000,1,0,0:0:0:0:
182,192,53166,1,0,0:0:0:0:
36,192,53333,1,0,0:0:0:0:
329,192,53333,1,0,0:0:0:0:
182,192,53500,1,0,0:0:0:0:
36,192,53666,1,0,0:0:0:0:
182,192,53833,1,0,0:0:0:0:
36,192,54000,1,0,0:0:0:0:
109,192,54166,1,0,0:0:0:0:
182,192,54166,1,0,0:0:0:0:
36,192,54333,1,0,0:0:0:0:
182,192,54500,1,0,0:0:0:0:
256,192,54500,1,0,0:0:0:0:
36,192,54666,1,0,0:0:0:0:
402,192,54666,1,0,0:0:0:0:
182,192,54833,1,0,0:0:0:0:
36,192,55000,1,0,0:0:0:0:
329,192,55000,1,0,0:0:0:0:
182,192,55166,1,0,0:0:0:0:
36,192,55333,1,0,0:0:0:0:
256,192,55333,1,0,0:0:0:0:
182,192,55500,1,0,0:0:0:0:
329,192,55500,1,0,0:0:0:0:
36,192,55666,1,0,0:0:0:0:
182,192,55833,1,0,0:0:0:0:
36,192,56000,1,0,0:0:0:0:
329,192,56000,1,0,0:0:0:0:
182,192,56166,1,0,0:0:0:0:
36,192,56333,1,0,0:0:0:0:
182,192,56500,1,0,0:0:0:0:
36,192,56666,1,0,0:0:0:0:
182,192,56833,1,0,0:0:0:0:
329,192,56833,1,0,0:0:0:0:
36,192,57000,1,0,0:0:0:0:
182,192,57166,1,0,0:0:0:0:
402,192,57166,1,0,0:0:0:0:
36,192,57333,1,0,0:0:0:0:
475,192,57333,1,0,0:0:0:0:
182,192,57500,1,0,0:0:0:0:
36,192,57666,1,0,0:0:0:0:
402,192,57666,1,0,0:0:0:0:
182,192,57833,1,0,0:0:0:0:
36,192,58000,1,0,0:0:0:0:
329,192,58000,1,0,0:0:0:0:
109,192,58166,1,0,0:0:0:0:
256,192,58166,1,0,0:0:0:0:
182,192,58250,1,0,0:0:0:0:
36,192,58333,1,0,0:0:0:0:
329,192,58416,1,0,0:0:0:0:
182,192,58500,1,0,0:0:0:0:
256,192,58583,1,0,0:0:0:0:
329,192,58666,1,0,0:0:0:0:
475,192,58666,1,0,0:0:0:0:
182,192,58750,1,0,0:0:0:0:
36,192,58833,1,0,0:0:0:0:
256,192,58916,1,0,0:0:0:0:
182,192,59000,1,0,0:0:0:0:
36,192,59083,1,0,0:0:0:0:
329,192,59166,1,0,0:0:0:0:
182,192,59250,1,0,0:0:0:0:
36,192,59333,1,0,0:0:0:0:
402,192,59416,1,0,0:0:0:0:
109,192,59500,1,0,0:0:0:0:
36,192,59583,1,0,0:0:0:0:
329,192,59666,1,0,0:0:0:0:
182,192,59750,1,0,0:0:0:0:
256,192,59833,1,0,0:0:0:0:
109,192,59916,1,0,0:0:0:0:
329,192,60000,1,0,0:0:0:0:
182,192,60083,1,0,0:0:0:0:
36,192,60166,1,0,0:0:0:0:
256,192,60250,1,0,0:0:0:0:
109,192,60333,1,0,0:0:0:0:
402,192,60333,1,0,0:0:0:0:
36,192,60416,1,0,0:0:0:0:
182,192,60500,1,0,0:0:0:0:
109,192,60583,1,0,0:0:0:0:
36,192,60666,1,0,0:0:0:0:
329,192,60666,1,0,0:0:0:0:
256,192,60750,1,0,0:0:0:0:
182,192,60833,1,0,0:0:0:0:
402,192,60833,1,0,0:0:0:0:
36,192,60916,1,0,0:0:0:0:
256,192,61000,1,0,0:0:0:0:
109,192,61083,1,0,0:0:0:0:
182,192,61166,1,0,0:0:0:0:
36,192,61250,1,0,0:0:0:0:
329,192,61333,1,0,0:0:0:0:
475,192,61333,1,0,0:0:0:0:
256,192,61416,1,0,0:0:0:0:
109,192,61500,1,0,0:0:0:0:
402,192,61583,1,0,0:0:0:0:
256,192,61666,1,0,0:0:0:0:
36,192,61750,1,0,0:0:0:0:
182,192,61833,1,0,0:0:0:0:
402,192,61833,1,0,0:0:0:0:
329,192,61916,1,0,0:0:0:0:
109,192,62000,1,0,0:0:0:0:
475,192,62083,1,0,0:0:0:0:
182,192,62166,1,0,0:0:0:0:
36,192,62250,1,0,0:0:0:0:
256,192,62333,1,0,0:0:0:0:
402,192,62333,1,0,0:0:0:0:
109,192,62416,1,0,0:0:0:0:
329,192,62500,1,0,0:0:0:0:
36,192,62583,1,0,0:0:0:0:
329,192,62666,1,0,0:0:0:0:
475,192,62666,1,0,0:0:0:0:
182,192,62750,1,0,0:0:0:0:
109,192,62833,1,0,0:0:0:0:
256,192,62916,1,0,0:0:0:0:
182,192,63000,1,0,0:0:0:0:
402,192,63000,1,0,0:0:0:0:
36,192,63083,1,0,0:0:0:0:
256,192,63166,1,0,0:0:0:0:
182,192,63250,1,0,0:0:0:0:
36,192,63333,1,0,0:0:0:0:
329,192,63333,1,0,0:0:0:0:
475,192,63416,1,0,0:0:0:0:
109,192,63500,1,0,0:0:0:0:
256,192,63500,1,0,0:0:0:0:
36,192,63583,1,0,0:0:0:0:
402,192,63666,1,0,0:0:0:0:
182,192,63750,1,0,0:0:0:0:
329,192,63833,1,0,0:0:0:0:
109,192,63916,1,0,0:0:0:0:
256,192,64000,1,0,0:0:0:0:
402,192,64000,1,0,0:0:0:0:
182,192,64083,1,0,0:0:0:0:
36,192,64166,1,0,0:0:0:0:
329,192,64249,1,0,0:0:0:0:
256,192,64333,1,0,0:0:0:0:
109,192,64416,1,0,0:0:0:0:
402,192,64499,1,0,0:0:0:0:
256,192,64583,1,0,0:0:0:0:
36,192,64666,1,0,0:0:0:0:
475,192,64749,1,0,0:0:0:0:
182,192,64833,1,0,0:0:0:0:
329,192,64833,1,0,0:0:0:0:
36,192,64916,1,0,0:0:0:0:
475,192,64999,1,0,0:0:0:0:
109,192,65083,1,0,0:0:0:0:
256,192,65166,1,0,0:0:0:0:
402,192,65166,1,0,0:0:0:0:
36,192,65249,1,0,0:0:0:0:
329,192,65333,1,0,0:0:0:0:
475,192,65333,1,0,0:0:0:0:
182,192,65416,1,0,0:0:0:0:
36,192,65499,1,0,0:0:0:0:
402,192,65583,1,0,0:0:0:0:
109,192,65666,1,0,0:0:0:0:
256,192,65666,1,0,0:0:0:0:
36,192,65750,1,0,0:0:0:0:
475,192,65833,1,0,0:0:0:0:
329,192,65916,1,0,0:0:0:0:
36,192,66000,1,0,0:0:0:0:
182,192,66000,1,0,0:0:0:0:
402,192,66083,1,0,0:0:0:0:
109,192,66166,1,0,0:0:0:0:
256,192,66166,1,0,0:0:0:0:
36,192,66250,1,0,0:0:0:0:
402,192,66333,1,0,0:0:0:0:
182,192,66416,1,0,0:0:0:0:
329,192,66500,1,0,0:0:0:0:
109,192,66583,1,0,0:0:0:0:
36,192,66666,1,0,0:0:0:0:
329,192,66666,1,0,0:0:0:0:
475,192,66666,1,0,0:0:0:0:
182,192,66750,1,0,0:0:0:0:
109,192,66833,1,0,0:0:0:0:
402,192,66833,1,0,0:0:0:0:
256,192,66916,1,0,0:0:0:0:
36,192,67000,1,0,0:0:0:0:
182,192,67000,1,0,0:0:0:0:
109,192,67083,1,0,0:0:0:0:
329,192,67166,1,0,0:0:0:0:
402,192,67166,1,0,0:0:0:0:
182,192,67250,1,0,0:0:0:0:
36,192,67333,1,0,0:0:0:0:
109,192,67333,1,0,0:0:0:0:
475,192,67416,1,0,0:0:0:0:
256,192,67500,1,0,0:0:0:0:
109,192,67583,1,0,0:0:0:0:
36,192,67666,1,0,0:0:0:0:
329,192,67666,1,0,0:0:0:0:
182,192,67750,1,0,0:0:0:0:
402,192,67833,1,0,0:0:0:0:
109,192,67916,1,0,0:0:0:0:
36,192,68000,1,0,0:0:0:0:
475,192,68000,1,0,0:0:0:0:
256,192,68083,1,0,0:0:0:0:
182,192,68166,1,0,0:0:0:0:
402,192,68250,1,0,0:0:0:0:
36,192,68333,1,0,0:0:0:0:
256,192,68333,1,0,0:0:0:0:
182,192,68416,1,0,0:0:0:0:
329,192,68500,1,0,0:0:0:0:
109,192,68583,1,0,0:0:0:0:
36,192,68666,1,0,0:0:0:0:
256,192,68666,1,0,0:0:0:0:
475,192,68750,1,0,0:0:0:0:
182,192,68833,1,0,0:0:0:0:
329,192,68833,1,0,0:0:0:0:
109,192,68916,1,0,0:0:0:0:
256,192,68916,1,0,0:0:0:0:
36,192,69000,1,0,0:0:0:0:
475,192,69000,1,0,0:0:0:0:
182,192,69083,1,0,0:0:0:0:
329,192,69083,1,0,0:0:0:0:
109,192,69166,1,0,0:0:0:0:
402,192,69166,1,0,0:0:0:0:
182,192,69250,1,0,0:0:0:0:
329,192,69250,1,0,0:0:0:0:
109,192,69333,1,0,0:0:0:0:
256,192,69333,1,0,0:0:0:0:
36,192,69416,1,0,0:0:0:0:
402,192,69500,1,0,0:0:0:0:
182,192,69583,1,0,0:0:0:0:
109,192,69666,1,0,0:0:0:0:
402,192,69666,1,0,0:0:0:0:
182,192,69833,1,0,0:0:0:0:
329,192,69833,1,0,0:0:0:0:
36,192,69916,1,0,0:0:0:0:
402,192,70000,1,0,0:0:0:0:
256,192,70083,1,0,0:0:0:0:
36,192,70166,1,0,0:0:0:0:
329,192,70166,1,0,0:0:0:0:
402,192,70250,1,0,0:0:0:0:
109,192,70333,1,0,0:0:0:0:
36,192,70416,1,0,0:0:0:0:
256,192,70416,1,0,0:0:0:0:
182,192,70500,1,0,0:0:0:0:
329,192,70500,1,0,0:0:0:0:
36,192,70583,1,0,0:0:0:0:
109,192,70666,1,0,0:0:0:0:
256,192,70666,1,0,0:0:0:0:
36,192,70750,1,0,0:0:0:0:
402,192,70833,1,0,0:0:0:0:
182,192,70916,1,0,0:0:0:0:
109,192,71000,1,0,0:0:0:0:
402,192,71000,1,0,0:0:0:0:
182,192,71166,1,0,0:0:0:0:
329,192,71166,1,0,0:0:0:0:
36,192,71250,1,0,0:0:0:0:
402,192,71333,1,0,0:0:0:0:
256,192,71416,1,0,0:0:0:0:
36,192,71500,1,0,0:0:0:0:
329,192,71500,1,0,0:0:0:0:
402,192,71583,1,0,0:0:0:0:
182,192,71666,1,0,0:0:0:0:
36,192,71750,1,0,0:0:0:0:
329,192,71750,1,0,0:0:0:0:
109,192,71833,1,0,0:0:0:0:
475,192,71833,1,0,0:0:0:0:
36,192,71916,1,0,0:0:0:0:
182,192,72000,1,0,0:0:0:0:
329,192,72000,1,0,0:0:0:0:
36,192,72083,1,0,0:0:0:0:
402,192,72166,1,0,0:0:0:0:
182,192,72250,1,0,0:0:0:0:
109,192,72333,1,0,0:0:0:0:
402,192,72333,1,0,0:0:0:0:
182,192,72500,1,0,0:0:0:0:
329,192,72500,1,0,0:0:0:0:
36,192,72583,1,0,0:0:0:0:
402,192,72666,1,0,0:0:0:0:
256,192,72750,1,0,0:0:0:0:
36,192,72833,1,0,0:0:0:0:
329,192,72833,1,0,0:0:0:0:
402,192,72916,1,0,0:0:0:0:
109,192,73000,1,0,0:0:0:0:
36,192,73083,1,0,0:0:0:0:
256,192,73083,1,0,0:0:0:0:
182,192,73166,1,0,0:0:0:0:
329,192,73166,1,0,0:0:0:0:
36,192,73250,1,0,0:0:0:0:
109,192,73333,1,0,0:0:0:0:
256,192,73333,1,0,0:0:0:0:
36,192,73416,1,0,0:0:0:0:
402,192,73500,1,0,0:0:0:0:
182,192,73583,1,0,0:0:0:0:
109,192,73666,1,0,0:0:0:0:
402,192,73666,1,0,0:0:0:0:
182,192,73833,1,0,0:0:0:0:
329,192,73833,1,0,0:0:0:0:
36,192,73916,1,0,0:0:0:0:
475,192,74000,1,0,0:0:0:0:
256,192,74083,1,0,0:0:0:0:
36,192,74166,1,0,0:0:0:0:
329,192,74166,1,0,0:0:0:0:
475,192,74250,1,0,0:0:0:0:
182,192,74333,1,0,0:0:0:0:
36,192,74416,1,0,0:0:0:0:
256,192,74416,1,0,0:0:0:0:
109,192,74500,1,0,0:0:0:0:
402,192,74500,1,0,0:0:0:0:
36,192,74583,1,0,0:0:0:0:
182,192,74666,1,0,0:0:0:0:
329,192,74666,1,0,0:0:0:0:
36,192,74750,1,0,0:0:0:0:
402,192,74833,1,0,0:0:0:0:
182,192,74916,1,0,0:0:0:0:
109,192,75000,1,0,0:0:0:0:
402,192,75000,1,0,0:0:0:0:
182,192,75166,1,0,0:0:0:0:
329,192,75166,1,0,0:0:0:0:
36,192,75250,1,0,0:0:0:0:
402,192,75333,1,0,0:0:0:0:
256,192,75416,1,0,0:0:0:0:
36,192,75500,1,0,0:0:0:0:
329,192,75500,1,0,0:0:0:0:
402,192,75583,1,0,0:0:0:0:
109,192,75666,1,0,0:0:0:0:
36,192,75750,1,0,0:0:0:0:
256,192,75750,1,0,0:0:0:0:
182,192,75833,1,0,0:0:0:0:
329,192,75833,1,0,0:0:0:0:
36,192,75916,1,0,0:0:0:0:
109,192,76000,1,0,0:0:0:0:
256,192,76000,1,0,0:0:0:0:
36,192,76083,1,0,0:0:0:0:
402,192,76166,1,0,0:0:0:0:
182,192,76250,1,0,0:0:0:0:
109,192,76333,1,0,0:0:0:0:
402,192,76333,1,0,0:0:0:0:
182,192,76500,1,0,0:0:0:0:
329,192,76500,1,0,0:0:0:0:
36,192,76583,1,0,0:0:0:0:
402,192,76666,1,0,0:0:0:0:
256,192,76750,1,0,0:0:0:0:
36,192,76833,1,0,0:0:0:0:
329,192,76833,1,0,0:0:0:0:
402,192,76916,1,0,0:0:0:0:
182,192,77000,1,0,0:0:0:0:
36,192,77083,1,0,0:0:0:0:
329,192,77083,1,0,0:0:0:0:
109,192,77166,1,0,0:0:0:0:
475,192,77166,1,0,0:0:0:0:
36,192,77250,1,0,0:0:0:0:
182,192,77333,1,0,0:0:0:0:
329,192,77333,1,0,0:0:0:0:
36,192,77416,1,0,0:0:0:0:
402,192,77500,1,0,0:0:0:0:
182,192,77583,1,0,0:0:0:0:
109,192,77666,1,0,0:0:0:0:
402,192,77666,1,0,0:0:0:0:
182,192,77833,1,0,0:0:0:0:
329,192,77833,1,0,0:0:0:0:
36,192,77916,1,0,0:0:0:0:
402,192,78000,1,0,0:0:0:0:
256,192,78083,1,0,0:0:0:0:
36,192,78166,1,0,0:0:0:0:
329,192,78166,1,0,0:0:0:0:
402,192,78250,1,0,0:0:0:0:
109,192,78333,1,0,0:0:0:0:
36,192,78416,1,0,0:0:0:0:
256,192,78416,1,0,0:0:0:0:
182,192,78500,1,0,0:0:0:0:
329,192,78500,1,0,0:0:0:0:
36,192,78583,1,0,0:0:0:0:
109,192,78666,1,0,0:0:0:0:
256,192,78666,1,0,0:0:0:0:
36,192,78750,1,0,0:0:0:0:
402,192,78833,1,0,0:0:0:0:
182,192,78916,1,0,0:0:0:0:
109,192,79000,1,0,0:0:0:0:
402,192,79000,1,0,0:0:0:0:
182,192,79166,1,0,0:0:0:0:
329,192,79166,1,0,0:0:0:0:
36,192,79250,1,0,0:0:0:0:
475,192,79333,1,0,0:0:0:0:
256,192,79416,1,0,0:0:0:0:
36,192,79500,1,0,0:0:0:0:
329,192,79500,1,0,0:0:0:0:
475,192,79583,1,0,0:0:0:0:
182,192,79666,1,0,0:0:0:0:
36,192,79750,1,0,0:0:0:0:
256,192,79750,1,0,0:0:0:0:
182,192,79833,1,0,0:0:0:0:
402,192,79833,1,0,0:0:0:0:
109,192,79916,1,0,0:0:0:0:
36,192,80000,1,0,0:0:0:0:
182,192,80000,1,0,0:0:0:0:
329,192,80000,1,0,0:0:0:0:
402,192,80166,1,0,0:0:0:0:
109,192,80250,1,0,0:0:0:0:
36,192,80333,1,0,0:0:0:0:
402,192,80333,1,0,0:0:0:0:
182,192,80500,1,0,0:0:0:0:
329,192,80500,1,0,0:0:0:0:
36,192,80666,1,0,0:0:0:0:
402,192,80666,1,0,0:0:0:0:
256,192,80750,1,0,0:0:0:0:
329,192,80833,1,0,0:0:0:0:
475,192,80916,1,0,0:0:0:0:
36,192,81000,1,0,0:0:0:0:
182,192,81000,1,0,0:0:0:0:
256,192,81083,1,0,0:0:0:0:
109,192,81166,1,0,0:0:0:0:
402,192,81166,1,0,0:0:0:0:
36,192,81333,1,0,0:0:0:0:
182,192,81333,1,0,0:0:0:0:
329,192,81333,1,0,0:0:0:0:
402,192,81500,1,0,0:0:0:0:
109,192,81583,1,0,0:0:0:0:
36,192,81666,1,0,0:0:0:0:
402,192,81666,1,0,0:0:0:0:
182,192,81833,1,0,0:0:0:0:
329,192,81833,1,0,0:0:0:0:
36,192,82000,1,0,0:0:0:0:
402,192,82000,1,0,0:0:0:0:
256,192,82083,1,0,0:0:0:0:
329,192,82166,1,0,0:0:0:0:
402,192,82250,1,0,0:0:0:0:
36,192,82333,1,0,0:0:0:0:
182,192,82333,1,0,0:0:0:0:
329,192,82416,1,0,0:0:0:0:
109,192,82500,1,0,0:0:0:0:
475,192,82500,1,0,0:0:0:0:
36,192,82666,1,0,0:0:0:0:
182,192,82666,1,0,0:0:0:0:
329,192,82666,1,0,0:0:0:0:
402,192,82833,1,0,0:0:0:0:
109,192,82916,1,0,0:0:0:0:
36,192,83000,1,0,0:0:0:0:
402,192,83000,1,0,0:0:0:0:
182,192,83166,1,0,0:0:0:0:
329,192,83166,1,0,0:0:0:0:
36,192,83333,1,0,0:0:0:0:
402,192,83333,1,0,0:0:0:0:
256,192,83416,1,0,0:0:0:0:
329,192,83500,1,0,0:0:0:0:
402,192,83583,1,0,0:0:0:0:
36,192,83666,1,0,0:0:0:0:
182,192,83666,1,0,0:0:0:0:
256,192,83750,1,0,0:0:0:0:
109,192,83833,1,0,0:0:0:0:
329,192,83833,1,0,0:0:0:0:
36,192,84000,1,0,0:0:0:0:
182,192,84000,1,0,0:0:0:0:
256,192,84000,1,0,0:0:0:0:
402,192,84166,1,0,0:0:0:0:
109,192,84250,1,0,0:0:0:0:
36,192,84333,1,0,0:0:0:0:
402,192,84333,1,0,0:0:0:0:
182,192,84500,1,0,0:0:0:0:
329,192,84500,1,0,0:0:0:0:
36,192,84666,1,0,0:0:0:0:
475,192,84666,1,0,0:0:0:0:
256,192,84750,1,0,0:0:0:0:
329,192,84833,1,0,0:0:0:0:
475,192,84916,1,0,0:0:0:0:
36,192,85000,1,0,0:0:0:0:
182,192,85000,1,0,0:0:0:0:
256,192,85083,1,0,0:0:0:0:
109,192,85166,1,0,0:0:0:0:
402,192,85166,1,0,0:0:0:0:
36,192,85333,1,0,0:0:0:0:
182,192,85333,1,0,0:0:0:0:
256,192,85333,1,0,0:0:0:0:
402,192,85500,1,0,0:0:0:0:
109,192,85583,1,0,0:0:0:0:
36,192,85666,1,0,0:0:0:0:
402,192,85666,1,0,0:0:0:0:
182,192,85833,1,0,0:0:0:0:
329,192,85833,1,0,0:0:0:0:
36,192,86000,1,0,0:0:0:0:
402,192,86000,1,0,0:0:0:0:
256,192,86083,1,0,0:0:0:0:
329,192,86166,1,0,0:0:0:0:
402,192,86250,1,0,0:0:0:0:
36,192,86333,1,0,0:0:0:0:
182,192,86333,1,0,0:0:0:0:
256,192,86416,1,0,0:0:0:0:
109,192,86500,1,0,0:0:0:0:
329,192,86500,1,0,0:0:0:0:
36,192,86666,1,0,0:0:0:0:
182,192,86666,1,0,0:0:0:0:
256,192,86666,1,0,0:0:0:0:
402,192,86833,1,0,0:0:0:0:
109,192,86916,1,0,0:0:0:0:
36,192,87000,1,0,0:0:0:0:
402,192,87000,1,0,0:0:0:0:
182,192,87166,1,0,0:0:0:0:
329,192,87166,1,0,0:0:0:0:
36,192,87333,1,0,0:0:0:0:
402,192,87333,1,0,0:0:0:0:
256,192,87416,1,0,0:0:0:0:
329,192,87500,1,0,0:0:0:0:
402,192,87583,1,0,0:0:0:0:
36,192,87666,1,0,0:0:0:0:
182,192,87666,1,0,0:0:0:0:
256,192,87750,1,0,0:0:0:0:
109,192,87833,1,0,0:0:0:0:
475,192,87833,1,0,0:0:0:0:
36,192,88000,1,0,0:0:0:0:
182,192,88000,1,0,0:0:0:0:
256,192,88000,1,0,0:0:0:0:
402,192,88166,1,0,0:0:0:0:
109,192,88250,1,0,0:0:0:0:
36,192,88333,1,0,0:0:0:0:
402,192,88333,1,0,0:0:0:0:
182,192,88500,1,0,0:0:0:0:
329,192,88500,1,0,0:0:0:0:
36,192,88666,1,0,0:0:0:0:
402,192,88666,1,0,0:0:0:0:
256,192,88750,1,0,0:0:0:0:
329,192,88833,1,0,0:0:0:0:
402,192,88916,1,0,0:0:0:0:
36,192,89000,1,0,0:0:0:0:
182,192,89000,1,0,0:0:0:0:
256,192,89083,1,0,0:0:0:0:
109,192,89166,1,0,0:0:0:0:
329,192,89166,1,0,0:0:0:0:
109,192,89333,1,0,0:0:0:0:
256,192,89333,1,0,0:0:0:0:
402,192,89500,1,0,0:0:0:0:
36,192,89583,1,0,0:0:0:0:
402,192,89666,1,0,0:0:0:0:
109,192,89833,1,0,0:0:0:0:
329,192,89833,1,0,0:0:0:0:
475,192,90000,1,0,0:0:0:0:
182,192,90083,1,0,0:0:0:0:
256,192,90166,1,0,0:0:0:0:
475,192,90250,1,0,0:0:0:0:
109,192,90333,1,0,0:0:0:0:
256,192,90416,1,0,0:0:0:0:
36,192,90500,1,0,0:0:0:0:
402,192,90500,1,0,0:0:0:0:
329,192,90666,1,0,0:0:0:0:
36,192,91666,1,0,0:0:0:0:
182,192,91708,1,0,0:0:0:0:
329,192,91750,1,0,0:0:0:0:
475,192,91791,1,0,0:0:0:0:
109,192,91833,1,0,0:0:0:0:
256,192,91888,1,0,0:0:0:0:
402,192,91944,1,0,0:0:0:0:
182,192,92000,1,0,0:0:0:0:
475,192,92000,1,0,0:0:0:0:
182,192,92333,1,0,0:0:0:0:
475,192,92333,1,0,0:0:0:0:
109,192,92500,1,0,0:0:0:0:
402,192,92500,1,0,0:0:0:0:
109,192,92833,1,0,0:0:0:0:
402,192,92833,1,0,0:0:0:0:
36,192,93000,1,0,0:0:0:0:
329,192,93000,1,0,0:0:0:0:
36,192,93333,1,0,0:0:0:0:
109,192,93333,1,0,0:0:0:0:
182,192,93833,1,0,0:0:0:0:
256,192,93833,1,0,0:0:0:0:
109,192,94333,1,0,0:0:0:0:
329,192,94333,1,0,0:0:0:0:
182,192,94500,1,0,0:0:0:0:
402,192,94500,1,0,0:0:0:0:
36,192,94666,1,0,0:0:0:0:
256,192,94666,1,0,0:0:0:0:
475,192,94666,1,0,0:0:0:0:
109,192,95000,1,0,0:0:0:0:
182,192,95333,1,0,0:0:0:0:
256,192,95666,1,0,0:0:0:0:
109,192,95833,1,0,0:0:0:0:
256,192,95916,1,0,0:0:0:0:
36,192,95972,1,0,0:0:0:0:
182,192,95986,1,0,0:0:0:0:
329,192,96006,1,0,0:0:0:0:
475,192,96020,1,0,0:0:0:0:
36,192,97638,1,0,0:0:0:0:
182,192,97652,1,0,0:0:0:0:
256,192,97680,1,0,0:0:0:0:
402,192,97701,1,0,0:0:0:0:
109,192,98000,1,0,0:0:0:0:
256,192,98000,1,0,0:0:0:0:
182,192,98166,1,0,0:0:0:0:
329,192,98166,1,0,0:0:0:0:
182,192,98500,1,0,0:0:0:0:
329,192,98500,1,0,0:0:0:0:
109,192,98638,1,0,0:0:0:0:
256,192,98659,1,0,0:0:0:0:
329,192,98673,1,0,0:0:0:0:
475,192,98694,1,0,0:0:0:0:
329,192,99166,1,0,0:0:0:0:
475,192,99250,1,0,0:0:0:0:
36,192,99291,1,0,0:0:0:0:
182,192,99312,1,0,0:0:0:0:
109,192,99340,1,0,0:0:0:0:
256,192,99361,1,0,0:0:0:0:
402,192,99381,1,0,0:0:0:0:
36,192,100000,1,0,0:0:0:0:
256,192,100000,1,0,0:0:0:0:
402,192,100000,1,0,0:0:0:0:
475,192,100083,1,0,0:0:0:0:
329,192,100166,1,0,0:0:0:0:
256,192,100250,1,0,0:0:0:0:
36,192,100333,1,0,0:0:0:0:
182,192,100333,1,0,0:0:0:0:
329,192,100333,1,0,0:0:0:0:
402,192,100416,1,0,0:0:0:0:
256,192,100500,1,0,0:0:0:0:
109,192,100583,1,0,0:0:0:0:
36,192,100666,1,0,0:0:0:0:
182,192,100666,1,0,0:0:0:0:
402,192,100666,1,0,0:0:0:0:
475,192,100750,1,0,0:0:0:0:
329,192,100833,1,0,0:0:0:0:
109,192,100916,1,0,0:0:0:0:
256,192,100916,1,0,0:0:0:0:
36,192,101000,1,0,0:0:0:0:
182,192,101000,1,0,0:0:0:0:
329,192,101000,1,0,0:0:0:0:
402,192,101083,1,0,0:0:0:0:
36,192,101166,1,0,0:0:0:0:
256,192,101166,1,0,0:0:0:0:
109,192,101250,1,0,0:0:0:0:
182,192,101333,1,0,0:0:0:0:
36,192,101666,1,0,0:0:0:0:
36,192,102000,1,0,0:0:0:0:
36,192,102333,1,0,0:0:0:0:
109,192,102333,1,0,0:0:0:0:
329,192,102375,1,0,0:0:0:0:
402,192,102416,1,0,0:0:0:0:
182,192,102458,1,0,0:0:0:0:
256,192,102500,1,0,0:0:0:0:
329,192,102555,1,0,0:0:0:0:
402,192,102611,1,0,0:0:0:0:
36,192,102666,1,0,0:0:0:0:
329,192,102666,1,0,0:0:0:0:
475,192,102666,1,0,0:0:0:0:
36,192,103000,1,0,0:0:0:0:
329,192,103000,1,0,0:0:0:0:
475,192,103000,1,0,0:0:0:0:
109,192,103166,1,0,0:0:0:0:
402,192,103166,1,0,0:0:0:0:
36,192,103333,1,0,0:0:0:0:
109,192,103500,1,0,0:0:0:0:
402,192,103500,1,0,0:0:0:0:
36,192,103666,1,0,0:0:0:0:
182,192,103666,1,0,0:0:0:0:
329,192,103666,1,0,0:0:0:0:
36,192,104000,1,0,0:0:0:0:
182,192,104000,1,0,0:0:0:0:
402,192,104000,1,0,0:0:0:0:
36,192,104333,1,0,0:0:0:0:
256,192,104500,1,0,0:0:0:0:
475,192,104500,1,0,0:0:0:0:
36,192,104666,1,0,0:0:0:0:
36,192,105000,1,0,0:0:0:0:
182,192,105000,1,0,0:0:0:0:
475,192,105000,1,0,0:0:0:0:
256,192,105166,1,0,0:0:0:0:
402,192,105166,1,0,0:0:0:0:
36,192,105333,1,0,0:0:0:0:
329,192,105333,1,0,0:0:0:0:
475,192,105333,1,0,0:0:0:0:
36,192,105666,1,0,0:0:0:0:
36,192,106000,1,0,0:0:0:0:
36,192,106333,1,0,0:0:0:0:
109,192,106631,1,0,0:0:0:0:
256,192,106645,1,0,0:0:0:0:
36,192,106666,1,0,0:0:0:0:
329,192,106673,1,0,0:0:0:0:
475,192,106694,1,0,0:0:0:0:
36,192,107000,1,0,0:0:0:0:
36,192,107333,1,0,0:0:0:0:
36,192,107666,1,0,0:0:0:0:
36,192,108000,1,0,0:0:0:0:
109,192,108312,1,0,0:0:0:0:
36,192,108333,1,0,0:0:0:0:
256,192,108333,1,0,0:0:0:0:
402,192,108361,1,0,0:0:0:0:
36,192,108666,1,0,0:0:0:0:
182,192,108666,1,0,0:0:0:0:
329,192,108666,1,0,0:0:0:0:
256,192,108833,1,0,0:0:0:0:
402,192,108833,1,0,0:0:0:0:
36,192,109000,1,0,0:0:0:0:
256,192,109166,1,0,0:0:0:0:
402,192,109166,1,0,0:0:0:0:
36,192,109333,1,0,0:0:0:0:
109,192,109340,1,0,0:0:0:0:
256,192,109361,1,0,0:0:0:0:
329,192,109375,1,0,0:0:0:0:
475,192,109381,1,0,0:0:0:0:
36,192,109666,1,0,0:0:0:0:
36,192,110000,1,0,0:0:0:0:
182,192,110020,1,0,0:0:0:0:
109,192,110048,1,0,0:0:0:0:
256,192,110069,1,0,0:0:0:0:
402,192,110090,1,0,0:0:0:0:
36,192,110333,1,0,0:0:0:0:
36,192,110666,1,0,0:0:0:0:
256,192,110666,1,0,0:0:0:0:
402,192,110666,1,0,0:0:0:0:
475,192,110750,1,0,0:0:0:0:
329,192,110833,1,0,0:0:0:0:
256,192,110916,1,0,0:0:0:0:
36,192,111000,1,0,0:0:0:0:
182,192,111000,1,0,0:0:0:0:
402,192,111000,1,0,0:0:0:0:
329,192,111083,1,0,0:0:0:0:
256,192,111166,1,0,0:0:0:0:
109,192,111250,1,0,0:0:0:0:
36,192,111333,1,0,0:0:0:0:
182,192,111333,1,0,0:0:0:0:
329,192,111333,1,0,0:0:0:0:
402,192,111416,1,0,0:0:0:0:
256,192,111500,1,0,0:0:0:0:
109,192,111583,1,0,0:0:0:0:
36,192,111666,1,0,0:0:0:0:
182,192,111666,1,0,0:0:0:0:
402,192,111666,1,0,0:0:0:0:
475,192,111750,1,0,0:0:0:0:
329,192,111833,1,0,0:0:0:0:
182,192,111916,1,0,0:0:0:0:
36,192,112000,1,0,0:0:0:0:
402,192,112000,1,0,0:0:0:0:
36,192,112333,1,0,0:0:0:0:
36,192,112666,1,0,0:0:0:0:
36,192,113000,1,0,0:0:0:0:
182,192,113000,1,0,0:0:0:0:
256,192,113041,1,0,0:0:0:0:
329,192,113083,1,0,0:0:0:0:
475,192,113125,1,0,0:0:0:0:
109,192,113166,1,0,0:0:0:0:
256,192,113222,1,0,0:0:0:0:
402,192,113277,1,0,0:0:0:0:
36,192,113333,1,0,0:0:0:0:
329,192,113333,1,0,0:0:0:0:
475,192,113333,1,0,0:0:0:0:
36,192,113666,1,0,0:0:0:0:
329,192,113666,1,0,0:0:0:0:
475,192,113666,1,0,0:0:0:0:
109,192,113833,1,0,0:0:0:0:
402,192,113833,1,0,0:0:0:0:
36,192,114000,1,0,0:0:0:0:
109,192,114166,1,0,0:0:0:0:
402,192,114166,1,0,0:0:0:0:
36,192,114333,1,0,0:0:0:0:
182,192,114333,1,0,0:0:0:0:
329,192,114333,1,0,0:0:0:0:
36,192,114666,1,0,0:0:0:0:
182,192,114666,1,0,0:0:0:0:
402,192,114666,1,0,0:0:0:0:
36,192,115000,1,0,0:0:0:0:
256,192,115166,1,0,0:0:0:0:
475,192,115166,1,0,0:0:0:0:
36,192,115333,1,0,0:0:0:0:
36,192,115666,1,0,0:0:0:0:
182,192,115666,1,0,0:0:0:0:
475,192,115666,1,0,0:0:0:0:
256,192,115833,1,0,0:0:0:0:
402,192,115833,1,0,0:0:0:0:
36,192,116000,1,0,0:0:0:0:
329,192,116000,1,0,0:0:0:0:
475,192,116000,1,0,0:0:0:0:
36,192,116333,1,0,0:0:0:0:
36,192,116666,1,0,0:0:0:0:
36,192,117000,1,0,0:0:0:0:
109,192,117298,1,0,0:0:0:0:
256,192,117319,1,0,0:0:0:0:
36,192,117333,1,0,0:0:0:0:
329,192,117340,1,0,0:0:0:0:
475,192,117361,1,0,0:0:0:0:
36,192,117666,1,0,0:0:0:0:
36,192,118000,1,0,0:0:0:0:
36,192,118333,1,0,0:0:0:0:
36,192,118666,1,0,0:0:0:0:
109,192,118979,1,0,0:0:0:0:
36,192,119000,1,0,0:0:0:0:
256,192,119000,1,0,0:0:0:0:
402,192,119027,1,0,0:0:0:0:
36,192,119333,1,0,0:0:0:0:
182,192,119333,1,0,0:0:0:0:
329,192,119333,1,0,0:0:0:0:
256,192,119500,1,0,0:0:0:0:
402,192,119500,1,0,0:0:0:0:
36,192,119666,1,0,0:0:0:0:
256,192,119833,1,0,0:0:0:0:
402,192,119833,1,0,0:0:0:0:
36,192,120000,1,0,0:0:0:0:
109,192,120020,1,0,0:0:0:0:
256,192,120034,1,0,0:0:0:0:
329,192,120048,1,0,0:0:0:0:
475,192,120055,1,0,0:0:0:0:
36,192,120333,1,0,0:0:0:0:
36,192,120666,1,0,0:0:0:0:
182,192,120694,1,0,0:0:0:0:
109,192,120715,1,0,0:0:0:0:
256,192,120729,1,0,0:0:0:0:
402,192,120743,1,0,0:0:0:0:
36,192,121000,1,0,0:0:0:0:
256,192,121333,1,0,0:0:0:0:
402,192,121333,1,0,0:0:0:0:
475,192,121416,1,0,0:0:0:0:
329,192,121500,1,0,0:0:0:0:
182,192,121583,1,0,0:0:0:0:
109,192,121666,1,0,0:0:0:0:
256,192,121666,1,0,0:0:0:0:
329,192,121750,1,0,0:0:0:0:
182,192,121833,1,0,0:0:0:0:
36,192,121916,1,0,0:0:0:0:
256,192,122000,1,0,0:0:0:0:
402,192,122000,1,0,0:0:0:0:
475,192,122083,1,0,0:0:0:0:
329,192,122166,1,0,0:0:0:0:
182,192,122250,1,0,0:0:0:0:
109,192,122333,1,0,0:0:0:0:
256,192,122333,1,0,0:0:0:0:
329,192,122416,1,0,0:0:0:0:
182,192,122500,1,0,0:0:0:0:
36,192,122583,1,0,0:0:0:0:
182,192,122666,1,0,0:0:0:0:
475,192,122666,1,0,0:0:0:0:
36,192,122750,1,0,0:0:0:0:
256,192,122750,1,0,0:0:0:0:
329,192,122833,1,0,0:0:0:0:
109,192,122916,1,0,0:0:0:0:
402,192,122916,1,0,0:0:0:0:
36,192,123000,1,0,0:0:0:0:
475,192,123000,1,0,0:0:0:0:
182,192,123083,1,0,0:0:0:0:
109,192,123166,1,0,0:0:0:0:
256,192,123166,1,0,0:0:0:0:
36,192,123250,1,0,0:0:0:0:
329,192,123250,1,0,0:0:0:0:
402,192,123333,1,0,0:0:0:0:
182,192,123416,1,0,0:0:0:0:
329,192,123416,1,0,0:0:0:0:
36,192,123500,1,0,0:0:0:0:
475,192,123500,1,0,0:0:0:0:
256,192,123583,1,0,0:0:0:0:
182,192,123666,1,0,0:0:0:0:
402,192,123666,1,0,0:0:0:0:
36,192,123750,1,0,0:0:0:0:
256,192,123750,1,0,0:0:0:0:
109,192,123833,1,0,0:0:0:0:
329,192,123833,1,0,0:0:0:0:
36,192,123916,1,0,0:0:0:0:
256,192,123916,1,0,0:0:0:0:
182,192,124000,1,0,0:0:0:0:
475,192,124000,1,0,0:0:0:0:
36,192,124083,1,0,0:0:0:0:
256,192,124083,1,0,0:0:0:0:
329,192,124166,1,0,0:0:0:0:
109,192,124250,1,0,0:0:0:0:
402,192,124250,1,0,0:0:0:0:
36,192,124333,1,0,0:0:0:0:
475,192,124333,1,0,0:0:0:0:
182,192,124416,1,0,0:0:0:0:
109,192,124500,1,0,0:0:0:0:
256,192,124500,1,0,0:0:0:0:
36,192,124583,1,0,0:0:0:0:
329,192,124583,1,0,0:0:0:0:
402,192,124666,1,0,0:0:0:0:
182,192,124750,1,0,0:0:0:0:
329,192,124750,1,0,0:0:0:0:
36,192,124833,1,0,0:0:0:0:
475,192,124833,1,0,0:0:0:0:
256,192,124916,1,0,0:0:0:0:
182,192,125000,1,0,0:0:0:0:
402,192,125000,1,0,0:0:0:0:
36,192,125083,1,0,0:0:0:0:
256,192,125083,1,0,0:0:0:0:
109,192,125166,1,0,0:0:0:0:
329,192,125166,1,0,0:0:0:0:
36,192,125250,1,0,0:0:0:0:
256,192,125250,1,0,0:0:0:0:
329,192,125333,1,0,0:0:0:0:
475,192,125333,1,0,0:0:0:0:
36,192,125416,1,0,0:0:0:0:
256,192,125416,1,0,0:0:0:0:
109,192,125500,1,0,0:0:0:0:
329,192,125500,1,0,0:0:0:0:
182,192,125583,1,0,0:0:0:0:
402,192,125583,1,0,0:0:0:0:
329,192,125666,1,0,0:0:0:0:
475,192,125666,1,0,0:0:0:0:
36,192,125750,1,0,0:0:0:0:
256,192,125750,1,0,0:0:0:0:
109,192,125833,1,0,0:0:0:0:
329,192,125833,1,0,0:0:0:0:
182,192,125916,1,0,0:0:0:0:
402,192,125916,1,0,0:0:0:0:
36,192,126000,1,0,0:0:0:0:
329,192,126000,1,0,0:0:0:0:
256,192,126083,1,0,0:0:0:0:
109,192,126166,1,0,0:0:0:0:
475,192,126166,1,0,0:0:0:0:
182,192,126250,1,0,0:0:0:0:
36,192,126333,1,0,0:0:0:0:
402,192,126333,1,0,0:0:0:0:
256,192,126416,1,0,0:0:0:0:
109,192,126500,1,0,0:0:0:0:
329,192,126500,1,0,0:0:0:0:
182,192,126583,1,0,0:0:0:0:
329,192,126666,1,0,0:0:0:0:
475,192,126666,1,0,0:0:0:0:
36,192,126750,1,0,0:0:0:0:
256,192,126750,1,0,0:0:0:0:
109,192,126833,1,0,0:0:0:0:
329,192,126833,1,0,0:0:0:0:
182,192,126916,1,0,0:0:0:0:
402,192,126916,1,0,0:0:0:0:
329,192,127000,1,0,0:0:0:0:
475,192,127000,1,0,0:0:0:0:
36,192,127083,1,0,0:0:0:0:
256,192,127083,1,0,0:0:0:0:
109,192,127166,1,0,0:0:0:0:
329,192,127166,1,0,0:0:0:0:
182,192,127250,1,0,0:0:0:0:
402,192,127250,1,0,0:0:0:0:
36,192,127333,1,0,0:0:0:0:
475,192,127333,1,0,0:0:0:0:
256,192,127416,1,0,0:0:0:0:
109,192,127500,1,0,0:0:0:0:
402,192,127500,1,0,0:0:0:0:
182,192,127583,1,0,0:0:0:0:
36,192,127666,1,0,0:0:0:0:
329,192,127666,1,0,0:0:0:0:
256,192,127750,1,0,0:0:0:0:
109,192,127833,1,0,0:0:0:0:
402,192,127833,1,0,0:0:0:0:
182,192,127916,1,0,0:0:0:0:
109,192,128000,1,0,0:0:0:0:
475,192,128000,1,0,0:0:0:0:
36,192,128083,1,0,0:0:0:0:
256,192,128083,1,0,0:0:0:0:
329,192,128166,1,0,0:0:0:0:
109,192,128249,1,0,0:0:0:0:
402,192,128249,1,0,0:0:0:0:
36,192,128333,1,0,0:0:0:0:
475,192,128333,1,0,0:0:0:0:
182,192,128416,1,0,0:0:0:0:
109,192,128499,1,0,0:0:0:0:
256,192,128499,1,0,0:0:0:0:
36,192,128583,1,0,0:0:0:0:
329,192,128583,1,0,0:0:0:0:
402,192,128666,1,0,0:0:0:0:
182,192,128749,1,0,0:0:0:0:
329,192,128749,1,0,0:0:0:0:
36,192,128833,1,0,0:0:0:0:
475,192,128833,1,0,0:0:0:0:
256,192,128916,1,0,0:0:0:0:
182,192,128999,1,0,0:0:0:0:
402,192,128999,1,0,0:0:0:0:
36,192,129083,1,0,0:0:0:0:
256,192,129083,1,0,0:0:0:0:
109,192,129166,1,0,0:0:0:0:
329,192,129166,1,0,0:0:0:0:
36,192,129249,1,0,0:0:0:0:
256,192,129249,1,0,0:0:0:0:
182,192,129333,1,0,0:0:0:0:
475,192,129333,1,0,0:0:0:0:
36,192,129416,1,0,0:0:0:0:
256,192,129416,1,0,0:0:0:0:
329,192,129499,1,0,0:0:0:0:
109,192,129583,1,0,0:0:0:0:
402,192,129583,1,0,0:0:0:0:
36,192,129666,1,0,0:0:0:0:
475,192,129666,1,0,0:0:0:0:
182,192,129749,1,0,0:0:0:0:
109,192,129833,1,0,0:0:0:0:
256,192,129833,1,0,0:0:0:0:
36,192,129916,1,0,0:0:0:0:
329,192,129916,1,0,0:0:0:0:
402,192,129999,1,0,0:0:0:0:
182,192,130083,1,0,0:0:0:0:
329,192,130083,1,0,0:0:0:0:
36,192,130166,1,0,0:0:0:0:
475,192,130166,1,0,0:0:0:0:
256,192,130249,1,0,0:0:0:0:
182,192,130333,1,0,0:0:0:0:
402,192,130333,1,0,0:0:0:0:
36,192,130416,1,0,0:0:0:0:
256,192,130416,1,0,0:0:0:0:
109,192,130499,1,0,0:0:0:0:
329,192,130499,1,0,0:0:0:0:
36,192,130583,1,0,0:0:0:0:
256,192,130583,1,0,0:0:0:0:
329,192,130666,1,0,0:0:0:0:
475,192,130666,1,0,0:0:0:0:
36,192,130749,1,0,0:0:0:0:
256,192,130749,1,0,0:0:0:0:
109,192,130833,1,0,0:0:0:0:
329,192,130833,1,0,0:0:0:0:
182,192,130916,1,0,0:0:0:0:
402,192,130916,1,0,0:0:0:0:
329,192,130999,1,0,0:0:0:0:
475,192,130999,1,0,0:0:0:0:
36,192,131083,1,0,0:0:0:0:
256,192,131083,1,0,0:0:0:0:
109,192,131166,1,0,0:0:0:0:
329,192,131166,1,0,0:0:0:0:
182,192,131250,1,0,0:0:0:0:
402,192,131250,1,0,0:0:0:0:
36,192,131333,1,0,0:0:0:0:
329,192,131333,1,0,0:0:0:0:
256,192,131416,1,0,0:0:0:0:
109,192,131500,1,0,0:0:0:0:
402,192,131500,1,0,0:0:0:0:
182,192,131583,1,0,0:0:0:0:
36,192,131666,1,0,0:0:0:0:
329,192,131666,1,0,0:0:0:0:
256,192,131750,1,0,0:0:0:0:
109,192,131833,1,0,0:0:0:0:
402,192,131833,1,0,0:0:0:0:
182,192,131916,1,0,0:0:0:0:
36,192,132000,1,0,0:0:0:0:
475,192,132000,1,0,0:0:0:0:
329,192,132083,1,0,0:0:0:0:
109,192,132166,1,0,0:0:0:0:
402,192,132166,1,0,0:0:0:0:
256,192,132250,1,0,0:0:0:0:
36,192,132333,1,0,0:0:0:0:
329,192,132333,1,0,0:0:0:0:
182,192,132416,1,0,0:0:0:0:
256,192,132500,1,0,0:0:0:0:
475,192,132500,1,0,0:0:0:0:
109,192,132583,1,0,0:0:0:0:
36,192,132666,1,0,0:0:0:0:
402,192,132666,1,0,0:0:0:0:
256,192,132750,1,0,0:0:0:0:
329,192,132833,1,0,0:0:0:0:
475,192,132833,1,0,0:0:0:0:
182,192,132916,1,0,0:0:0:0:
402,192,132916,1,0,0:0:0:0:
36,192,133000,1,0,0:0:0:0:
256,192,133000,1,0,0:0:0:0:
475,192,133000,1,0,0:0:0:0:
109,192,133083,1,0,0:0:0:0:
329,192,133083,1,0,0:0:0:0:
182,192,133166,1,0,0:0:0:0:
475,192,133166,1,0,0:0:0:0:
36,192,133250,1,0,0:0:0:0:
329,192,133250,1,0,0:0:0:0:
182,192,133333,1,0,0:0:0:0:
475,192,133333,1,0,0:0:0:0:
36,192,133416,1,0,0:0:0:0:
256,192,133416,1,0,0:0:0:0:
329,192,133500,1,0,0:0:0:0:
109,192,133583,1,0,0:0:0:0:
402,192,133583,1,0,0:0:0:0:
36,192,133666,1,0,0:0:0:0:
475,192,133666,1,0,0:0:0:0:
182,192,133750,1,0,0:0:0:0:
109,192,133833,1,0,0:0:0:0:
256,192,133833,1,0,0:0:0:0:
36,192,133916,1,0,0:0:0:0:
329,192,133916,1,0,0:0:0:0:
402,192,134000,1,0,0:0:0:0:
182,192,134083,1,0,0:0:0:0:
329,192,134083,1,0,0:0:0:0:
36,192,134166,1,0,0:0:0:0:
475,192,134166,1,0,0:0:0:0:
256,192,134250,1,0,0:0:0:0:
182,192,134333,1,0,0:0:0:0:
402,192,134333,1,0,0:0:0:0:
36,192,134416,1,0,0:0:0:0:
256,192,134416,1,0,0:0:0:0:
109,192,134500,1,0,0:0:0:0:
329,192,134500,1,0,0:0:0:0:
36,192,134583,1,0,0:0:0:0:
256,192,134583,1,0,0:0:0:0:
182,192,134666,1,0,0:0:0:0:
475,192,134666,1,0,0:0:0:0:
36,192,134750,1,0,0:0:0:0:
256,192,134750,1,0,0:0:0:0:
329,192,134833,1,0,0:0:0:0:
109,192,134916,1,0,0:0:0:0:
402,192,134916,1,0,0:0:0:0:
36,192,135000,1,0,0:0:0:0:
475,192,135000,1,0,0:0:0:0:
182,192,135083,1,0,0:0:0:0:
109,192,135166,1,0,0:0:0:0:
256,192,135166,1,0,0:0:0:0:
36,192,135250,1,0,0:0:0:0:
329,192,135250,1,0,0:0:0:0:
402,192,135333,1,0,0:0:0:0:
182,192,135416,1,0,0:0:0:0:
329,192,135416,1,0,0:0:0:0:
36,192,135500,1,0,0:0:0:0:
475,192,135500,1,0,0:0:0:0:
256,192,135583,1,0,0:0:0:0:
182,192,135666,1,0,0:0:0:0:
402,192,135666,1,0,0:0:0:0:
36,192,135750,1,0,0:0:0:0:
256,192,135750,1,0,0:0:0:0:
109,192,135833,1,0,0:0:0:0:
329,192,135833,1,0,0:0:0:0:
36,192,135916,1,0,0:0:0:0:
256,192,135916,1,0,0:0:0:0:
329,192,136000,1,0,0:0:0:0:
475,192,136000,1,0,0:0:0:0:
36,192,136083,1,0,0:0:0:0:
256,192,136083,1,0,0:0:0:0:
109,192,136166,1,0,0:0:0:0:
329,192,136166,1,0,0:0:0:0:
182,192,136250,1,0,0:0:0:0:
402,192,136250,1,0,0:0:0:0:
329,192,136333,1,0,0:0:0:0:
475,192,136333,1,0,0:0:0:0:
36,192,136416,1,0,0:0:0:0:
256,192,136416,1,0,0:0:0:0:
109,192,136500,1,0,0:0:0:0:
329,192,136500,1,0,0:0:0:0:
182,192,136583,1,0,0:0:0:0:
402,192,136583,1,0,0:0:0:0:
36,192,136666,1,0,0:0:0:0:
329,192,136666,1,0,0:0:0:0:
256,192,136750,1,0,0:0:0:0:
109,192,136833,1,0,0:0:0:0:
475,192,136833,1,0,0:0:0:0:
182,192,136916,1,0,0:0:0:0:
36,192,137000,1,0,0:0:0:0:
402,192,137000,1,0,0:0:0:0:
256,192,137083,1,0,0:0:0:0:
109,192,137166,1,0,0:0:0:0:
329,192,137166,1,0,0:0:0:0:
182,192,137250,1,0,0:0:0:0:
329,192,137333,1,0,0:0:0:0:
475,192,137333,1,0,0:0:0:0:
36,192,137416,1,0,0:0:0:0:
256,192,137416,1,0,0:0:0:0:
109,192,137500,1,0,0:0:0:0:
329,192,137500,1,0,0:0:0:0:
182,192,137583,1,0,0:0:0:0:
402,192,137583,1,0,0:0:0:0:
329,192,137666,1,0,0:0:0:0:
475,192,137666,1,0,0:0:0:0:
36,192,137750,1,0,0:0:0:0:
256,192,137750,1,0,0:0:0:0:
109,192,137833,1,0,0:0:0:0:
329,192,137833,1,0,0:0:0:0:
182,192,137916,1,0,0:0:0:0:
402,192,137916,1,0,0:0:0:0:
36,192,138000,1,0,0:0:0:0:
475,192,138000,1,0,0:0:0:0:
256,192,138083,1,0,0:0:0:0:
109,192,138166,1,0,0:0:0:0:
402,192,138166,1,0,0:0:0:0:
182,192,138250,1,0,0:0:0:0:
36,192,138333,1,0,0:0:0:0:
329,192,138333,1,0,0:0:0:0:
256,192,138416,1,0,0:0:0:0:
109,192,138500,1,0,0:0:0:0:
402,192,138500,1,0,0:0:0:0:
182,192,138583,1,0,0:0:0:0:
109,192,138666,1,0,0:0:0:0:
475,192,138666,1,0,0:0:0:0:
36,192,138750,1,0,0:0:0:0:
256,192,138750,1,0,0:0:0:0:
329,192,138833,1,0,0:0:0:0:
109,192,138916,1,0,0:0:0:0:
402,192,138916,1,0,0:0:0:0:
36,192,139000,1,0,0:0:0:0:
475,192,139000,1,0,0:0:0:0:
182,192,139083,1,0,0:0:0:0:
109,192,139166,1,0,0:0:0:0:
256,192,139166,1,0,0:0:0:0:
36,192,139250,1,0,0:0:0:0:
329,192,139250,1,0,0:0:0:0:
402,192,139333,1,0,0:0:0:0:
182,192,139416,1,0,0:0:0:0:
329,192,139416,1,0,0:0:0:0:
36,192,139500,1,0,0:0:0:0:
475,192,139500,1,0,0:0:0:0:
256,192,139583,1,0,0:0:0:0:
182,192,139666,1,0,0:0:0:0:
402,192,139666,1,0,0:0:0:0:
36,192,139750,1,0,0:0:0:0:
256,192,139750,1,0,0:0:0:0:
109,192,139833,1,0,0:0:0:0:
329,192,139833,1,0,0:0:0:0:
36,192,139916,1,0,0:0:0:0:
256,192,139916,1,0,0:0:0:0:
182,192,140000,1,0,0:0:0:0:
475,192,140000,1,0,0:0:0:0:
36,192,140083,1,0,0:0:0:0:
256,192,140083,1,0,0:0:0:0:
329,192,140166,1,0,0:0:0:0:
109,192,140250,1,0,0:0:0:0:
402,192,140250,1,0,0:0:0:0:
36,192,140333,1,0,0:0:0:0:
475,192,140333,1,0,0:0:0:0:
182,192,140416,1,0,0:0:0:0:
109,192,140500,1,0,0:0:0:0:
256,192,140500,1,0,0:0:0:0:
36,192,140583,1,0,0:0:0:0:
329,192,140583,1,0,0:0:0:0:
402,192,140666,1,0,0:0:0:0:
182,192,140750,1,0,0:0:0:0:
329,192,140750,1,0,0:0:0:0:
36,192,140833,1,0,0:0:0:0:
475,192,140833,1,0,0:0:0:0:
256,192,140916,1,0,0:0:0:0:
182,192,141000,1,0,0:0:0:0:
402,192,141000,1,0,0:0:0:0:
36,192,141083,1,0,0:0:0:0:
256,192,141083,1,0,0:0:0:0:
109,192,141166,1,0,0:0:0:0:
329,192,141166,1,0,0:0:0:0:
36,192,141250,1,0,0:0:0:0:
256,192,141250,1,0,0:0:0:0:
329,192,141333,1,0,0:0:0:0:
475,192,141333,1,0,0:0:0:0:
36,192,141416,1,0,0:0:0:0:
256,192,141416,1,0,0:0:0:0:
109,192,141500,1,0,0:0:0:0:
329,192,141500,1,0,0:0:0:0:
182,192,141583,1,0,0:0:0:0:
402,192,141583,1,0,0:0:0:0:
329,192,141666,1,0,0:0:0:0:
475,192,141666,1,0,0:0:0:0:
36,192,141750,1,0,0:0:0:0:
256,192,141750,1,0,0:0:0:0:
109,192,141833,1,0,0:0:0:0:
329,192,141833,1,0,0:0:0:0:
182,192,141916,1,0,0:0:0:0:
402,192,141916,1,0,0:0:0:0:
36,192,142000,1,0,0:0:0:0:
329,192,142000,1,0,0:0:0:0:
256,192,142083,1,0,0:0:0:0:
109,192,142166,1,0,0:0:0:0:
402,192,142166,1,0,0:0:0:0:
182,192,142250,1,0,0:0:0:0:
36,192,142333,1,0,0:0:0:0:
329,192,142333,1,0,0:0:0:0:
256,192,142416,1,0,0:0:0:0:
109,192,142500,1,0,0:0:0:0:
402,192,142500,1,0,0:0:0:0:
182,192,142583,1,0,0:0:0:0:
36,192,142666,1,0,0:0:0:0:
475,192,142666,1,0,0:0:0:0:
329,192,142750,1,0,0:0:0:0:
109,192,142833,1,0,0:0:0:0:
402,192,142833,1,0,0:0:0:0:
256,192,142916,1,0,0:0:0:0:
36,192,143000,1,0,0:0:0:0:
329,192,143000,1,0,0:0:0:0:
182,192,143083,1,0,0:0:0:0:
256,192,143166,1,0,0:0:0:0:
475,192,143166,1,0,0:0:0:0:
109,192,143250,1,0,0:0:0:0:
36,192,143333,1,0,0:0:0:0:
402,192,143333,1,0,0:0:0:0:
256,192,143416,1,0,0:0:0:0:
329,192,143500,1,0,0:0:0:0:
475,192,143500,1,0,0:0:0:0:
182,192,143583,1,0,0:0:0:0:
402,192,143583,1,0,0:0:0:0:
36,192,143666,1,0,0:0:0:0:
256,192,143666,1,0,0:0:0:0:
475,192,143666,1,0,0:0:0:0:
109,192,143750,1,0,0:0:0:0:
329,192,143750,1,0,0:0:0:0:
182,192,143833,1,0,0:0:0:0:
475,192,143833,1,0,0:0:0:0:
36,192,143916,1,0,0:0:0:0:
329,192,143916,1,0,0:0:0:0:
