osu file format v5

[General]
AudioFilename: As in the first place.mp3
AudioLeadIn: 0
PreviewTime: -1
Countdown: 3
SampleSet: Normal
StackLeniency: 0.6
Mode: 0
LetterboxInBreaks: 1

[Metadata]
Title:Like The First Time
Artist:SG WannaBe
Creator:Crazy Jay
Version:Hard
Source:
Tags:

[Difficulty]
HPDrainRate:8
CircleSize:5
OverallDifficulty:5
SliderMultiplier:1.4
SliderTickRate:2

[Events]
//Background and Video events
0,0,"sg.JPG"
//Break Periods
2,62564,74089
2,140590,152645
2,189634,192558
//Storyboard Layer 0 (Background)
//Storyboard Layer 1 (Failing)
//Storyboard Layer 2 (Passing)
//Storyboard Layer 3 (Foreground)
//Storyboard Sound Samples
//Background Colour Transformations
3,100,163,162,255

[TimingPoints]
11230,1043.47826086957,4,2,0,100,1,0
27143,-50,4,1,0,100,0,0
42795,-50,4,2,0,100,0,0
44632,-50,4,1,0,100,0,0
88186,-50,4,2,0,100,0,0
90795,-50,4,1,0,100,0,0
155230,-50,4,2,0,100,0,0
155360,-50,4,1,0,100,0,0
189534,-50,4,2,0,0,0,0

[Colours]
Combo1 : 121,121,121
Combo2 : 86,171,171
Combo3 : 173,90,90
Combo4 : 128,0,255

[HitObjects]
89,266,11229,1,2
124,266,11490,1,0
158,266,11751,1,0
176,236,12012,1,0
170,201,12273,1,2
152,170,12534,1,0
122,150,12795,1,2
79,205,13316,5,2
93,236,13577,1,0
111,265,13838,1,0
143,280,14099,1,0
177,281,14360,1,2
211,273,14621,1,0
244,261,14882,1,2
417,201,15403,5,2
429,233,15664,1,0
413,264,15925,1,0
378,268,16186,1,0
345,255,16447,1,2
341,220,16708,1,0
308,207,16969,1,2
276,271,17490,5,2
241,269,17751,1,0
206,264,18012,1,0
175,240,18273,1,0
150,215,18534,1,2
150,215,18795,1,0
150,215,19056,1,2
122,150,19577,5,2
133,116,19838,1,0
160,94,20099,1,0
191,79,20360,2,2,B|227:65|260:87,1,70
317,122,21403,5,2
317,122,21553,1,0
317,122,21695,1,2
343,144,21925,1,0
366,171,22186,2,0,B|398:210,1,35,2|0
406,228,22708,1,0
414,261,22969,1,0
391,287,23230,1,2
338,240,23751,5,2
327,206,24012,1,0
312,174,24273,1,0
298,141,24534,1,0
298,141,24795,1,2
298,141,25056,1,0
261,156,25316,5,2
229,171,25577,1,0
200,190,25838,1,2
171,210,26099,1,2
189,239,26360,1,2
203,270,26621,1,2
68,300,27143,5,0
68,300,27403,1,8
208,300,27925,5,2
207,160,28447,2,0,B|207:77,2,70,8|0|8
207,230,29230,1,0
277,231,29490,1,8
276,160,29751,2,0,B|348:96,3,70,0|2|2|2
398,116,30795,1,2
397,255,31316,1,8
326,255,31577,1,8
186,256,32099,6,0,B|116:229|92:144,1,140,2|8
91,85,32882,1,0
160,85,33143,2,0,B|252:84,2,70,8|0|8
162,155,33925,1,0
92,155,34186,1,2
92,155,34447,1,2
92,225,34708,2,2,B|92:298,1,70
213,225,35490,1,8
213,225,35751,1,8
356,225,36273,5,2
352,84,36795,2,0,B|353:176,1,70,8|0
352,84,37316,1,8
281,82,37577,1,0
281,152,37838,2,0,B|281:252,4,70,8|0|2|2|2
281,81,39143,1,2
140,81,39664,2,8,B|215:81,1,70
69,84,40447,6,0,B|35:135|68:212|135:203,1,140,2|8
170,220,41230,1,0
240,221,41490,1,8
237,291,41751,2,0,B|325:291,1,70,0|2
377,291,42273,2,2,B|377:202,1,70
256,192,42795,12,4,44621
160,128,44882,5,0
230,128,45143,1,0
300,128,45403,2,0,B|356:130|374:168,3,70
418,195,46447,1,0
453,255,46708,5,8
399,299,46969,1,0
336,333,47230,1,2
265,333,47490,2,0,B|180:333,1,70
195,262,48012,1,0
193,191,48273,2,0,B|106:191,1,70,2|0
124,261,48795,1,0
124,261,49056,1,0
53,259,49316,1,2
53,259,49577,1,0
52,189,49838,6,0,B|51:108,1,70,0|2
114,88,50360,1,2
183,80,50621,1,8
255,81,50882,1,0
311,122,51143,2,0,B|322:160|281:203,2,70,0|2|0
319,52,51925,1,0
388,58,52186,2,0,B|428:92|418:146,3,70,0|2|0|0
426,187,53230,1,0
362,217,53490,1,2
343,284,53751,1,0
202,283,54273,5,2
131,283,54534,1,2
76,239,54795,2,0,B|50:193|65:156,3,70,0|0|0|2
55,102,55838,1,0
189,62,56360,6,0,B|268:60,1,70,0|2
189,62,56882,1,0
191,132,57143,1,0
194,201,57403,1,0
200,270,57664,2,2,B|210:321|263:325,1,70,2|0
373,270,58447,1,2
373,270,58708,1,2
267,177,59230,6,0,B|207:116,1,70
147,127,59751,1,0
147,127,60012,1,0
15,290,60795,6,0,B|95:254,1,70,8|0
143,232,61316,1,8
212,237,61577,1,0
273,270,61838,1,8
329,311,62099,1,8
392,341,62360,1,8
416,96,75143,5,0
416,96,75403,1,8
417,236,75925,6,0,B|407:308|301:306,1,140,2|8
241,303,76708,2,0,B|193:295|178:259,2,70,0|8|0
255,234,77490,1,8
315,198,77751,1,0
384,188,78012,2,2,B|385:105,3,70
249,84,79316,1,8
249,84,79577,1,8
109,89,80099,5,2
64,221,80621,1,8
133,224,80882,2,0,B|212:231,4,70,0|8|0|8|0
138,154,82186,1,2
192,109,82447,1,2
260,93,82708,2,2,B|318:111|328:165,1,70
260,261,83490,1,8
189,260,83751,1,8
77,344,84273,6,0,B|96:184,1,140,2|8
163,204,85056,1,0
232,197,85316,1,8
302,198,85577,2,0,B|365:193|391:236,1,70,0|8
367,282,86099,1,0
369,211,86360,1,2
369,140,86621,2,2,B|447:140,1,70
369,140,87143,1,2
275,35,87664,1,8
275,35,87925,1,8
256,192,88186,12,4,90534
96,96,90795,5,0
97,165,91056,2,0,B|143:236,1,70
67,243,91577,1,0
115,293,91838,1,0
184,287,92099,1,0
244,251,92360,1,0
218,185,92621,5,8
153,158,92882,1,0
94,119,93143,1,2
149,75,93403,2,0,B|231:36,2,70
177,138,94186,1,2
127,187,94447,1,0
181,230,94708,1,0
127,187,94969,1,0
77,137,95230,1,2
138,103,95490,6,0,B|213:68,3,70,0|0|2|2
271,69,96534,2,0,B|368:73|388:150,1,140,8|0
393,205,97316,1,2
396,274,97577,5,0
333,304,97838,2,0,B|261:324|244:307,3,70,0|0|2|0
254,245,98882,2,0,B|239:159,1,70
254,245,99403,1,2
184,240,99664,1,2
107,122,100186,5,2
87,189,100447,1,2
85,258,100708,2,0,B|136:318|215:314,2,140,8|0|0
193,168,102273,6,0,B|265:199,2,70
130,137,103056,1,8
66,106,103316,2,0,B|46:21,2,70
101,241,104360,2,8,B|124:317,1,70
261,313,105143,6,0,B|361:312,1,70
330,242,105664,2,0,B|248:242,1,70
262,171,106186,2,0,B|342:171,1,70
402,173,106708,1,0
402,173,106969,1,0
400,102,107230,5,0
330,102,107490,2,0,B|278:100|252:50,2,70
268,73,108273,1,0
213,29,108534,1,0
144,44,108795,1,0
90,89,109056,1,0
63,153,109316,5,8
132,154,109577,2,0,B|212:158|211:195,1,70,0|2
220,237,110099,1,0
287,256,110360,2,0,B|338:269|380:242,2,70,0|0|2
287,185,111143,1,0
356,184,111403,1,0
425,190,111664,6,0,B|448:225|434:291,3,70,0|2|0|0
399,315,112708,1,2
331,334,112969,1,2
261,338,113230,6,0,B|188:320|175:222,1,140,8|0
107,245,114012,1,0
70,185,114273,1,0
70,185,114434,1,0
70,185,114564,1,0
109,126,114795,1,0
177,140,115056,1,0
234,180,115316,2,2,B|281:216|368:184|359:93|311:35|229:72,1,280
351,145,116882,5,0
280,142,117143,1,0
221,180,117403,2,0,B|140:195|76:119,2,140,8|0|0
129,286,118969,6,8,B|51:351,2,70
181,239,119751,2,0,B|249:175,1,70
180,143,120273,1,2
120,106,120534,1,2
260,106,121056,1,8
260,106,121316,1,8
201,240,121838,6,0,B|176:272|132:267,2,70
158,138,122621,2,0,B|208:134|258:100|223:13,1,140
280,115,123403,1,8
280,115,123664,1,8
282,254,124186,5,8
282,254,124447,1,8
141,255,124969,5,0
209,243,125230,6,0,B|279:214|280:174,2,70
279,243,126012,1,0
349,241,126273,1,0
419,241,126534,1,0
349,241,126795,1,0
349,100,127316,6,0,B|349:28,2,70
206,97,128360,2,2,B|152:97|113:124|95:181,1,140
92,310,129403,5,0
92,310,129564,1,0
92,310,129695,1,0
162,311,129925,2,2,B|344:341|429:196,2,280
447,2,133577,5,0
405,58,133838,1,0
355,107,134099,2,2,B|277:172|202:152,1,140
158,148,134882,1,0
158,148,135143,1,0
158,288,135664,6,2,B|156:207,2,70,2|0|2
228,287,136447,1,0
298,284,136708,2,2,B|383:284,2,70,2|0|2
259,149,137751,1,0
259,149,138012,1,0
256,192,138273,12,0,140360
256,192,153664,12,4,155230
185,288,155490,5,0
117,267,155751,1,0
66,218,156012,2,0,B|45:160|57:137,4,70
134,200,157316,1,0
203,198,157577,1,0
271,211,157838,6,0,B|360:221|363:196,2,70
268,140,158621,1,0
268,140,158882,1,0
268,140,159143,1,0
337,141,159403,5,8
416,256,159925,2,0,B|356:305|343:291,1,70,2|0
416,256,160447,1,0
368,204,160708,1,0
316,156,160969,2,0,B|336:97|309:69,2,70,2|0|0
260,198,161751,1,0
192,179,162012,1,2
210,111,162273,5,0
140,105,162534,2,0,B|100:119|89:192,1,70,0|2
113,225,163056,1,2
164,271,163316,2,0,B|223:307|332:300,1,140,8|0
298,230,164099,1,2
243,186,164360,5,0
188,141,164621,2,0,B|164:111|184:59,4,70,0|0|2|0|0
257,130,165925,1,0
188,142,166186,1,2
131,183,166447,1,0
221,290,166969,6,2,B|231:195,2,70,2|2|8
291,288,167751,1,0
361,286,168012,2,0,B|372:204,2,70,0|2|0
300,159,169056,5,0
300,159,169316,1,2
300,159,169577,1,0
229,159,169838,1,0
159,160,170099,2,0,B|148:254,2,70,0|2|0
264,252,171143,1,2
320,293,171403,1,2
365,153,171925,6,0,B|364:72,2,70
367,223,172708,2,0,B|370:313,2,70
296,223,173490,2,0,B|294:131,1,70
233,118,174012,5,0
235,188,174273,1,0
233,118,174534,1,0
235,188,174795,1,0
238,257,175056,1,0
167,259,175316,1,0
111,216,175577,1,0
162,167,175838,1,0
168,97,176099,6,0,B|238:68|313:125,1,140,8|2
347,168,176882,1,0
279,185,177143,2,0,B|205:218|220:302,1,140,0|2
280,334,177925,1,0
349,327,178186,6,0,B|368:280|330:233,3,70,0|0|2|0
322,193,179230,1,0
251,195,179490,2,0,B|160:198,1,70
127,152,180012,6,2,B|111:64|219:74,1,140
265,206,181056,2,0,B|302:170,2,35
209,248,181577,1,0
141,265,181838,1,0
71,256,182099,2,2,B|30:217|36:123|67:109,2,140
195,320,183664,6,0,B|195:247,2,70
121,200,184708,2,2,B|188:156|272:206,1,140
235,128,185490,1,0
176,89,185751,6,0,B|147:64|99:62,2,70
299,154,186795,2,2,B|382:212,2,70
158,155,187838,1,8
158,155,188099,1,8
256,55,188621,5,0
320,128,188882,1,0
256,192,189143,1,0
192,128,189403,1,0
256,192,193577,12,0,196447
