osu file format v14

[General]
AudioFilename: SEVENTEEN - Dont Wanna Cry.mp3
AudioLeadIn: 2000
PreviewTime: 55677
Countdown: 0
SampleSet: Soft
StackLeniency: 0.5
Mode: 0
LetterboxInBreaks: 0
WidescreenStoryboard: 0

[Editor]
Bookmarks: 102,9702,19302,28902,38502,48102,60102,79302,88902,98502,108102,117702,136902,146502,160902,180702,199302
DistanceSpacing: 1
BeatDivisor: 4
GridSize: 4
TimelineZoom: 0.9

[Metadata]
Title:Don't Wanna Cry
TitleUnicode:울고 싶지 않아
Artist:SEVENTEEN
ArtistUnicode:세븐틴
Creator:Euny
Version:Natsu's Normal
Source:
Tags:My_Angel_RangE MARE Natsu PLEDIS ENTERTAINMENT 세븐틴 에스.쿱스 S.COUPS 우지 WOOZI 호시 HOSHI 민규 MINGYU 원우 WONWOO 버논 VERNON 승관 SEUNGKWAN 디노 DINO 준 JUN 도경 DK 조슈아 JOSHUA 정한 JEONGHAN 디에잇 THE8
BeatmapID:1371319
BeatmapSetID:618466

[Difficulty]
HPDrainRate:4
CircleSize:4
OverallDifficulty:4
ApproachRate:5
SliderMultiplier:1.75
SliderTickRate:1

[Events]
//Background and Video events
Video,0,"Don't+Wanna+Cry.avi"
0,0,"bg111.jpg",0,0
//Break Periods
2,9902,17502
2,55202,58302
2,79502,88302
2,156302,159102
//Storyboard Layer 0 (Background)
//Storyboard Layer 1 (Fail)
//Storyboard Layer 2 (Pass)
//Storyboard Layer 3 (Foreground)
//Storyboard Sound Samples

[TimingPoints]
102,600,4,2,55,30,1,0
102,-100,4,2,55,30,0,0
19302,-100,4,2,5,50,0,0
28902,-100,4,2,5,50,0,0
38502,-100,4,2,5,60,0,0
48102,-100,4,2,5,60,0,0
59502,-100,4,2,5,70,0,0
60102,-100,4,2,5,70,0,1
60702,-100,4,2,5,70,0,0
69702,-100,4,2,5,70,0,1
70302,-100,4,2,5,70,0,0
78777,-100,4,2,5,5,0,0
78852,-100,4,2,5,70,0,0
78927,-100,4,2,5,5,0,0
79002,-100,4,2,5,70,0,0
79077,-100,4,2,5,5,0,0
79152,-100,4,2,5,70,0,0
79227,-100,4,2,5,5,0,0
79302,-100,4,2,5,33,0,0
79902,-100,4,2,5,40,0,0
88902,-100,4,2,55,40,0,0
89502,-100,4,2,5,40,0,0
90102,-100,4,2,55,40,0,0
90702,-100,4,2,5,40,0,0
91302,-100,4,2,55,40,0,0
91902,-100,4,2,5,40,0,0
93102,-100,4,2,5,40,0,0
93702,-100,4,2,55,40,0,0
94302,-100,4,2,5,40,0,0
94902,-100,4,2,55,40,0,0
95502,-100,4,2,5,40,0,0
96102,-100,4,2,55,40,0,0
96702,-100,4,2,5,40,0,0
98502,-100,4,2,5,60,0,0
108102,-100,4,2,5,60,0,0
117102,-100,4,2,5,60,0,0
117702,-100,4,2,5,70,0,1
118302,-100,4,2,5,70,0,0
127302,-100,4,2,5,70,0,1
127902,-100,4,2,5,70,0,0
136377,-100,4,2,5,5,0,0
136452,-100,4,2,5,70,0,0
136527,-100,4,2,5,5,0,0
136602,-100,4,2,5,70,0,0
136677,-100,4,2,5,5,0,0
136752,-100,4,2,5,70,0,0
136827,-100,4,2,5,5,0,0
136902,-100,4,2,5,70,0,1
137502,-100,4,2,55,70,0,1
137802,-100,4,2,5,70,0,1
137877,-100,4,2,55,70,0,1
138102,-100,4,2,5,70,0,0
138777,-100,4,2,55,70,0,0
139002,-100,4,2,5,70,0,0
139452,-100,4,2,5,70,0,0
139902,-100,4,2,55,70,0,0
140202,-100,4,2,5,70,0,0
141102,-100,4,2,55,70,0,0
142602,-100,4,2,5,70,0,0
143577,-100,4,2,55,70,0,0
144102,-100,4,2,5,70,0,0
144777,-100,4,2,55,70,0,0
145002,-100,4,2,5,70,0,0
145902,-100,4,2,55,70,0,0
146502,-100,4,2,55,50,0,0
148602,-100,4,2,5,50,0,0
148902,-100,4,2,55,50,0,0
149052,-100,4,2,5,50,0,0
149502,-100,4,2,55,50,0,0
149802,-100,4,2,5,50,0,0
150102,-100,4,2,55,50,0,0
150252,-100,4,2,5,50,0,0
151302,-100,4,2,5,70,0,0
156102,-100,4,2,55,70,0,0
160302,-100,4,2,5,70,0,0
160902,-100,4,2,5,70,0,1
161502,-100,4,2,5,70,0,0
170502,-100,4,2,5,70,0,1
171102,-100,4,2,5,70,0,0
180102,-100,4,2,55,70,0,0
180702,-100,4,2,5,70,0,1
181302,-100,4,2,5,70,0,0
189702,-100,4,2,5,70,0,1
190302,-100,4,2,5,70,0,0
199302,-100,4,2,55,70,0,0

[Colours]
Combo1 : 150,45,255
Combo2 : 255,0,128
Combo3 : 255,187,221
Combo4 : 255,249,252
Combo5 : 141,141,141
Combo6 : 208,162,255
SliderBorder : 255,187,221
SliderTrackOverride : 0,0,94

[HitObjects]
55,61,102,37,2,0:0:0:0:
55,61,702,1,0,0:0:0:0:
55,61,1302,1,0,0:0:0:0:
55,61,1902,1,0,0:0:0:0:
240,98,2502,5,0,0:0:0:0:
240,98,3102,1,0,0:0:0:0:
240,98,3702,1,0,0:0:0:0:
240,98,4302,2,0,L|225:187,1,87.5,2|0,0:0|0:0,0:0:0:0:
217,286,4902,69,2,0:0:0:0:
217,286,5502,1,0,0:0:0:0:
217,286,6102,1,0,0:0:0:0:
217,286,6702,1,0,0:0:0:0:
217,286,7302,1,0,0:0:0:0:
398,252,7902,6,0,P|410:210|401:168,1,87.5,0|0,0:0|0:0,0:0:0:0:
319,140,8502,2,0,P|309:97|322:56,1,87.5,0|0,0:0|0:0,0:0:0:0:
398,12,9102,1,2,0:0:0:0:
227,52,9702,69,2,0:0:0:0:
130,339,18702,86,0,L|113:232,1,87.5,0|0,0:0|0:0,0:0:0:0:
37,215,19302,6,0,P|106:167|184:197,1,175,4|2,0:1|0:0,0:0:0:0:
116,253,20202,1,0,0:0:0:0:
37,289,20502,2,0,P|105:338|184:308,1,175,0|2,0:0|0:0,0:0:0:0:
314,190,21702,70,0,L|297:90,2,87.5,0|0|2,0:0|0:0|0:0,0:0:0:0:
400,178,22602,2,0,L|417:277,1,87.5,0|0,0:0|0:0,0:0:0:0:
264,355,23502,2,0,P|221:366|179:358,1,87.5,2|0,0:0|0:0,0:0:0:0:
142,278,24102,6,0,P|93:209|124:131,1,175,0|2,0:0|0:0,0:0:0:0:
180,199,25002,1,0,0:0:0:0:
235,131,25302,2,0,P|266:208|217:277,1,175,0|2,0:0|0:0,0:0:0:0:
41,276,26502,70,0,P|-8:207|23:129,2,175,0|2|0,0:0|0:0|0:0,0:0:0:0:
125,299,28002,1,0,0:0:0:0:
201,341,28302,2,0,P|209:296|192:250,1,87.5,2|0,0:0|0:0,0:0:0:0:
143,208,28902,5,0,0:0:0:0:
143,208,29502,1,2,0:0:0:0:
143,208,30102,1,0,0:0:0:0:
143,208,30702,1,2,0:0:0:0:
313,170,31302,69,0,0:0:0:0:
313,170,31902,2,0,P|349:241|309:327,1,175,2|0,0:0|0:0,0:0:0:0:
141,357,33102,2,0,L|31:357,1,87.5,2|0,0:0|0:0,0:0:0:0:
28,283,33702,5,0,0:0:0:0:
28,283,34302,1,2,0:0:0:0:
28,283,34902,2,0,P|-7:186|34:114,2,175,0|2|0,0:0|0:0|0:0,0:0:0:0:
109,314,36402,1,0,0:0:0:0:
183,268,36702,70,0,L|194:387,1,87.5,2|0,0:0|0:0,0:0:0:0:
274,330,37302,2,0,L|265:242,1,87.5,0|0,0:0|0:0,0:0:0:0:
252,156,37902,1,2,0:0:0:0:
92,83,38502,38,0,B|80:147|80:147|99:184|99:184|84:270,1,175,4|4,0:0|0:3,0:0:0:0:
72,337,39402,1,4,0:3:0:0:
153,305,39702,2,0,P|216:283|296:314,1,131.25,2|4,0:3|0:3,0:0:0:0:
317,315,40302,2,0,L|331:221,1,87.5,4|4,0:3|0:3,0:0:0:0:
287,151,40902,70,0,P|224:173|144:142,1,131.25,4|4,0:3|0:3,0:0:0:0:
123,141,41502,2,0,L|109:235,1,87.5,4|4,0:3|0:3,0:0:0:0:
153,305,42102,2,0,P|216:283|296:314,1,131.25,4|4,0:3|0:3,0:0:0:0:
317,315,42702,2,0,L|331:221,1,87.5,4|4,0:3|0:3,0:0:0:0:
409,192,43302,6,0,L|431:48,1,131.25,4|4,0:1|0:3,0:0:0:0:
388,45,43902,2,0,P|344:56|300:44,1,87.5,4|4,0:3|0:3,0:0:0:0:
218,25,44502,2,0,B|206:89|206:89|225:126|225:126|210:212,1,175,2|4,0:3|0:3,0:0:0:0:
200,279,45402,1,2,0:3:0:0:
280,245,45702,70,0,P|340:228|411:250,1,131.25,4|4,0:3|0:3,0:0:0:0:
440,271,46302,2,0,L|453:362,2,87.5,4|4|0,0:3|0:3|0:0,0:0:0:0:
494,201,47202,1,0,0:0:0:0:
406,193,47502,2,0,P|364:206|316:194,1,87.5,4|4,0:3|0:3,0:0:0:0:
243,158,48102,6,0,B|231:261,1,87.5,4|8,0:2|0:0,0:0:0:0:
146,259,48702,2,0,B|156:172,1,87.5,8|8,0:0|0:0,0:0:0:0:
173,86,49302,1,8,0:0:0:0:
303,202,49902,1,8,0:0:0:0:
345,125,50202,1,8,0:0:0:0:
383,203,50502,70,0,P|423:216|466:207,1,87.5,8|8,0:0|0:0,0:0:0:0:
428,129,51102,2,0,P|387:115|344:124,1,87.5,8|8,0:0|0:0,0:0:0:0:
276,178,51702,1,8,0:0:0:0:
178,32,52302,1,8,0:0:0:0:
146,113,52602,1,8,0:0:0:0:
232,103,52902,22,0,P|289:85|372:111,1,131.25,8|8,0:0|0:0,0:0:0:0:
359,145,53502,2,0,P|301:162|219:137,1,131.25,8|8,0:0|0:0,0:0:0:0:
204,113,54102,2,0,P|141:97|78:114,1,131.25,8|8,0:0|0:0,0:0:0:0:
48,146,54702,2,0,L|58:263,1,87.5,8|8,0:0|0:0,0:0:0:0:
143,70,59502,5,8,0:1:0:0:
143,70,60102,70,0,P|129:110|145:161,1,87.5,4|0,0:0|0:0,0:0:0:0:
219,115,60702,2,0,L|289:115,2,43.75,10|10|10,0:0|0:0|0:0,0:0:0:0:
148,73,61302,1,8,0:0:0:0:
148,73,61902,5,8,0:0:0:0:
111,152,62202,1,8,0:0:0:0:
78,233,62502,1,0,0:0:0:0:
78,233,63102,69,8,0:0:0:0:
154,274,63402,2,0,P|141:316|154:356,2,87.5,8|0|0,0:0|0:0|0:0,0:0:0:0:
232,313,64302,2,0,B|275:319|275:319|311:307|311:307|369:312,1,131.25,10|10,0:0|0:0,0:0:0:0:
409,317,64902,5,4,0:1:0:0:
409,317,65502,2,0,L|419:360,2,43.75,10|10|10,0:0|0:0|0:0,0:0:0:0:
384,237,66102,1,8,0:0:0:0:
384,237,66702,69,8,0:0:0:0:
298,216,67002,1,0,0:0:0:0:
214,200,67302,1,8,0:0:0:0:
214,200,67902,5,8,0:0:0:0:
152,138,68202,2,0,P|137:97|148:56,2,87.5,8|2|6,0:0|0:0|0:3,0:0:0:0:
228,96,69102,2,0,B|271:90|271:90|307:102|307:102|365:97,1,131.25,10|10,0:0|0:0,0:0:0:0:
398,78,69702,69,4,0:1:0:0:
398,78,70302,2,0,L|404:4,2,43.75,10|10|10,0:0|0:0|0:0,0:0:0:0:
381,165,70902,1,8,0:0:0:0:
381,165,71502,5,8,0:0:0:0:
294,177,71802,1,0,0:0:0:0:
210,192,72102,1,8,0:0:0:0:
210,192,72702,69,0,0:0:0:0:
260,263,73002,2,0,P|273:301|256:352,2,87.5,8|2|2,0:0|0:0|0:0,0:0:0:0:
178,296,73902,2,0,B|135:290|135:290|99:302|99:302|41:297,1,131.25,10|10,0:0|0:0,0:0:0:0:
11,290,74502,5,4,0:1:0:0:
11,290,75102,2,0,L|3:351,2,43.75,10|10|10,0:0|0:0|0:0,0:0:0:0:
23,206,75702,1,8,0:0:0:0:
23,206,76302,69,8,0:0:0:0:
109,195,76602,1,0,0:0:0:0:
200,188,76902,1,8,0:0:0:0:
200,188,77502,5,8,0:0:0:0:
267,243,77802,2,0,B|354:280|354:206|435:242,1,175,2|4,0:0|0:3,0:0:0:0:
506,191,78702,2,0,B|512:148|512:148|500:112|500:112|505:54,1,131.25,10|10,0:0|0:0,0:0:0:0:
502,18,79302,69,4,0:1:0:0:
113,232,89502,22,0,L|97:326,2,87.5,2|0|2,0:0|0:0|0:0,0:0:0:0:
87,147,90402,2,0,P|128:141|184:177,1,87.5,2|2,0:0|0:0,0:0:0:0:
168,159,91902,6,0,L|175:60,2,87.5,2|2|0,0:0|0:0|0:0,0:0:0:0:
110,225,92802,2,0,P|159:248|235:213,2,131.25,0|0|2,0:0|0:0|0:0,0:0:0:0:
232,99,94302,70,0,P|276:87|333:106,2,87.5,2|0|2,0:0|0:0|0:0,0:0:0:0:
149,129,95202,2,0,L|142:23,1,87.5,2|2,0:0|0:0,0:0:0:0:
26,172,96102,6,0,L|33:312,2,131.25,2|0|0,0:0|0:0|0:0,0:0:0:0:
180,254,97602,2,0,P|229:311|278:241,1,175,0|0,0:0|0:0,0:0:0:0:
227,181,98502,22,0,B|215:117|215:117|234:80|234:80|219:-6,1,175,4|4,0:0|0:3,0:0:0:0:
308,27,99402,1,4,0:3:0:0:
329,111,99702,2,0,P|392:133|472:102,1,131.25,2|4,0:3|0:3,0:0:0:0:
493,101,100302,2,0,L|477:195,1,87.5,4|4,0:3|0:3,0:0:0:0:
454,271,100902,70,0,P|391:249|311:280,1,131.25,4|4,0:3|0:3,0:0:0:0:
290,281,101502,2,0,L|306:187,1,87.5,4|4,0:3|0:3,0:0:0:0:
230,147,102102,2,0,L|202:292,1,131.25,4|4,0:3|0:3,0:0:0:0:
193,318,102702,2,0,P|149:307|102:318,1,87.5,4|4,0:3|0:3,0:0:0:0:
21,330,103302,6,0,L|49:185,1,131.25,4|4,0:1|0:3,0:0:0:0:
58,159,103902,2,0,P|102:170|149:159,1,87.5,4|4,0:3|0:3,0:0:0:0:
226,138,104502,2,0,B|214:202|214:202|233:239|233:239|218:325,1,175,2|4,0:3|0:3,0:0:0:0:
273,376,105402,1,2,0:3:0:0:
303,294,105702,70,0,P|363:277|434:299,1,131.25,4|4,0:3|0:3,0:0:0:0:
471,298,106302,2,0,L|484:389,2,87.5,4|4|0,0:3|0:3|0:0,0:0:0:0:
458,211,107202,1,0,0:0:0:0:
493,131,107502,2,0,P|450:122|409:135,1,87.5,4|4,0:3|0:3,0:0:0:0:
345,196,108102,6,0,L|318:289,1,87.5,4|8,0:2|0:0,0:0:0:0:
257,340,108702,2,0,L|232:255,1,87.5,8|8,0:0|0:0,0:0:0:0:
205,172,109302,1,8,0:0:0:0:
133,331,109902,1,8,0:0:0:0:
100,249,110202,1,8,0:0:0:0:
184,264,110502,70,0,P|227:274|269:263,1,87.5,8|8,0:0|0:0,0:0:0:0:
346,221,111102,2,0,P|388:210|430:219,1,87.5,8|8,0:0|0:0,0:0:0:0:
494,279,111702,1,8,0:0:0:0:
508,104,112302,1,8,0:0:0:0:
425,132,112602,1,8,0:0:0:0:
339,112,112902,22,0,P|282:94|199:120,1,131.25,8|8,0:0|0:0,0:0:0:0:
212,154,113502,2,0,P|270:171|352:146,1,131.25,8|8,0:0|0:0,0:0:0:0:
379,142,114102,2,0,P|363:205|380:268,1,131.25,8|8,0:0|0:0,0:0:0:0:
391,309,114702,2,0,P|349:296|307:306,1,87.5,8|8,0:0|0:0,0:0:0:0:
307,306,117102,5,8,0:1:0:0:
307,306,117702,70,0,P|321:266|305:215,1,87.5,4|0,0:0|0:0,0:0:0:0:
231,261,118302,2,0,L|161:261,2,43.75,10|10|10,0:0|0:0|0:0,0:0:0:0:
316,228,118902,1,8,0:0:0:0:
316,228,119502,5,8,0:0:0:0:
279,149,119802,1,0,0:0:0:0:
247,73,120102,1,8,0:0:0:0:
247,73,120702,69,8,0:0:0:0:
192,141,121002,2,0,P|150:154|110:141,2,87.5,0|2|2,0:0|0:0|0:0,0:0:0:0:
278,155,121902,2,0,B|272:198|272:198|284:234|284:234|279:292,1,131.25,10|10,0:0|0:0,0:0:0:0:
278,332,122502,5,4,0:1:0:0:
278,332,123102,2,0,L|223:338,2,43.75,10|10|10,0:0|0:0|0:0,0:0:0:0:
368,323,123702,1,8,0:0:0:0:
368,323,124302,69,8,0:0:0:0:
388,237,124602,1,8,0:0:0:0:
405,153,124902,1,8,0:0:0:0:
405,153,125502,5,8,0:0:0:0:
360,77,125802,2,0,P|401:62|442:73,2,87.5,8|2|6,0:0|0:0|0:3,0:0:0:0:
314,151,126702,2,0,B|271:157|271:157|235:145|235:145|177:150,1,131.25,10|10,0:0|0:0,0:0:0:0:
151,176,127302,69,4,0:1:0:0:
151,176,127902,2,0,L|145:250,2,43.75,10|10|10,0:0|0:0|0:0,0:0:0:0:
165,92,128502,1,8,0:0:0:0:
165,92,129102,5,8,0:0:0:0:
252,80,129402,1,0,0:0:0:0:
339,63,129702,1,8,0:0:0:0:
339,63,130302,69,0,0:0:0:0:
389,134,130602,2,0,P|402:172|385:223,2,87.5,8|2|2,0:0|0:0|0:0,0:0:0:0:
311,175,131502,2,0,B|268:181|268:181|232:169|232:169|174:174,1,131.25,10|10,0:0|0:0,0:0:0:0:
142,183,132102,5,4,0:1:0:0:
142,183,132702,2,0,L|134:122,2,43.75,10|10|10,0:0|0:0|0:0,0:0:0:0:
156,275,133302,1,8,0:0:0:0:
156,275,133902,69,8,0:0:0:0:
242,264,134202,1,0,0:0:0:0:
333,257,134502,1,8,0:0:0:0:
333,257,135102,5,8,0:0:0:0:
276,190,135402,2,0,B|239:103|313:103|277:22,1,175,2|4,0:0|0:3,0:0:0:0:
198,61,136302,2,0,B|155:67|155:67|119:55|119:55|61:60,1,131.25,10|10,0:0|0:0,0:0:0:0:
28,72,136902,54,0,P|47:127|24:196,1,131.25,4|0,0:0|0:0,0:0:0:0:
56,228,137502,2,0,L|144:228,1,87.5,2|2,0:0|0:3,0:0:0:0:
212,173,138102,2,0,P|235:233|203:291,1,131.25,2|0,0:0|0:0,0:0:0:0:
175,321,138702,2,0,L|320:321,1,131.25,0|0,0:0|0:0,0:0:0:0:
354,323,139302,69,4,0:1:0:0:
354,323,139902,2,0,P|334:249|356:203,1,131.25,2|0,0:0|0:0,0:0:0:0:
373,161,140502,2,0,L|266:161,1,87.5,2|0,0:0|0:0,0:0:0:0:
198,169,141102,2,0,P|218:243|196:289,1,131.25,2|2,0:0|0:0,0:0:0:0:
162,318,141702,5,4,0:1:0:0:
242,353,142002,2,0,B|360:407|355:292|502:354,1,262.5
496,263,143202,2,0,B|398:231|334:269|334:269|316:215,1,218.75,0|0,0:0|0:0,0:0:0:0:
297,182,144102,70,0,L|238:193,2,43.75,4|0|0,0:1|0:0|0:0,0:0:0:0:
425,63,145002,2,0,L|484:52,2,43.75,2|0|8,0:3|0:0|0:0,0:0:0:0:
297,182,145902,2,0,P|273:242|306:309,1,131.25,2|0,0:0|0:0,0:0:0:0:
335,322,146502,6,0,L|435:336,2,87.5,2|2|2,0:0|0:0|0:0,0:0:0:0:
380,246,147402,2,0,L|433:253,2,43.75,2|2|2,0:0|0:0|0:0,0:0:0:0:
415,166,148002,2,0,L|508:181,1,87.5,0|2,0:0|0:0,0:0:0:0:
375,57,148902,70,0,L|261:43,1,87.5,2|0,0:0|0:0,0:0:0:0:
200,44,149502,2,0,L|224:132,1,87.5,2|2,0:0|0:3,0:0:0:0:
254,210,150102,2,0,L|140:196,1,87.5,2|2,0:0|0:3,0:0:0:0:
80,187,150702,5,8,0:0:0:0:
62,272,151002,1,0,0:0:0:0:
0,212,151302,1,8,0:0:0:0:
149,121,151902,69,2,0:3:0:0:
167,206,152202,1,0,0:0:0:0:
229,146,152502,1,2,0:3:0:0:
266,316,153102,5,8,0:0:0:0:
187,293,153402,1,0,0:0:0:0:
248,231,153702,6,0,P|266:168|238:101,1,131.25,8|8,0:0|0:0,0:0:0:0:
218,72,154302,2,0,P|281:90|348:62,1,131.25,8|8,0:0|0:0,0:0:0:0:
378,45,154902,2,0,P|356:105|374:167,1,131.25,8|8,0:0|0:0,0:0:0:0:
399,203,155502,2,0,P|338:181|276:199,1,131.25,8|8,0:0|0:0,0:0:0:0:
244,229,156102,69,2,0:0:0:0:
307,306,160302,21,8,0:1:0:0:
307,306,160902,70,0,P|321:266|305:215,1,87.5,4|0,0:0|0:0,0:0:0:0:
231,261,161502,2,0,L|161:261,2,43.75,10|10|10,0:0|0:0|0:0,0:0:0:0:
316,227,162102,1,8,0:0:0:0:
316,227,162702,5,8,0:0:0:0:
353,148,163002,1,0,0:0:0:0:
385,68,163302,1,8,0:0:0:0:
385,68,163902,69,0,0:0:0:0:
299,86,164202,2,0,P|257:99|217:86,2,87.5,8|2|2,0:0|0:0|0:0,0:0:0:0:
355,152,165102,2,0,B|349:195|349:195|361:231|361:231|356:289,1,131.25,10|10,0:0|0:0,0:0:0:0:
354,328,165702,5,4,0:1:0:0:
354,328,166302,2,0,L|409:334,2,43.75,10|10|10,0:0|0:0|0:0,0:0:0:0:
271,323,166902,1,0,0:0:0:0:
271,323,167502,69,8,0:0:0:0:
185,303,167802,1,0,0:0:0:0:
101,289,168102,1,8,0:0:0:0:
101,289,168702,5,8,0:0:0:0:
155,220,169002,2,0,P|170:179|159:138,2,87.5,8|2|2,0:0|0:0|0:0,0:0:0:0:
192,299,169902,2,0,B|235:305|235:305|271:293|271:293|329:298,1,131.25,10|10,0:0|0:0,0:0:0:0:
368,303,170502,69,4,0:1:0:0:
368,303,171102,2,0,L|362:377,2,43.75,10|10|10,0:0|0:0|0:0,0:0:0:0:
374,219,171702,1,8,0:0:0:0:
374,219,172302,5,8,0:0:0:0:
287,231,172602,1,0,0:0:0:0:
204,252,172902,1,8,0:0:0:0:
204,252,173502,69,0,0:0:0:0:
122,284,173802,2,0,P|135:322|118:373,2,87.5,8|2|2,0:0|0:0|0:0,0:0:0:0:
143,198,174702,2,0,B|137:155|137:155|149:119|149:119|144:61,1,131.25,10|10,0:0|0:0,0:0:0:0:
135,29,175302,5,4,0:1:0:0:
135,29,175902,2,0,L|196:21,2,43.75,10|10|10,0:0|0:0|0:0,0:0:0:0:
51,55,176502,1,8,0:0:0:0:
51,55,177102,69,8,0:0:0:0:
62,141,177402,1,0,0:0:0:0:
75,233,177702,1,8,0:0:0:0:
75,233,178302,5,8,0:0:0:0:
142,290,178602,2,0,B|229:327|229:253|310:289,1,175,2|4,0:0|0:3,0:0:0:0:
383,240,179502,2,0,B|377:197|377:197|389:161|389:161|384:103,1,131.25,10|10,0:0|0:0,0:0:0:0:
382,72,180102,69,2,0:0:0:0:
382,72,180702,2,0,L|446:64,2,43.75,14|10|10,0:0|0:0|0:0,0:0:0:0:
296,88,181302,1,4,0:1:0:0:
296,88,181902,5,8,0:0:0:0:
209,100,182202,1,8,0:0:0:0:
125,118,182502,1,8,0:0:0:0:
125,118,183102,69,8,0:0:0:0:
180,185,183402,2,0,P|193:223|176:274,2,87.5,8|2|2,0:0|0:0|0:3,0:0:0:0:
208,102,184302,2,0,B|251:96|251:96|287:108|287:108|345:103,1,131.25,10|10,0:0|0:0,0:0:0:0:
385,109,184902,5,4,0:1:0:0:
385,109,185502,2,0,L|393:48,2,43.75,10|10|10,0:0|0:0|0:0,0:0:0:0:
372,199,186102,1,8,0:0:0:0:
372,199,186702,69,8,0:0:0:0:
286,188,187002,1,8,0:0:0:0:
200,183,187302,1,0,0:0:0:0:
200,183,187902,5,0,0:0:0:0:
122,141,188202,2,0,B|85:228|159:228|123:309,1,175,8|6,0:0|0:3,0:0:0:0:
200,349,189102,2,0,B|243:343|243:343|279:355|279:355|337:350,1,131.25,10|10,0:0|0:0,0:0:0:0:
374,341,189702,69,4,0:1:0:0:
374,341,190302,2,0,L|380:415,2,43.75,10|10|10,0:0|0:0|0:0,0:0:0:0:
362,258,190902,1,8,0:0:0:0:
362,258,191502,5,8,0:0:0:0:
350,171,191802,1,8,0:0:0:0:
333,84,192102,1,8,0:0:0:0:
333,84,192702,69,8,0:0:0:0:
269,144,193002,2,0,P|231:157|180:140,2,87.5,8|0|0,0:0|0:0|0:0,0:0:0:0:
353,168,193902,2,0,B|359:211|359:211|347:247|347:247|352:305,1,131.25,10|10,0:0|0:0,0:0:0:0:
362,345,194502,5,0,0:0:0:0:
362,345,195102,2,0,L|423:337,2,43.75,10|10|10,0:0|0:0|0:0,0:0:0:0:
275,361,195702,1,8,0:0:0:0:
275,361,196302,69,8,0:0:0:0:
264,275,196602,1,8,0:0:0:0:
258,191,196902,1,8,0:0:0:0:
258,191,197502,5,8,0:0:0:0:
323,132,197802,2,0,B|410:95|410:169|491:133,1,175,2|4,0:0|0:3,0:0:0:0:
487,220,198702,2,0,B|481:263|481:263|493:299|493:299|488:357,1,131.25,10|10,0:0|0:0,0:0:0:0:
449,367,199302,69,2,0:0:0:0:
