osu file format v14

[General]
AudioFilename: SEVENTEEN - Dont Wanna Cry.mp3
AudioLeadIn: 2000
PreviewTime: 55677
Countdown: 0
SampleSet: Soft
StackLeniency: 0.2
Mode: 0
LetterboxInBreaks: 0
WidescreenStoryboard: 0

[Editor]
Bookmarks: 102,9702,19302,28902,38502,48102,60102,79302,88902,98502,108102,117702,136902,146502,160902,180702,199302
DistanceSpacing: 1.4
BeatDivisor: 8
GridSize: 4
TimelineZoom: 1.2

[Metadata]
Title:Don't Wanna Cry
TitleUnicode:울고 싶지 않아
Artist:SEVENTEEN
ArtistUnicode:세븐틴
Creator:Euny
Version:Natsu's Extra
Source:
Tags:My_Angel_RangE MARE Natsu PLEDIS ENTERTAINMENT 세븐틴 에스.쿱스 S.COUPS 우지 WOOZI 호시 HOSHI 민규 MINGYU 원우 WONWOO 버논 VERNON 승관 SEUNGKWAN 디노 DINO 준 JUN 도경 DK 조슈아 JOSHUA 정한 JEONGHAN 디에잇 THE8
BeatmapID:1366147
BeatmapSetID:618466

[Difficulty]
HPDrainRate:6
CircleSize:4
OverallDifficulty:8.3
ApproachRate:9
SliderMultiplier:3
SliderTickRate:1

[Events]
//Background and Video events
Video,0,"Don't+Wanna+Cry.avi"
0,0,"bg111.jpg",0,0
//Break Periods
2,9902,18102
2,55502,58902
2,79502,88302
2,115502,116502
2,156302,159702
//Storyboard Layer 0 (Background)
//Storyboard Layer 1 (Fail)
//Storyboard Layer 2 (Pass)
//Storyboard Layer 3 (Foreground)
//Storyboard Sound Samples

[TimingPoints]
102,600,4,2,55,30,1,0
102,-400,4,2,55,30,0,0
19302,-222.222222222222,4,2,5,50,0,0
28902,-153.846153846154,4,2,5,50,0,0
38502,-117.647058823529,4,2,5,60,0,0
48102,-105.263157894737,4,2,5,60,0,0
59502,-400,4,2,5,70,0,0
60102,-90.9090909090909,4,2,5,70,0,1
60702,-90.9090909090909,4,2,5,70,0,0
61902,-76.9230769230769,4,2,5,70,0,0
62502,-90.9090909090909,4,2,5,70,0,0
66702,-76.9230769230769,4,2,5,70,0,0
67302,-90.9090909090909,4,2,5,70,0,0
69702,-90.9090909090909,4,2,5,70,0,1
70302,-90.9090909090909,4,2,5,70,0,0
71502,-76.9230769230769,4,2,5,70,0,0
72102,-90.9090909090909,4,2,5,70,0,0
73002,-90.9090909090909,4,2,5,70,0,0
76302,-76.9230769230769,4,2,5,70,0,0
76902,-90.9090909090909,4,2,5,70,0,0
78777,-90.9090909090909,4,2,5,5,0,0
78852,-90.9090909090909,4,2,5,70,0,0
78927,-90.9090909090909,4,2,5,5,0,0
79002,-90.9090909090909,4,2,5,70,0,0
79077,-90.9090909090909,4,2,5,5,0,0
79152,-90.9090909090909,4,2,5,70,0,0
79227,-90.9090909090909,4,2,5,5,0,0
79302,-90.9090909090909,4,2,5,33,0,0
88902,-153.846153846154,4,2,55,40,0,0
89502,-153.846153846154,4,2,5,40,0,0
90102,-153.846153846154,4,2,55,40,0,0
90702,-153.846153846154,4,2,5,40,0,0
91302,-153.846153846154,4,2,55,40,0,0
91902,-153.846153846154,4,2,5,40,0,0
93102,-153.846153846154,4,2,5,40,0,0
93702,-153.846153846154,4,2,55,40,0,0
94302,-153.846153846154,4,2,5,40,0,0
94902,-153.846153846154,4,2,55,40,0,0
95502,-153.846153846154,4,2,5,40,0,0
96102,-153.846153846154,4,2,55,40,0,0
96702,-153.846153846154,4,2,5,40,0,0
98502,-117.647058823529,4,2,5,60,0,0
108102,-105.263157894737,4,2,5,60,0,0
117102,-400,4,2,5,60,0,0
117702,-90.9090909090909,4,2,5,70,0,1
118302,-90.9090909090909,4,2,5,70,0,0
119502,-76.9230769230769,4,2,5,70,0,0
120102,-90.9090909090909,4,2,5,70,0,0
124302,-76.9230769230769,4,2,5,70,0,0
124902,-90.9090909090909,4,2,5,70,0,0
127302,-90.9090909090909,4,2,5,70,0,1
127902,-90.9090909090909,4,2,5,70,0,0
129102,-76.9230769230769,4,2,5,70,0,0
129702,-90.9090909090909,4,2,5,70,0,0
133902,-76.9230769230769,4,2,5,70,0,0
134502,-90.9090909090909,4,2,5,70,0,0
136377,-90.9090909090909,4,2,5,5,0,0
136452,-90.9090909090909,4,2,5,70,0,0
136527,-90.9090909090909,4,2,5,5,0,0
136602,-90.9090909090909,4,2,5,70,0,0
136677,-90.9090909090909,4,2,5,5,0,0
136752,-90.9090909090909,4,2,5,70,0,0
136827,-90.9090909090909,4,2,5,5,0,0
136902,-117.64705882353,4,2,5,70,0,1
137502,-117.64705882353,4,2,55,70,0,1
137802,-117.64705882353,4,2,5,70,0,1
137877,-117.64705882353,4,2,55,70,0,1
138102,-117.64705882353,4,2,5,70,0,0
138777,-117.64705882353,4,2,55,70,0,0
139002,-100,4,2,5,70,0,0
139452,-100,4,2,5,70,0,0
139902,-100,4,2,55,70,0,0
140202,-100,4,2,5,70,0,0
141102,-100,4,2,55,70,0,0
142602,-100,4,2,5,70,0,0
143577,-100,4,2,55,70,0,0
144102,-100,4,2,5,70,0,0
144777,-100,4,2,55,70,0,0
145002,-100,4,2,5,70,0,0
145902,-100,4,2,55,70,0,0
146502,-117.64705882353,4,2,55,50,0,0
148602,-117.64705882353,4,2,5,50,0,0
148902,-117.64705882353,4,2,55,50,0,0
149052,-117.64705882353,4,2,5,50,0,0
149502,-117.64705882353,4,2,55,50,0,0
149802,-117.64705882353,4,2,5,50,0,0
150102,-117.64705882353,4,2,55,50,0,0
150252,-117.64705882353,4,2,5,50,0,0
151302,-105.263157894737,4,2,5,70,0,0
156102,-105.263157894737,4,2,55,70,0,0
160302,-400,4,2,5,70,0,0
160902,-90.9090909090909,4,2,5,70,0,1
161502,-90.9090909090909,4,2,5,70,0,0
162702,-76.9230769230769,4,2,5,70,0,0
163302,-90.9090909090909,4,2,5,70,0,0
167502,-76.9230769230769,4,2,5,70,0,0
168102,-90.9090909090909,4,2,5,70,0,0
170502,-90.9090909090909,4,2,5,70,0,1
171102,-90.9090909090909,4,2,5,70,0,0
172302,-76.9230769230769,4,2,5,70,0,0
172902,-90.9090909090909,4,2,5,70,0,0
177102,-76.9230769230769,4,2,5,70,0,0
177702,-90.9090909090909,4,2,5,70,0,0
180102,-142.857142857143,4,2,55,70,0,0
180702,-90.9090909090909,4,2,5,70,0,1
181302,-90.9090909090909,4,2,5,70,0,0
189702,-90.9090909090909,4,2,5,70,0,1
190302,-90.9090909090909,4,2,5,70,0,0
191502,-76.9230769230769,4,2,5,70,0,0
192102,-90.9090909090909,4,2,5,70,0,0
196302,-76.9230769230769,4,2,5,70,0,0
196902,-90.9090909090909,4,2,5,70,0,0
199302,-90.9090909090909,4,2,55,70,0,0

[Colours]
Combo1 : 150,45,255
Combo2 : 255,0,128
Combo3 : 255,187,221
Combo4 : 255,249,252
Combo5 : 141,141,141
Combo6 : 208,162,255
SliderBorder : 255,187,221
SliderTrackOverride : 0,0,94

[HitObjects]
80,170,102,38,0,L|70:221,1,37.5,2|0,0:0|0:0,0:0:0:0:
36,96,702,2,0,L|-15:86,1,37.5,0|0,0:0|0:0,0:0:0:0:
110,52,1302,2,0,L|120:1,1,37.5,0|0,0:0|0:0,0:0:0:0:
154,126,1902,2,0,L|205:136,1,37.5,0|0,0:0|0:0,0:0:0:0:
341,174,2502,6,0,L|290:164,1,37.5,0|0,0:0|0:0,0:0:0:0:
436,139,3102,2,0,L|470:99,1,37.5,0|0,0:0|0:0,0:0:0:0:
418,238,3702,2,0,L|434:287,1,37.5,0|0,0:0|0:0,0:0:0:0:
303,348,4302,70,0,P|302:373|319:354,1,65.625,2|0,0:0|0:0,0:0:0:0:
326,325,4902,6,0,L|318:273,1,37.5,2|0,0:0|0:0,0:0:0:0:
180,273,5502,2,0,L|228:251,1,37.5,0|0,0:0|0:0,0:0:0:0:
178,123,6102,2,0,L|210:164,1,37.5,0|0,0:0|0:0,0:0:0:0:
324,75,6702,2,0,L|292:117,1,37.5,0|0,0:0|0:0,0:0:0:0:
402,199,7302,2,0,L|352:179,1,37.5,0|0,0:0|0:0,0:0:0:0:
215,116,7902,69,0,0:0:0:0:
220,130,8202,1,0,0:0:0:0:
297,268,8502,1,0,0:0:0:0:
292,254,8802,1,0,0:0:0:0:
220,130,9102,2,0,L|212:199,1,65.625,2|0,0:0|0:0,0:0:0:0:
212,195,9702,5,2,0:0:0:0:
267,261,18702,85,0,0:0:0:0:
399,204,19002,1,0,0:0:0:0:
132,313,19302,70,0,L|128:212,1,101.249996910095,4|0,0:1|0:0,0:0:0:0:
124,131,19902,1,2,0:0:0:0:
256,252,20202,2,0,L|254:213,1,33.7499989700318,0|0,0:0|0:0,0:0:0:0:
305,304,20502,2,0,P|259:325|212:309,1,101.249996910095,0|0,0:0|0:0,0:0:0:0:
251,184,21102,2,0,L|256:252,1,67.4999979400635,2|0,0:0|0:0,0:0:0:0:
89,384,21702,5,0,0:0:0:0:
8,351,21852,1,0,0:0:0:0:
15,265,22002,1,0,0:0:0:0:
98,246,22152,1,0,0:0:0:0:
142,319,22302,69,2,0:0:0:0:
142,319,22602,1,0,0:0:0:0:
142,319,22902,2,0,L|224:310,1,67.4999979400635,0|0,0:0|0:0,0:0:0:0:
424,286,23502,6,0,L|373:292,1,33.7499989700318,2|0,0:0|0:0,0:0:0:0:
283,303,23802,2,0,L|334:297,1,33.7499989700318,0|0,0:0|0:0,0:0:0:0:
424,286,24102,70,0,P|436:235|413:186,1,101.249996910095,0|0,0:0|0:0,0:0:0:0:
358,138,24702,1,2,0:0:0:0:
283,303,25002,2,0,L|332:297,1,33.7499989700318,0|0,0:0|0:0,0:0:0:0:
424,286,25302,2,0,P|436:235|413:186,1,101.249996910095,0|0,0:0|0:0,0:0:0:0:
358,138,25902,2,0,L|284:148,1,67.4999979400635,2|0,0:0|0:0,0:0:0:0:
24,185,26502,5,0,0:0:0:0:
24,185,26652,1,0,0:0:0:0:
115,175,26802,1,0,0:0:0:0:
115,175,26952,1,0,0:0:0:0:
205,159,27102,1,2,0:0:0:0:
205,159,27252,1,0,0:0:0:0:
296,148,27402,69,0,0:0:0:0:
296,148,27702,1,0,0:0:0:0:
296,356,28002,5,0,0:0:0:0:
174,188,28302,1,2,0:0:0:0:
371,252,28602,1,0,0:0:0:0:
174,316,28902,69,0,0:0:0:0:
296,148,29202,1,0,0:0:0:0:
296,356,29502,1,2,0:0:0:0:
418,188,29802,1,0,0:0:0:0:
221,252,30102,5,0,0:0:0:0:
418,316,30402,1,0,0:0:0:0:
296,148,30702,1,2,0:0:0:0:
296,356,31002,1,0,0:0:0:0:
174,188,31302,69,0,0:0:0:0:
371,252,31602,1,0,0:0:0:0:
174,316,31902,1,2,0:0:0:0:
296,148,32202,1,0,0:0:0:0:
296,356,32502,2,0,P|253:297|276:213,1,146.249993305207,0|0,0:0|0:0,0:0:0:0:
296,148,33102,5,2,0:0:0:0:
174,316,33402,1,0,0:0:0:0:
371,252,33702,70,0,L|476:236,1,97.4999955368044,0|0,0:0|0:0,0:0:0:0:
300,264,34302,2,0,L|405:248,1,97.4999955368044,2|0,0:0|0:0,0:0:0:0:
236,156,34902,5,0,0:0:0:0:
236,342,35202,1,0,0:0:0:0:
396,249,35502,1,2,0:0:0:0:
242,170,35802,69,0,0:0:0:0:
242,325,36102,1,0,0:0:0:0:
375,247,36402,1,0,0:0:0:0:
176,131,36702,6,0,L|181:192,1,48.7499977684022,2|0,0:0|0:0,0:0:0:0:
244,274,37002,2,0,L|240:225,1,48.7499977684022,0|0,0:0|0:0,0:0:0:0:
302,145,37302,2,0,L|307:206,1,48.7499977684022,0|0,0:0|0:0,0:0:0:0:
373,284,37602,2,0,L|370:236,1,48.7499977684022,0|0,0:0|0:0,0:0:0:0:
414,153,37902,70,0,P|456:192|429:132,1,170.624992189408,2|0,0:0|0:0,0:0:0:0:
396,120,38502,22,0,P|337:143|273:128,1,127.50000243187,4|0,0:0|0:0,0:0:0:0:
113,55,38952,1,4,0:3:0:0:
197,149,39102,2,0,P|204:179|198:210,1,63.7500012159348,4|0,0:3|0:0,0:0:0:0:
48,86,39402,2,0,P|40:55|46:24,1,63.7500012159348,4|0,0:3|0:0,0:0:0:0:
256,14,39702,5,2,0:3:0:0:
113,55,39852,2,0,L|124:122,1,63.7500012159348,4|2,0:3|0:3,0:0:0:0:
154,275,40152,1,4,0:3:0:0:
297,234,40302,2,0,L|286:167,1,63.7500012159348,4|0,0:3|0:0,0:0:0:0:
256,14,40602,2,0,L|267:81,1,63.7500012159348,4|2,0:3|0:3,0:0:0:0:
297,234,40902,69,4,0:3:0:0:
161,161,41052,1,2,0:3:0:0:
228,301,41202,1,2,0:3:0:0:
255,148,41352,1,4,0:3:0:0:
144,256,41502,2,0,L|72:265,1,63.7500012159348,4|0,0:3|0:0,0:0:0:0:
255,148,41802,2,0,L|327:139,1,63.7500012159348,4|0,0:3|0:0,0:0:0:0:
228,301,42102,5,4,0:3:0:0:
80,263,42252,2,0,P|72:231|80:195,1,63.7500012159348,4|0,0:3|0:0,0:0:0:0:
174,78,42552,1,4,0:3:0:0:
322,116,42702,2,0,P|329:147|321:183,1,63.7500012159348,4|0,0:3|0:0,0:0:0:0:
228,301,43002,2,0,P|220:269|228:233,1,63.7500012159348,4|4,0:3|0:3,0:0:0:0:
379,61,43302,70,0,P|320:84|256:69,1,127.50000243187,4|0,0:1|0:0,0:0:0:0:
100,41,43752,1,4,0:3:0:0:
184,135,43902,2,0,P|191:165|185:196,1,63.7500012159348,4|0,0:3|0:0,0:0:0:0:
35,72,44202,2,0,P|27:41|33:10,1,63.7500012159348,4|0,0:3|0:0,0:0:0:0:
245,73,44502,5,2,0:3:0:0:
100,41,44652,1,4,0:3:0:0:
134,240,44802,1,2,0:3:0:0:
166,95,44952,1,4,0:3:0:0:
273,206,45102,2,0,P|242:213|210:209,1,63.7500012159348,4|0,0:3|0:0,0:0:0:0:
28,120,45402,2,0,P|58:113|90:117,1,63.7500012159348,2|0,0:3|0:0,0:0:0:0:
273,206,45702,70,0,L|251:339,1,127.50000243187,4|0,0:3|0:0,0:0:0:0:
118,341,46152,1,4,0:3:0:0:
117,341,46302,2,0,P|147:332|178:336,1,63.7500012159348,4|0,0:3|0:0,0:0:0:0:
375,369,46602,2,0,P|344:377|313:373,1,63.7500012159348,4|0,0:3|0:0,0:0:0:0:
178,336,46902,1,0,0:0:0:0:
337,298,47052,1,0,0:0:0:0:
218,168,47202,6,0,P|216:199|229:228,1,63.7500012159348,0|4,0:0|0:3,0:0:0:0:
395,318,47502,2,0,P|368:301|336:297,1,63.7500012159348,4|0,0:3|0:0,0:0:0:0:
131,376,47802,2,0,P|158:361|177:335,1,63.7500012159348,4|4,0:3|0:3,0:0:0:0:
252,99,48102,70,0,B|351:157|351:56|455:98,1,213.749994292259,4|8,0:2|0:0,0:0:0:0:
307,34,48702,5,8,0:0:0:0:
407,172,48852,1,8,0:0:0:0:
327,22,49002,1,8,0:0:0:0:
386,183,49152,1,8,0:0:0:0:
205,154,49302,70,0,B|105:212|105:111|1:153,1,213.749994292259,8|8,0:0|0:0,0:0:0:0:
153,89,49902,6,0,P|161:54|150:15,1,71.2499980974198,8|8,0:0|0:0,0:0:0:0:
51,227,50202,2,0,P|43:262|54:301,1,71.2499980974198,8|8,0:0|0:0,0:0:0:0:
322,258,50502,70,0,B|223:200|223:301|119:259,1,213.749994292259,8|8,0:0|0:0,0:0:0:0:
267,323,51102,5,8,0:0:0:0:
167,185,51252,1,8,0:0:0:0:
247,335,51402,1,8,0:0:0:0:
188,174,51552,1,8,0:0:0:0:
295,305,51702,70,0,B|395:363|395:262|499:304,1,213.749994292259,8|8,0:0|0:0,0:0:0:0:
348,241,52302,6,0,P|340:206|351:167,1,71.2499980974198,8|8,0:0|0:0,0:0:0:0:
498,303,52602,2,0,P|506:338|495:377,1,71.2499980974198,8|8,0:0|0:0,0:0:0:0:
329,353,52902,5,8,0:0:0:0:
300,338,52977,1,0,0:0:0:0:
269,331,53052,1,8,0:0:0:0:
237,332,53127,1,0,0:0:0:0:
206,341,53202,69,8,0:0:0:0:
175,350,53277,1,0,0:0:0:0:
143,351,53352,1,8,0:0:0:0:
112,344,53427,1,0,0:0:0:0:
84,330,53502,5,8,0:0:0:0:
62,306,53577,1,0,0:0:0:0:
54,276,53652,1,8,0:0:0:0:
61,245,53727,1,0,0:0:0:0:
81,221,53802,70,0,L|117:201,3,35.6249990487099,8|0|8|0,0:0|0:0|0:0|0:0,0:0:0:0:
195,227,54102,2,0,L|231:247,3,35.6249990487099,8|0|8|0,0:0|0:0|0:0|0:0,0:0:0:0:
307,208,54402,2,0,L|343:188,3,35.6249990487099,8|8|8|0,0:0|0:0|0:0|0:0,0:0:0:0:
421,143,54702,5,8,0:0:0:0:
418,178,54777,1,8,0:0:0:0:
416,214,54852,1,8,0:0:0:0:
414,249,54927,1,8,0:0:0:0:
403,325,55002,70,0,P|408:373|424:322,1,142.49999619484,8|0,0:0|0:0,0:0:0:0:
108,306,59502,38,0,P|87:322|113:327,1,65.625,8|0,0:1|0:0,0:0:0:0:
107,305,60102,54,0,P|27:321|112:319,1,247.500007553101,4|0,0:0|0:0,0:0:0:0:
165,186,60702,5,10,0:0:0:0:
258,301,60852,1,10,0:0:0:0:
112,326,61002,1,10,0:0:0:0:
112,326,61302,69,8,0:0:0:0:
46,113,61602,2,0,P|46:81|55:112,1,82.5000025177003,0|0,0:0|0:0,0:0:0:0:
112,326,61902,5,8,0:0:0:0:
46,113,62202,2,0,P|47:76|55:112,1,97.4999955368044,8|0,0:0|0:0,0:0:0:0:
46,113,62502,70,0,P|35:57|60:110,1,165.000005035401,0|0,0:0|0:0,0:0:0:0:
112,326,63102,5,8,0:0:0:0:
289,196,63402,2,0,L|302:290,1,82.5000025177003,8|0,0:0|0:0,0:0:0:0:
317,372,63702,1,0,0:0:0:0:
175,268,64002,1,0,0:0:0:0:
471,216,64302,69,10,0:0:0:0:
365,292,64452,1,10,0:0:0:0:
289,186,64602,1,10,0:0:0:0:
395,110,64752,1,10,0:0:0:0:
386,297,64902,6,0,P|370:377|372:292,1,247.500007553101,4|0,0:1|0:0,0:0:0:0:
457,176,65502,69,10,0:0:0:0:
510,316,65652,1,10,0:0:0:0:
364,291,65802,1,10,0:0:0:0:
364,291,66102,5,8,0:0:0:0:
474,79,66402,2,0,P|474:47|465:78,1,82.5000025177003,0|0,0:0|0:0,0:0:0:0:
364,291,66702,69,8,0:0:0:0:
474,79,67002,2,0,P|473:42|465:78,1,97.4999955368044,0|0,0:0|0:0,0:0:0:0:
474,79,67302,6,0,P|485:23|460:76,1,165.000005035401,8|0,0:0|0:0,0:0:0:0:
364,291,67902,69,8,0:0:0:0:
282,108,68202,2,0,P|242:98|202:107,1,82.5000025177003,8|0,0:0|0:0,0:0:0:0:
95,155,68502,1,2,0:0:0:0:
225,281,68802,1,6,0:3:0:0:
282,108,69102,5,10,0:0:0:0:
167,169,69252,1,10,0:0:0:0:
225,281,69402,1,10,0:0:0:0:
343,222,69552,1,10,0:0:0:0:
172,149,69702,70,0,P|93:128|170:163,1,247.500007553101,4|0,0:1|0:0,0:0:0:0:
315,107,70302,5,10,0:0:0:0:
282,252,70452,1,10,0:0:0:0:
172,149,70602,1,10,0:0:0:0:
172,149,70902,69,8,0:0:0:0:
375,254,71202,2,0,P|405:262|378:245,1,82.5000025177003,0|0,0:0|0:0,0:0:0:0:
172,149,71502,5,8,0:0:0:0:
375,254,71802,2,0,P|410:263|378:245,1,97.4999955368044,0|0,0:0|0:0,0:0:0:0:
375,254,72102,70,0,P|425:280|380:243,1,165.000005035401,8|0,0:0|0:0,0:0:0:0:
172,149,72702,5,0,0:0:0:0:
367,53,73002,2,0,L|356:139,1,82.5000025177003,8|0,0:0|0:0,0:0:0:0:
339,247,73302,1,2,0:0:0:0:
154,222,73602,1,2,0:0:0:0:
396,74,73902,69,10,0:0:0:0:
457,188,74052,1,10,0:0:0:0:
339,247,74202,1,10,0:0:0:0:
281,135,74352,1,10,0:0:0:0:
457,188,74502,6,0,P|472:268|442:189,1,247.500007553101,4|0,0:1|0:0,0:0:0:0:
448,40,75102,69,10,0:0:0:0:
323,120,75252,1,10,0:0:0:0:
457,188,75402,1,10,0:0:0:0:
457,188,75702,5,8,0:0:0:0:
260,75,76002,2,0,P|242:49|267:69,1,82.5000025177003,0|0,0:0|0:0,0:0:0:0:
457,188,76302,69,8,0:0:0:0:
260,75,76602,2,0,P|239:45|267:69,1,97.4999955368044,0|0,0:0|0:0,0:0:0:0:
260,75,76902,6,0,P|218:36|269:65,1,165.000005035401,8|2,0:0|0:0,0:0:0:0:
457,188,77502,69,8,0:0:0:0:
271,311,77802,2,0,L|260:213,1,82.5000025177003,2|0,0:0|0:0,0:0:0:0:
244,137,78102,1,8,0:0:0:0:
457,188,78402,2,0,P|498:152|418:128,1,165.000005035401,4|10,0:3|0:0,0:0:0:0:
374,285,78852,5,10,0:0:0:0:
284,228,79002,1,10,0:0:0:0:
380,179,79152,1,10,0:0:0:0:
369,382,79302,69,4,0:1:0:0:
36,30,88902,22,0,L|55:85,3,48.7499977684022,2|2|2|2,0:0|0:0|0:0|0:0,0:0:0:0:
79,145,89502,5,2,0:0:0:0:
129,262,89802,1,0,0:0:0:0:
245,212,90102,1,2,0:0:0:0:
196,95,90402,2,0,L|137:119,1,48.7499977684022,2|2,0:0|0:0,0:0:0:0:
79,145,90702,2,0,L|104:203,3,48.7499977684022,2|0|0|0,0:0|0:0|0:0|0:0,0:0:0:0:
129,262,91302,2,0,L|177:243,3,48.7499977684022,2|2|2|0,0:0|0:0|0:0|0:0,0:0:0:0:
245,212,91902,69,2,0:0:0:0:
295,329,92202,1,2,0:0:0:0:
411,279,92502,1,0,0:0:0:0:
362,162,92802,2,0,L|303:186,1,48.7499977684022,0|0,0:0|0:0,0:0:0:0:
245,212,93102,1,2,0:0:0:0:
245,212,93252,2,0,L|247:96,1,97.4999955368044,0|0,0:0|0:0,0:0:0:0:
175,137,93702,2,0,L|116:161,3,48.7499977684022,2|2|2|0,0:0|0:0|0:0|0:0,0:0:0:0:
58,187,94302,5,2,0:0:0:0:
108,304,94602,1,0,0:0:0:0:
224,254,94902,1,2,0:0:0:0:
175,137,95202,2,0,L|116:161,1,48.7499977684022,2|0,0:0|0:0,0:0:0:0:
58,187,95502,2,0,L|83:245,3,48.7499977684022,2|0|0|0,0:0|0:0|0:0|0:0,0:0:0:0:
108,304,96102,69,2,0:0:0:0:
224,254,96402,2,0,L|197:194,1,48.7499977684022,0|0,0:0|0:0,0:0:0:0:
173,140,96702,2,0,L|243:112,1,48.7499977684022,2|0,0:0|0:0,0:0:0:0:
292,94,97002,2,0,L|319:154,1,48.7499977684022,0|0,0:0|0:0,0:0:0:0:
343,208,97302,2,0,L|273:236,1,48.7499977684022,0|0,0:0|0:0,0:0:0:0:
243,294,97602,1,0,0:0:0:0:
243,294,97752,6,0,P|153:286|224:229,1,219.37498995781,0|0,0:0|0:0,0:0:0:0:
253,248,98502,22,0,P|314:265|376:246,1,127.50000243187,4|0,0:0|0:0,0:0:0:0:
512,142,98952,1,4,0:3:0:0:
395,238,99102,2,0,L|408:312,1,63.7500012159348,4|0,0:3|0:0,0:0:0:0:
493,140,99402,2,0,L|480:66,1,63.7500012159348,4|0,0:3|0:0,0:0:0:0:
267,83,99702,69,2,0:3:0:0:
410,124,99852,2,0,L|399:191,1,63.7500012159348,4|2,0:3|0:3,0:0:0:0:
367,342,100152,1,4,0:3:0:0:
510,301,100302,2,0,L|499:234,1,63.7500012159348,4|0,0:3|0:0,0:0:0:0:
420,61,100602,2,0,L|409:128,1,63.7500012159348,4|2,0:3|0:3,0:0:0:0:
375,308,100902,6,0,P|314:325|252:306,1,127.50000243187,4|2,0:3|0:3,0:0:0:0:
116,202,101352,1,4,0:3:0:0:
233,298,101502,2,0,L|220:372,1,63.7500012159348,4|0,0:3|0:0,0:0:0:0:
135,200,101802,2,0,L|148:126,1,63.7500012159348,4|0,0:3|0:0,0:0:0:0:
322,63,102102,69,4,0:3:0:0:
284,211,102252,2,0,P|252:219|216:211,1,63.7500012159348,4|0,0:3|0:0,0:0:0:0:
74,175,102552,1,4,0:3:0:0:
222,213,102702,2,0,P|230:245|222:281,1,63.7500012159348,4|0,0:3|0:0,0:0:0:0:
74,175,103002,2,0,P|66:143|74:107,1,63.7500012159348,4|4,0:3|0:3,0:0:0:0:
222,213,103302,6,0,P|283:230|345:211,1,127.50000243187,4|0,0:1|0:0,0:0:0:0:
481,107,103752,1,4,0:3:0:0:
364,203,103902,2,0,L|377:277,1,63.7500012159348,4|0,0:3|0:0,0:0:0:0:
462,105,104202,2,0,L|449:31,1,63.7500012159348,4|0,0:3|0:0,0:0:0:0:
265,68,104502,69,2,0:3:0:0:
395,135,104652,1,4,0:3:0:0:
202,196,104802,1,2,0:3:0:0:
332,263,104952,1,4,0:3:0:0:
133,226,105102,2,0,P|126:195|134:163,1,63.7500012159348,4|0,0:3|0:0,0:0:0:0:
265,68,105402,2,0,P|272:99|264:131,1,63.7500012159348,2|0,0:3|0:0,0:0:0:0:
195,270,105702,6,0,L|52:270,1,127.50000243187,4|0,0:3|0:0,0:0:0:0:
12,137,106152,1,4,0:3:0:0:
12,137,106302,2,0,L|41:211,1,63.7500012159348,4|0,0:3|0:0,0:0:0:0:
90,329,106602,2,0,L|61:255,1,63.7500012159348,4|0,0:3|0:0,0:0:0:0:
12,137,106902,1,0,0:0:0:0:
168,188,107052,1,0,0:0:0:0:
190,41,107202,70,0,P|166:61|155:91,1,63.7500012159348,0|4,0:0|0:3,0:0:0:0:
194,243,107502,2,0,P|186:211|167:186,1,63.7500012159348,4|0,0:3|0:0,0:0:0:0:
12,137,107802,2,0,P|41:145|73:140,1,63.7500012159348,4|4,0:3|0:3,0:0:0:0:
278,109,108102,6,0,B|220:208|321:208|279:312,1,213.749994292259,4|8,0:2|0:0,0:0:0:0:
343,164,108702,69,8,0:0:0:0:
205,264,108852,1,8,0:0:0:0:
355,184,109002,1,8,0:0:0:0:
194,243,109152,1,8,0:0:0:0:
365,208,109302,6,0,B|393:255|360:298|360:298|361:369|361:369|400:336,1,213.749994292259,8|8,0:0|0:0,0:0:0:0:
302,249,109902,70,0,P|267:241|228:252,1,71.2499980974198,8|8,0:0|0:0,0:0:0:0:
396,339,110202,2,0,P|431:347|470:336,1,71.2499980974198,8|8,0:0|0:0,0:0:0:0:
493,130,110502,6,0,B|394:72|394:173|290:131,1,213.749994292259,8|8,0:0|0:0,0:0:0:0:
438,195,111102,69,8,0:0:0:0:
338,57,111252,1,8,0:0:0:0:
418,207,111402,1,8,0:0:0:0:
359,46,111552,1,8,0:0:0:0:
380,219,111702,6,0,B|352:266|385:309|385:309|384:380|384:380|345:347,1,213.749994292259,8|8,0:0|0:0,0:0:0:0:
443,259,112302,70,0,P|478:251|517:262,1,71.2499980974198,8|8,0:0|0:0,0:0:0:0:
348,350,112602,2,0,P|313:358|274:347,1,71.2499980974198,8|8,0:0|0:0,0:0:0:0:
115,266,112902,5,8,0:0:0:0:
83,262,112977,1,0,0:0:0:0:
58,281,113052,1,8,0:0:0:0:
50,311,113127,1,0,0:0:0:0:
61,341,113202,5,8,0:0:0:0:
87,360,113277,1,0,0:0:0:0:
118,364,113352,1,8,0:0:0:0:
149,355,113427,1,0,0:0:0:0:
174,336,113502,69,8,0:0:0:0:
189,307,113577,1,0,0:0:0:0:
193,276,113652,1,8,0:0:0:0:
191,244,113727,1,0,0:0:0:0:
186,212,113802,6,0,L|148:195,3,35.6249990487099,8|0|8|0,0:0|0:0|0:0|0:0,0:0:0:0:
209,132,114102,2,0,L|247:114,3,35.6249990487099,8|0|8|0,0:0|0:0|0:0|0:0,0:0:0:0:
187,52,114402,2,0,L|148:34,3,35.6249990487099,8|0|8|0,0:0|0:0|0:0|0:0,0:0:0:0:
241,117,114702,69,8,0:0:0:0:
271,134,114777,1,8,0:0:0:0:
306,140,114852,1,8,0:0:0:0:
341,134,114927,1,8,0:0:0:0:
406,91,115002,6,0,P|444:76|410:120,1,142.49999619484,8|0,0:0|0:0,0:0:0:0:
131,127,117102,22,0,P|110:143|136:148,1,65.625,8|0,0:1|0:0,0:0:0:0:
131,127,117702,54,0,B|247:194|247:74|393:136,1,247.500007553101,4|0,0:0|0:0,0:0:0:0:
478,269,118302,5,10,0:0:0:0:
442,126,118452,1,10,0:0:0:0:
484,291,118602,1,10,0:0:0:0:
484,291,118902,69,8,0:0:0:0:
259,200,119202,2,0,L|346:192,1,82.5000025177003,0|0,0:0|0:0,0:0:0:0:
484,291,119502,5,8,0:0:0:0:
249,193,119802,2,0,L|366:183,1,97.4999955368044,0|0,0:0|0:0,0:0:0:0:
238,186,120102,70,0,L|403:173,1,165.000005035401,8|0,0:0|0:0,0:0:0:0:
223,173,120702,5,8,0:0:0:0:
415,187,121002,2,0,L|397:274,1,82.5000025177003,0|0,0:0|0:0,0:0:0:0:
369,384,121302,1,2,0:0:0:0:
208,305,121602,1,2,0:0:0:0:
512,203,121902,69,10,0:0:0:0:
385,235,122052,1,10,0:0:0:0:
509,186,122202,1,10,0:0:0:0:
382,218,122352,1,10,0:0:0:0:
413,77,122502,6,0,B|297:144|297:24|151:86,1,247.500007553101,4|0,0:1|0:0,0:0:0:0:
66,219,123102,69,10,0:0:0:0:
102,76,123252,1,10,0:0:0:0:
62,254,123402,1,10,0:0:0:0:
62,254,123702,5,8,0:0:0:0:
287,163,124002,2,0,L|200:155,1,82.5000025177003,0|0,0:0|0:0,0:0:0:0:
62,254,124302,69,8,0:0:0:0:
297,156,124602,2,0,L|180:146,1,97.4999955368044,8|0,0:0|0:0,0:0:0:0:
308,149,124902,6,0,L|143:136,1,165.000005035401,8|0,0:0|0:0,0:0:0:0:
324,138,125502,69,8,0:0:0:0:
130,149,125802,2,0,L|147:257,1,82.5000025177003,8|0,0:0|0:0,0:0:0:0:
164,356,126102,1,2,0:0:0:0:
306,203,126402,1,6,0:3:0:0:
33,133,126702,5,10,0:0:0:0:
177,171,126852,1,10,0:0:0:0:
44,93,127002,1,10,0:0:0:0:
187,132,127152,1,10,0:0:0:0:
23,22,127302,70,0,B|90:138|-30:138|32:284,1,247.500007553101,4|0,0:1|0:0,0:0:0:0:
166,292,127902,5,10,0:0:0:0:
22,259,128052,1,10,0:0:0:0:
201,296,128202,1,10,0:0:0:0:
201,296,128502,69,8,0:0:0:0:
73,111,128802,2,0,L|81:198,1,82.5000025177003,0|0,0:0|0:0,0:0:0:0:
201,296,129102,5,8,0:0:0:0:
80,101,129402,2,0,L|90:218,1,97.4999955368044,0|0,0:0|0:0,0:0:0:0:
87,90,129702,70,0,L|100:255,1,165.000005035401,8|0,0:0|0:0,0:0:0:0:
103,76,130302,5,0,0:0:0:0:
95,270,130602,2,0,P|134:277|187:263,1,82.5000025177003,8|0,0:0|0:0,0:0:0:0:
284,200,130902,1,2,0:0:0:0:
48,161,131202,1,2,0:0:0:0:
375,112,131502,69,10,0:0:0:0:
231,150,131652,1,10,0:0:0:0:
364,72,131802,1,10,0:0:0:0:
221,111,131952,1,10,0:0:0:0:
385,1,132102,6,0,B|318:117|438:117|376:263,1,247.500007553101,4|0,0:1|0:0,0:0:0:0:
242,271,132702,69,10,0:0:0:0:
386,238,132852,1,10,0:0:0:0:
207,275,133002,1,10,0:0:0:0:
207,275,133302,5,8,0:0:0:0:
335,90,133602,2,0,L|327:177,1,82.5000025177003,0|0,0:0|0:0,0:0:0:0:
207,275,133902,69,8,0:0:0:0:
328,80,134202,2,0,L|318:197,1,97.4999955368044,0|0,0:0|0:0,0:0:0:0:
321,69,134502,6,0,L|308:234,1,165.000005035401,8|2,0:0|0:0,0:0:0:0:
311,59,135102,69,8,0:0:0:0:
319,251,135402,2,0,P|362:264|413:251,1,82.5000025177003,2|0,0:0|0:0,0:0:0:0:
485,168,135702,2,0,L|462:345,1,165.000005035401,8|4,0:0|0:3,0:0:0:0:
398,258,136152,2,0,L|411:163,1,82.5000025177003,0|10,0:0|0:0,0:0:0:0:
437,1,136452,5,10,0:0:0:0:
336,36,136602,1,10,0:0:0:0:
419,105,136752,1,10,0:0:0:0:
216,136,136902,54,0,P|195:190|220:256,1,127.50000243187,4|0,0:0|0:0,0:0:0:0:
327,275,137352,69,0,0:0:0:0:
248,322,137502,2,0,P|216:329|183:321,1,63.7500012159348,2|0,0:0|0:0,0:0:0:0:
327,275,137802,2,0,P|358:267|392:276,1,63.7500012159348,2|0,0:3|0:0,0:0:0:0:
248,322,138102,2,0,P|233:255|270:201,1,127.50000243187,2|0,0:0|0:0,0:0:0:0:
377,122,138552,5,0,0:0:0:0:
350,207,138702,1,0,0:0:0:0:
261,207,138852,1,0,0:0:0:0:
233,122,139002,1,0,0:0:0:0:
305,69,139152,1,0,0:0:0:0:
350,207,139302,69,4,0:1:0:0:
350,207,139452,2,0,L|338:382,1,150,0|0,0:0|0:0,0:0:0:0:
215,301,139902,5,2,0:0:0:0:
215,301,140052,1,0,0:0:0:0:
118,342,140202,1,2,0:3:0:0:
118,342,140352,1,0,0:0:0:0:
41,270,140502,1,2,0:0:0:0:
41,270,140652,2,0,P|19:194|56:128,1,150,0|0,0:0|0:0,0:0:0:0:
185,78,141102,69,2,0:0:0:0:
145,173,141252,1,2,0:0:0:0:
49,133,141402,1,2,0:0:0:0:
89,35,141552,1,2,0:0:0:0:
145,173,141702,5,4,0:1:0:0:
49,133,141852,1,0,0:0:0:0:
89,35,142002,2,0,B|191:100|191:-19|332:61,1,225,0|0,0:0|0:0,0:0:0:0:
394,98,142602,69,2,0:3:0:0:
304,151,142752,1,0,0:0:0:0:
304,46,142902,2,0,L|304:123,1,75,0|0,0:0|0:0,0:0:0:0:
305,329,143202,5,0,0:0:0:0:
305,329,143352,1,0,0:0:0:0:
207,290,143502,1,0,0:0:0:0:
207,290,143652,1,0,0:0:0:0:
111,246,143802,1,0,0:0:0:0:
111,246,143952,1,0,0:0:0:0:
292,221,144102,69,4,0:1:0:0:
305,329,144252,1,0,0:0:0:0:
224,193,144402,2,0,P|278:149|355:183,1,150,0|0,0:0|0:0,0:0:0:0:
211,301,145002,5,2,0:3:0:0:
224,193,145152,1,0,0:0:0:0:
143,329,145302,2,0,P|197:373|274:339,1,150,8|0,0:0|0:0,0:0:0:0:
474,193,145902,2,0,P|420:149|343:183,1,150,2|0,0:0|0:0,0:0:0:0:
300,284,146352,69,0,0:0:0:0:
224,237,146502,2,0,L|199:179,1,63.7500012159348,2|0,0:0|0:0,0:0:0:0:
137,244,146802,2,0,L|75:217,1,63.7500012159348,2|0,0:0|0:0,0:0:0:0:
65,307,147102,2,0,L|-19:321,1,63.7500012159348,2|0,0:0|0:0,0:0:0:0:
117,366,147402,5,2,0:0:0:0:
137,244,147552,1,2,0:0:0:0:
233,321,147702,2,0,P|267:328|305:314,1,63.7500012159348,2|0,0:0|0:0,0:0:0:0:
372,255,148002,2,0,L|361:394,2,127.50000243187,0|2|2,0:0|0:0|0:3,0:0:0:0:
387,46,148902,70,0,L|381:129,1,63.7500012159348,2|2,0:0|0:0,0:0:0:0:
399,34,149202,2,0,L|393:117,1,63.7500012159348,0|0,0:0|0:0,0:0:0:0:
309,205,149502,6,0,L|303:122,1,63.7500012159348,2|0,0:0|0:0,0:0:0:0:
321,217,149802,2,0,L|315:134,1,63.7500012159348,2|0,0:3|0:0,0:0:0:0:
228,40,150102,70,0,L|222:123,1,63.7500012159348,2|8,0:0|0:0,0:0:0:0:
240,28,150402,2,0,L|234:111,1,63.7500012159348,2|0,0:3|0:0,0:0:0:0:
150,199,150702,6,0,P|152:164|141:127,1,63.7500012159348,8|2,0:0|0:3,0:0:0:0:
11,230,151002,2,0,P|8:264|20:302,1,63.7500012159348,0|0,0:0|0:0,0:0:0:0:
150,199,151302,2,0,L|-12:236,1,142.49999619484,8|0,0:0|0:0,0:0:0:0:
290,277,151902,70,0,P|294:241|281:199,1,71.2499980974198,2|0,0:3|0:0,0:0:0:0:
151,302,152202,2,0,P|144:336|156:374,1,71.2499980974198
290,271,152502,2,0,L|128:308,1,142.49999619484,2|0,0:3|0:0,0:0:0:0:
353,185,153102,6,0,P|356:148|344:113,1,71.2499980974198,8|0,0:0|0:0,0:0:0:0:
214,216,153402,2,0,P|206:249|221:292,1,71.2499980974198
376,363,153702,1,8,0:0:0:0:
119,293,153852,5,8,0:0:0:0:
284,245,154002,1,8,0:0:0:0:
161,127,154152,2,0,L|165:179,1,35.6249990487099,8|8,0:0|0:0,0:0:0:0:
189,338,154302,69,8,0:0:0:0:
370,285,154452,1,8,0:0:0:0:
235,155,154602,1,8,0:0:0:0:
246,384,154752,2,0,L|293:375,1,35.6249990487099,8|0,0:0|0:0,0:0:0:0:
490,317,154902,5,8,0:0:0:0:
237,279,155052,1,10,0:0:0:0:
512,178,155202,1,8,0:0:0:0:
235,155,155352,1,8,0:0:0:0:
435,12,155502,69,8,0:0:0:0:
452,44,155577,1,8,0:0:0:0:
457,79,155652,1,8,0:0:0:0:
449,114,155727,1,8,0:0:0:0:
430,144,155802,5,8,0:0:0:0:
423,179,155877,1,8,0:0:0:0:
428,214,155952,1,8,0:0:0:0:
444,246,156027,1,8,0:0:0:0:
506,294,156102,69,2,0:0:0:0:
131,127,160302,38,0,P|110:143|136:148,1,65.625,8|0,0:1|0:0,0:0:0:0:
135,148,160902,54,0,B|135:305|135:305|188:218,1,247.500007553101,4|0,0:0|0:0,0:0:0:0:
199,80,161502,5,10,0:0:0:0:
56,116,161652,1,10,0:0:0:0:
221,74,161802,1,10,0:0:0:0:
221,74,162102,69,8,0:0:0:0:
154,276,162402,2,0,P|141:235|154:188,1,82.5000025177003,0|0,0:0|0:0,0:0:0:0:
221,74,162702,5,8,0:0:0:0:
146,280,163002,2,0,P|133:239|151:179,1,97.4999955368044,0|0,0:0|0:0,0:0:0:0:
140,287,163302,70,0,P|125:243|184:142,1,165.000005035401,8|0,0:0|0:0,0:0:0:0:
405,87,163902,5,0,0:0:0:0:
311,267,164202,2,0,P|300:225|319:178,1,82.5000025177003,8|0,0:0|0:0,0:0:0:0:
405,87,164502,1,2,0:0:0:0:
177,145,164802,1,2,0:0:0:0:
378,283,165102,69,10,0:0:0:0:
230,314,165252,1,10,0:0:0:0:
392,279,165402,1,10,0:0:0:0:
212,320,165552,1,10,0:0:0:0:
426,204,165702,6,0,B|426:361|426:361|373:274,1,247.500007553101,4|0,0:1|0:0,0:0:0:0:
362,136,166302,69,10,0:0:0:0:
505,172,166452,1,10,0:0:0:0:
340,130,166602,1,10,0:0:0:0:
340,130,166902,5,0,0:0:0:0:
407,332,167202,2,0,P|420:291|407:244,1,82.5000025177003,0|0,0:0|0:0,0:0:0:0:
340,130,167502,69,8,0:0:0:0:
415,336,167802,2,0,P|428:295|410:235,1,97.4999955368044,0|0,0:0|0:0,0:0:0:0:
421,343,168102,6,0,P|436:299|377:198,1,165.000005035401,8|0,0:0|0:0,0:0:0:0:
155,143,168702,69,8,0:0:0:0:
249,323,169002,2,0,P|260:281|241:234,1,82.5000025177003,8|0,0:0|0:0,0:0:0:0:
155,143,169302,1,2,0:0:0:0:
383,201,169602,1,2,0:0:0:0:
100,250,169902,5,10,0:0:0:0:
69,102,170052,1,10,0:0:0:0:
104,264,170202,1,10,0:0:0:0:
63,84,170352,1,10,0:0:0:0:
186,292,170502,70,0,B|107:336|29:292|29:292|51:268|118:243,1,247.500007553101,4|0,0:1|0:0,0:0:0:0:
247,234,171102,5,10,0:0:0:0:
211,377,171252,1,10,0:0:0:0:
253,212,171402,1,10,0:0:0:0:
253,212,171702,69,8,0:0:0:0:
455,145,172002,2,0,P|414:132|367:145,1,82.5000025177003,0|0,0:0|0:0,0:0:0:0:
253,212,172302,5,8,0:0:0:0:
459,137,172602,2,0,P|418:124|358:142,1,97.4999955368044,0|0,0:0|0:0,0:0:0:0:
466,131,172902,70,0,P|422:116|321:175,1,165.000005035401,8|0,0:0|0:0,0:0:0:0:
314,353,173502,5,0,0:0:0:0:
494,259,173802,2,0,P|452:248|405:267,1,82.5000025177003,8|0,0:0|0:0,0:0:0:0:
314,353,174102,1,2,0:0:0:0:
372,125,174402,1,2,0:0:0:0:
100,250,174702,69,10,0:0:0:0:
69,102,174852,1,10,0:0:0:0:
104,264,175002,1,10,0:0:0:0:
63,84,175152,1,10,0:0:0:0:
126,335,175302,6,0,B|206:342|206:342|261:288|261:288|352:302,1,247.500007553101,4|0,0:1|0:0,0:0:0:0:
502,241,175902,69,10,0:0:0:0:
466,384,176052,1,10,0:0:0:0:
508,219,176202,1,10,0:0:0:0:
508,219,176502,5,8,0:0:0:0:
325,45,176802,2,0,P|312:86|325:133,1,82.5000025177003,0|0,0:0|0:0,0:0:0:0:
508,219,177102,69,8,0:0:0:0:
317,41,177402,2,0,P|304:82|322:142,1,97.4999955368044,0|0,0:0|0:0,0:0:0:0:
311,34,177702,6,0,P|296:78|355:179,1,165.000005035401,8|0,0:0|0:0,0:0:0:0:
512,277,178302,69,8,0:0:0:0:
348,175,178602,2,0,P|333:212|344:253,1,82.5000025177003,2|0,0:0|0:0,0:0:0:0:
421,353,178902,1,8,0:0:0:0:
223,289,179202,1,4,0:3:0:0:
492,205,179502,5,10,0:0:0:0:
344,174,179652,1,10,0:0:0:0:
506,209,179802,1,10,0:0:0:0:
326,168,179952,1,10,0:0:0:0:
507,210,180102,6,0,P|509:261|467:211,1,157.499995193482,2|0,0:0|0:0,0:0:0:0:
500,71,180702,53,14,0:0:0:0:
464,214,180852,1,10,0:0:0:0:
502,53,181002,1,10,0:0:0:0:
502,53,181302,6,0,L|461:226,2,165.000005035401,4|0|8,0:1|0:0|0:0,0:0:0:0:
285,77,182202,2,0,P|245:87|205:77,1,82.5000025177003,8|0,0:0|0:0,0:0:0:0:
79,26,182502,2,0,L|38:199,2,165.000005035401,8|2|8,0:0|0:0|0:0,0:0:0:0:
285,77,183402,2,0,L|244:250,2,165.000005035401,8|2|2,0:0|0:0|0:3,0:0:0:0:
316,295,184302,69,10,0:0:0:0:
168,264,184452,1,10,0:0:0:0:
330,299,184602,1,10,0:0:0:0:
150,258,184752,1,10,0:0:0:0:
352,307,184902,6,0,P|358:359|316:309,1,165.000005035401,4|0,0:1|0:0,0:0:0:0:
358,72,185502,69,10,0:0:0:0:
322,215,185652,1,10,0:0:0:0:
360,54,185802,1,10,0:0:0:0:
309,311,186102,6,0,P|380:344|468:298,2,165.000005035401,8|0|8,0:0|0:0|0:0,0:0:0:0:
255,112,187002,2,0,L|242:209,1,82.5000025177003,8|0,0:0|0:0,0:0:0:0:
203,311,187302,2,0,P|132:344|44:298,1,165.000005035401,0|0,0:0|0:0,0:0:0:0:
20,143,187902,69,0,0:0:0:0:
197,223,188202,2,0,L|202:308,1,82.5000025177003,8|0,0:0|0:0,0:0:0:0:
92,173,188502,1,2,0:0:0:0:
276,256,188802,1,6,0:3:0:0:
205,26,189102,5,10,0:0:0:0:
174,174,189252,1,10,0:0:0:0:
47,99,189402,1,10,0:0:0:0:
226,108,189552,1,10,0:0:0:0:
103,257,189702,70,0,B|216:329|216:205|339:269,1,247.500007553101,4|0,0:1|0:0,0:0:0:0:
479,354,190302,5,10,0:0:0:0:
443,211,190452,1,10,0:0:0:0:
481,372,190602,1,10,0:0:0:0:
481,372,190902,69,8,0:0:0:0:
253,271,191202,2,0,L|349:265,1,82.5000025177003,0|0,0:0|0:0,0:0:0:0:
481,372,191502,5,8,0:0:0:0:
244,263,191802,2,0,L|365:255,1,97.4999955368044,8|0,0:0|0:0,0:0:0:0:
233,254,192102,70,0,L|411:243,1,165.000005035401,8|0,0:0|0:0,0:0:0:0:
219,243,192702,5,8,0:0:0:0:
414,260,193002,2,0,L|387:171,1,82.5000025177003,8|0,0:0|0:0,0:0:0:0:
344,64,193302,1,0,0:0:0:0:
219,243,193602,1,0,0:0:0:0:
497,179,193902,69,10,0:0:0:0:
349,148,194052,1,10,0:0:0:0:
446,33,194202,1,10,0:0:0:0:
419,182,194352,1,10,0:0:0:0:
265,98,194502,6,0,B|217:172|293:176|254:256,1,165.000005035401,0|0,0:0|0:0,0:0:0:0:
18,314,195102,69,10,0:0:0:0:
161,278,195252,1,10,0:0:0:0:
0,316,195402,1,10,0:0:0:0:
0,316,195702,5,8,0:0:0:0:
101,88,196002,2,0,L|107:184,1,82.5000025177003,0|0,0:0|0:0,0:0:0:0:
0,316,196302,69,8,0:0:0:0:
109,79,196602,2,0,L|117:200,1,97.4999955368044,8|0,0:0|0:0,0:0:0:0:
118,68,196902,6,0,L|129:246,1,165.000005035401,8|2,0:0|0:0,0:0:0:0:
129,54,197502,69,8,0:0:0:0:
121,253,197802,2,0,L|208:242,1,82.5000025177003,2|0,0:0|0:0,0:0:0:0:
346,223,198102,1,8,0:0:0:0:
150,158,198402,1,4,0:3:0:0:
416,104,198702,5,10,0:0:0:0:
255,60,198852,1,10,0:0:0:0:
433,78,199002,1,10,0:0:0:0:
245,83,199152,1,10,0:0:0:0:
402,126,199302,69,2,0:0:0:0:
