osu file format v14

[General]
AudioFilename: SEVENTEEN - Dont Wanna Cry.mp3
AudioLeadIn: 2000
PreviewTime: 55677
Countdown: 0
SampleSet: Soft
StackLeniency: 0.7
Mode: 0
LetterboxInBreaks: 0
WidescreenStoryboard: 0

[Editor]
Bookmarks: 102,9702,19302,28902,38502,48102,60102,79302,88902,98502,108102,117702,136902,146502,160902,180702,199302
DistanceSpacing: 1.4
BeatDivisor: 4
GridSize: 16
TimelineZoom: 3

[Metadata]
Title:Don't Wanna Cry
TitleUnicode:울고 싶지 않아
Artist:SEVENTEEN
ArtistUnicode:세븐틴
Creator:Euny
Version:MARE's Easy
Source:
Tags:My_Angel_RangE MARE Natsu PLEDIS ENTERTAINMENT 세븐틴 에스.쿱스 S.COUPS 우지 WOOZI 호시 HOSHI 민규 MINGYU 원우 WONWOO 버논 VERNON 승관 SEUNGKWAN 디노 DINO 준 JUN 도경 DK 조슈아 JOSHUA 정한 JEONGHAN 디에잇 THE8
BeatmapID:1368955
BeatmapSetID:618466

[Difficulty]
HPDrainRate:2.5
CircleSize:2
OverallDifficulty:2
ApproachRate:3
SliderMultiplier:1.46
SliderTickRate:1

[Events]
//Background and Video events
0,0,"bg111.jpg",0,0
Video,0,"Don't+Wanna+Cry.avi"
//Break Periods
2,55902,58542
2,115202,116142
2,137502,144942
2,156301,159342
//Storyboard Layer 0 (Background)
//Storyboard Layer 1 (Fail)
//Storyboard Layer 2 (Pass)
//Storyboard Layer 3 (Foreground)
//Storyboard Sound Samples

[TimingPoints]
102,600,4,2,55,30,1,0
102,-100,4,2,55,30,0,0
19302,-100,4,2,5,50,0,0
28902,-100,4,2,5,50,0,0
38502,-100,4,2,5,60,0,0
48102,-100,4,2,5,60,0,0
59502,-100,4,2,5,70,0,0
60102,-100,4,2,5,70,0,1
60702,-100,4,2,5,70,0,0
69702,-100,4,2,5,70,0,1
70302,-100,4,2,5,70,0,0
78777,-100,4,2,5,5,0,0
78852,-100,4,2,5,70,0,0
78927,-100,4,2,5,5,0,0
79002,-100,4,2,5,70,0,0
79077,-100,4,2,5,5,0,0
79152,-100,4,2,5,70,0,0
79227,-100,4,2,5,5,0,0
79302,-100,4,2,5,33,0,0
79902,-100,4,2,5,40,0,0
88902,-100,4,2,55,40,0,0
89502,-100,4,2,5,40,0,0
90102,-100,4,2,55,40,0,0
90702,-100,4,2,5,40,0,0
91302,-100,4,2,55,40,0,0
91902,-100,4,2,5,40,0,0
93102,-100,4,2,5,40,0,0
93702,-100,4,2,55,40,0,0
94302,-100,4,2,5,40,0,0
94902,-100,4,2,55,40,0,0
95502,-100,4,2,5,40,0,0
96102,-100,4,2,55,40,0,0
96702,-100,4,2,5,40,0,0
98502,-100,4,2,5,60,0,0
108102,-100,4,2,5,60,0,0
117102,-100,4,2,5,60,0,0
117702,-100,4,2,5,70,0,1
118302,-100,4,2,5,70,0,0
127302,-100,4,2,5,70,0,1
127902,-100,4,2,5,70,0,0
136377,-100,4,2,5,5,0,0
136452,-100,4,2,5,70,0,0
136527,-100,4,2,5,5,0,0
136602,-100,4,2,5,70,0,0
136677,-100,4,2,5,5,0,0
136752,-100,4,2,5,70,0,0
136827,-100,4,2,5,5,0,0
136902,-100,4,2,5,70,0,1
137502,-100,4,2,55,70,0,1
137802,-100,4,2,5,70,0,1
137877,-100,4,2,55,70,0,1
138102,-100,4,2,5,70,0,0
138777,-100,4,2,55,70,0,0
139002,-100,4,2,5,70,0,0
139452,-100,4,2,5,70,0,0
139902,-100,4,2,55,70,0,0
140202,-100,4,2,5,70,0,0
141102,-100,4,2,55,70,0,0
142602,-100,4,2,5,70,0,0
143577,-100,4,2,55,70,0,0
144102,-100,4,2,5,70,0,0
144777,-100,4,2,55,70,0,0
145002,-100,4,2,5,70,0,0
145902,-100,4,2,55,70,0,0
146502,-100,4,2,55,50,0,0
148602,-100,4,2,5,50,0,0
148902,-100,4,2,55,50,0,0
149052,-100,4,2,5,50,0,0
149502,-100,4,2,55,50,0,0
149802,-100,4,2,5,50,0,0
150102,-100,4,2,55,50,0,0
150252,-100,4,2,5,50,0,0
151302,-100,4,2,5,70,0,0
156102,-100,4,2,55,70,0,0
160302,-100,4,2,5,70,0,0
160902,-100,4,2,5,70,0,1
161502,-100,4,2,5,70,0,0
170502,-100,4,2,5,70,0,1
171102,-100,4,2,5,70,0,0
180102,-100,4,2,55,70,0,0
180702,-100,4,2,5,70,0,1
181302,-100,4,2,5,70,0,0
189702,-100,4,2,5,70,0,1
190302,-100,4,2,5,70,0,0
199302,-100,4,2,55,70,0,0

[Colours]
Combo1 : 150,45,255
Combo2 : 255,0,128
Combo3 : 255,187,221
Combo4 : 255,249,252
Combo5 : 141,141,141
Combo6 : 208,162,255
SliderBorder : 255,187,221
SliderTrackOverride : 0,0,94

[HitObjects]
40,93,102,54,0,B|107:112|107:112|193:87,1,146,2|0,0:0|0:0,0:0:0:0:
253,19,1002,1,0,0:0:0:0:
316,99,1302,2,0,P|330:176|303:263,1,146,0|0,0:0|0:0,0:0:0:0:
229,297,2202,1,0,0:0:0:0:
303,367,2502,70,0,L|448:362,1,146
502,275,3402,1,0,0:0:0:0:
425,207,3702,2,0,B|407:174|407:174|418:38,1,146,0|2,0:0|0:0,0:0:0:0:
217,16,4902,6,0,L|229:194,1,146,2|0,0:0|0:0,0:0:0:0:
319,205,5802,1,0,0:0:0:0:
293,304,6102,2,0,P|225:307|145:362,1,146,0|0,0:0|0:0,0:0:0:0:
62,377,7002,1,0,0:0:0:0:
8,290,7302,70,0,P|-1:227|25:130,1,146
40,47,8202,1,0,0:0:0:0:
135,84,8502,2,0,L|231:89,1,73,0|0,0:0|0:0,0:0:0:0:
295,34,9102,2,0,L|367:30,1,73,2|0,0:0|0:0,0:0:0:0:
445,97,9702,6,0,B|463:142|463:142|445:258,1,146,2|0,0:0|0:0,0:0:0:0:
386,320,10602,1,0,0:0:0:0:
298,267,10902,2,0,P|241:265|208:275,1,73,0|0,0:0|0:0,0:0:0:0:
154,341,11502,2,0,P|118:346|81:342,1,73,0|0,0:0|0:0,0:0:0:0:
24,257,12102,70,0,L|15:93,1,146
79,31,13002,1,0,0:0:0:0:
157,96,13302,2,0,P|212:97|234:94,1,73,0|0,0:0|0:0,0:0:0:0:
308,29,13902,2,0,P|329:65|331:100,1,73,0|0,0:0|0:0,0:0:0:0:
282,185,14502,6,0,P|261:262|277:346,1,146
361,372,15402,1,0,0:0:0:0:
441,309,15702,2,0,P|450:252|448:217,1,73,0|0,0:0|0:0,0:0:0:0:
380,161,16302,2,0,P|373:115|378:82,1,73,0|0,0:0|0:0,0:0:0:0:
439,8,16902,70,0,P|372:33|276:15,1,146
217,86,17802,1,0,0:0:0:0:
133,26,18102,2,0,P|113:68|125:123,1,73,0|0,0:0|0:0,0:0:0:0:
170,178,18702,2,0,P|178:211|164:264,1,73,0|0,0:0|0:0,0:0:0:0:
108,329,19302,6,0,P|163:309|278:333,1,146,4|2,0:1|0:0,0:0:0:0:
330,379,20202,1,0,0:0:0:0:
410,315,20502,2,0,B|432:279|432:279|421:142,1,146,0|2,0:0|0:0,0:0:0:0:
347,106,21402,1,0,0:0:0:0:
278,181,21702,70,0,B|209:196|209:196|117:180,1,146,0|2,0:0|0:0,0:0:0:0:
60,113,22602,1,0,0:0:0:0:
135,44,22902,2,0,B|204:29|204:29|278:41,1,146,0|2,0:0|0:0,0:0:0:0:
367,91,23802,1,0,0:0:0:0:
454,37,24102,6,0,B|476:84|476:84|460:206,1,146,0|2,0:0|0:0,0:0:0:0:
493,275,25002,1,0,0:0:0:0:
424,349,25302,2,0,B|384:338|384:338|278:354,1,146,0|2,0:0|0:0,0:0:0:0:
181,378,26202,1,0,0:0:0:0:
172,276,26502,70,0,L|347:250,1,146,0|2,0:0|0:0,0:0:0:0:
400,196,27402,1,0,0:0:0:0:
482,256,27702,2,0,P|501:193|453:107,1,146,0|2,0:0|0:0,0:0:0:0:
410,38,28602,1,0,0:0:0:0:
319,84,28902,6,0,L|145:81,1,146,0|2,0:0|0:0,0:0:0:0:
82,34,29802,1,0,0:0:0:0:
9,105,30102,2,0,L|14:210,1,73,0|0,0:0|0:0,0:0:0:0:
110,206,30702,2,0,L|106:278,1,73,2|0,0:0|0:0,0:0:0:0:
15,323,31302,70,0,L|12:153,1,146,0|2,0:0|0:0,0:0:0:0:
9,74,32202,1,0,0:0:0:0:
102,115,32502,2,0,L|208:109,1,73,0|0,0:0|0:0,0:0:0:0:
251,43,33102,2,0,L|323:47,1,73,2|0,0:0|0:0,0:0:0:0:
425,53,33702,6,0,L|414:219,1,146,0|2,0:0|0:0,0:0:0:0:
280,352,34902,2,0,L|270:206,1,146,0|2,0:0|0:0,0:0:0:0:
128,59,36102,2,0,L|118:220,1,146,0|2,0:0|0:0,0:0:0:0:
49,279,37002,1,0,0:0:0:0:
112,358,37302,2,0,L|279:355,1,146,0|2,0:0|0:0,0:0:0:0:
462,349,38502,6,0,B|474:298|474:298|466:196,1,146,4|4,0:0|0:3,0:0:0:0:
460,102,39402,1,4,0:3:0:0:
365,141,39702,2,0,L|375:317,1,146,2|4,0:3|0:3,0:0:0:0:
274,314,40602,1,4,0:3:0:0:
181,358,40902,6,0,P|175:293|229:220,1,146,4|4,0:3|0:3,0:0:0:0:
295,160,41802,1,4,0:3:0:0:
220,89,42102,2,0,B|181:69|181:69|50:81,1,146,4|4,0:3|0:3,0:0:0:0:
14,158,43002,1,4,0:3:0:0:
72,242,43302,70,0,L|240:225,1,146,4|4,0:1|0:3,0:0:0:0:
309,270,44202,1,4,0:3:0:0:
359,181,44502,2,0,B|347:140|347:140|360:17,1,146,2|4,0:3|0:3,0:0:0:0:
460,37,45402,1,2,0:3:0:0:
457,139,45702,6,0,B|469:180|469:180|456:303,1,146,4|4,0:3|0:3,0:0:0:0:
355,275,46602,1,4,0:3:0:0:
297,359,46902,2,0,L|134:362,1,146,0|4,0:0|0:3,0:0:0:0:
48,362,47802,1,4,0:3:0:0:
98,273,48102,70,0,P|105:202|78:120,1,146,4|8,0:2|0:0,0:0:0:0:
11,59,49002,1,8,0:0:0:0:
109,31,49302,2,0,L|185:31,1,73,8|8,0:0|0:0,0:0:0:0:
254,102,49902,2,0,L|357:98,1,73,8|8,0:0|0:0,0:0:0:0:
291,195,50502,6,0,L|137:200,1,146,8|8,0:0|0:0,0:0:0:0:
74,125,51402,1,8,0:0:0:0:
8,203,51702,2,0,L|13:303,1,73,8|8,0:0|0:0,0:0:0:0:
83,348,52302,2,0,L|168:343,1,73,8|8,0:0|0:0,0:0:0:0:
224,267,52902,70,0,L|315:262,2,73,8|8|8,0:0|0:0|0:0,0:0:0:0:
145,201,53802,2,0,L|50:203,2,73,8|8|8,0:0|0:0|0:0,0:0:0:0:
219,131,54702,2,0,L|312:127,1,73,8|8,0:0|0:0,0:0:0:0:
53,26,60102,22,0,P|80:79|59:176,1,146,4|10,0:0|0:0,0:0:0:0:
4,242,61002,2,0,P|-4:282|8:333,1,73,10|8,0:0|0:0,0:0:0:0:
197,366,61902,2,0,P|201:329|193:294,1,73,8|8,0:0|0:0,0:0:0:0:
138,209,62502,6,0,L|143:46,1,146,0|8,0:0|0:0,0:0:0:0:
235,19,63402,1,8,0:0:0:0:
312,86,63702,2,0,P|356:79|413:84,1,73,0|0,0:0|0:0,0:0:0:0:
456,152,64302,2,0,L|454:239,1,73,10|10,0:0|0:0,0:0:0:0:
387,302,64902,70,0,P|339:288|223:316,1,146,4|10,0:1|0:0,0:0:0:0:
163,364,65802,2,0,P|113:365|66:358,1,73,10|8,0:0|0:0,0:0:0:0:
17,171,66702,2,0,P|53:162|114:177,1,73,8|0,0:0|0:0,0:0:0:0:
154,243,67302,6,0,P|184:194|151:88,1,146,8|8,0:0|0:0,0:0:0:0:
77,66,68202,1,8,0:0:0:0:
22,263,68802,2,0,L|30:358,2,73,6|10|10,0:3|0:0|0:0,0:0:0:0:
98,194,69702,70,0,P|169:194|240:249,1,146,4|10,0:1|0:0,0:0:0:0:
297,311,70602,2,0,P|341:313|394:300,1,73,10|8,0:0|0:0,0:0:0:0:
479,135,71502,2,0,P|443:133|407:138,1,73,8|0,0:0|0:0,0:0:0:0:
327,203,72102,6,0,P|304:136|331:70,1,146,8|0,0:0|0:0,0:0:0:0:
430,45,73002,1,8,0:0:0:0:
479,135,73302,2,0,L|474:207,1,73,2|2,0:0|0:0,0:0:0:0:
403,281,73902,2,0,L|408:353,1,73,10|10,0:0|0:0,0:0:0:0:
305,351,74502,70,0,L|316:170,1,146,4|10,0:1|0:0,0:0:0:0:
328,104,75402,2,0,P|263:95|222:94,1,73,10|8,0:0|0:0,0:0:0:0:
69,11,76302,1,8,0:0:0:0:
8,93,76602,2,0,B|-1:121|-1:121|0:198,1,73,0|8,0:0|0:0,0:0:0:0:
96,344,77502,6,0,L|101:246,1,73,8|2,0:0|0:0,0:0:0:0:
100,66,78402,1,4,0:3:0:0:
176,133,78702,2,0,B|228:148|228:148|333:135,1,146,10|4,0:0|0:1,0:0:0:0:
485,16,79902,6,0,L|475:176,1,146,2|0,0:0|0:0,0:0:0:0:
509,258,80802,1,0,0:0:0:0:
436,329,81102,2,0,B|382:313|382:313|275:327,1,146,2|0,0:0|0:0,0:0:0:0:
134,194,82302,6,0,L|305:167,1,146,2|0,0:0|0:0,0:0:0:0:
333,84,83202,2,0,P|364:113|378:152,2,73,0|2|0,0:0|0:0|0:0,0:0:0:0:
239,43,84102,1,0,0:0:0:0:
49,118,84702,70,0,B|30:166|30:166|48:270,1,146,2|0,0:0|0:0,0:0:0:0:
11,355,85602,1,0,0:0:0:0:
111,372,85902,2,0,L|215:365,1,73,2|0,0:0|0:0,0:0:0:0:
249,288,86502,6,0,B|321:268|321:268|407:282,1,146,0|2,0:0|0:0,0:0:0:0:
445,192,87402,1,0,0:0:0:0:
344,170,87702,2,0,L|243:150,1,73,0|0,0:0|0:0,0:0:0:0:
171,139,88302,2,0,L|180:222,1,73,2|0,0:0|0:0,0:0:0:0:
99,275,88902,70,0,B|70:244|70:244|78:129,1,146,2|2,0:0|0:0,0:0:0:0:
67,38,89802,1,0,0:0:0:0:
158,82,90102,2,0,L|315:77,1,146,2|2,0:0|0:0,0:0:0:0:
394,30,91002,1,0,0:0:0:0:
464,103,91302,6,0,P|481:166|445:270,1,146,2|2,0:0|0:0,0:0:0:0:
380,303,92202,1,2,0:0:0:0:
292,250,92502,2,0,L|126:253,1,146,0|2,0:0|0:0,0:0:0:0:
73,324,93402,1,0,0:0:0:0:
8,245,93702,70,0,P|-1:178|39:86,1,146,2|2,0:0|0:0,0:0:0:0:
96,33,94602,1,0,0:0:0:0:
177,94,94902,2,0,B|221:105|256:97|256:97|290:89|342:100,1,146,2|2,0:0|0:0,0:0:0:0:
403,157,95802,1,0,0:0:0:0:
460,72,96102,6,0,P|502:137|475:227,1,146,2|2,0:0|0:0,0:0:0:0:
478,303,97002,1,0,0:0:0:0:
377,284,97302,2,0,B|306:271|306:271|228:287,1,146,0|0,0:0|0:0,0:0:0:0:
160,356,98202,1,0,0:0:0:0:
84,287,98502,6,0,P|73:223|97:135,1,146,4|4,0:0|0:3,0:0:0:0:
52,50,99402,1,4,0:3:0:0:
148,17,99702,2,0,L|322:21,1,146,2|4,0:3|0:3,0:0:0:0:
494,62,100902,6,0,B|506:106|506:106|480:236,1,146,4|4,0:3|0:3,0:0:0:0:
394,249,101802,1,4,0:3:0:0:
321,176,102102,2,0,B|251:163|251:163|153:174,1,146,4|4,0:3|0:3,0:0:0:0:
14,46,103302,70,0,P|-2:119|30:209,1,146,4|4,0:1|0:3,0:0:0:0:
29,287,104202,1,4,0:3:0:0:
124,323,104502,2,0,B|194:309|194:309|281:326,1,146,2|4,0:3|0:3,0:0:0:0:
470,306,105702,6,0,L|484:131,1,146,4|4,0:3|0:3,0:0:0:0:
488,58,106602,1,4,0:3:0:0:
393,96,106902,2,0,L|221:92,1,146,0|4,0:0|0:3,0:0:0:0:
54,24,108102,70,0,L|61:197,1,146,4|8,0:2|0:0,0:0:0:0:
12,261,109002,1,8,0:0:0:0:
65,348,109302,2,0,L|212:340,1,146,8|8,0:0|0:0,0:0:0:0:
296,284,110202,1,8,0:0:0:0:
372,351,110502,6,0,P|395:302|360:204,1,146,8|8,0:0|0:0,0:0:0:0:
314,132,111402,1,8,0:0:0:0:
229,190,111702,2,0,L|58:180,1,146,8|8,0:0|0:0,0:0:0:0:
32,93,112602,69,8,0:0:0:0:
119,41,112902,2,0,L|214:42,1,73,8|8,0:0|0:0,0:0:0:0:
277,98,113502,2,0,L|349:97,1,73,8|8,0:0|0:0,0:0:0:0:
423,25,114102,2,0,P|448:67|418:177,1,146,8|8,0:0|0:0,0:0:0:0:
469,254,115002,5,8,0:0:0:0:
50,349,117702,6,0,L|48:195,1,146,4|10,0:0|0:0,0:0:0:0:
13,106,118602,2,0,P|53:98|98:109,1,73,10|8,0:0|0:0,0:0:0:0:
266,197,119502,2,0,P|301:202|337:196,1,73,8|0,0:0|0:0,0:0:0:0:
365,97,120102,6,0,P|415:129|430:236,1,146,8|8,0:0|0:0,0:0:0:0:
480,302,121002,1,0,0:0:0:0:
395,359,121302,2,0,L|302:356,1,73,2|2,0:0|0:0,0:0:0:0:
238,297,121902,2,0,L|165:299,1,73,10|10,0:0|0:0,0:0:0:0:
75,349,122502,70,0,P|64:301|112:214,1,146,4|10,0:1|0:0,0:0:0:0:
191,161,123402,1,10,0:0:0:0:
149,67,123702,2,0,P|81:38|-3:79,1,146,8|8,0:0|0:0,0:0:0:0:
78,140,124602,1,8,0:0:0:0:
13,219,124902,6,0,L|21:387,1,146,8|8,0:0|0:0,0:0:0:0:
113,323,125802,1,8,0:0:0:0:
314,355,126402,2,0,L|400:351,2,73,6|10|10,0:3|0:0|0:0,0:0:0:0:
269,263,127302,70,0,L|91:253,1,146,4|10,0:1|0:0,0:0:0:0:
32,208,128202,2,0,P|18:178|27:106,1,73,10|8,0:0|0:0,0:0:0:0:
195,40,129102,2,0,L|277:39,1,73,8|0,0:0|0:0,0:0:0:0:
344,107,129702,2,0,P|360:180|335:276,1,146,8|0,0:0|0:0,0:0:0:0:
267,313,130602,5,8,0:0:0:0:
351,369,130902,2,0,P|393:375|446:361,1,73,2|2,0:0|0:0,0:0:0:0:
501,304,131502,2,0,P|511:268|502:210,1,73,10|10,0:0|0:0,0:0:0:0:
445,153,132102,70,0,P|378:155|286:129,1,146,4|10,0:1|0:0,0:0:0:0:
245,50,133002,1,10,0:0:0:0:
168,117,133302,2,0,L|173:288,1,146,8|8,0:0|0:0,0:0:0:0:
249,329,134202,1,0,0:0:0:0:
152,363,134502,6,0,B|81:355|81:355|0:377,1,146,8|8,0:0|0:0,0:0:0:0:
11,272,135402,2,0,L|160:227,1,146,2|4,0:0|0:3,0:0:0:0:
241,277,136302,2,0,L|317:285,1,73,10|10,0:0|0:0,0:0:0:0:
415,292,136902,1,4,0:0:0:0:
183,72,146502,38,0,L|361:65,2,146,2|2|2,0:0|0:0|0:0,0:0:0:0:
88,34,148002,1,0,0:0:0:0:
35,121,148302,2,0,L|40:217,1,73,2|2,0:0|0:3,0:0:0:0:
12,293,148902,6,0,B|61:321|61:321|179:322,1,146,2|2,0:0|0:0,0:0:0:0:
237,375,149802,2,0,L|406:373,1,146,2|2,0:3|0:3,0:0:0:0:
361,273,150702,2,0,L|268:276,1,73,8|0,0:0|0:0,0:0:0:0:
208,210,151302,70,0,B|188:168|188:168|215:60,1,146,8|2,0:0|0:3,0:0:0:0:
300,19,152202,1,0,0:0:0:0:
385,76,152502,2,0,B|409:172|409:172|389:214,1,146,2|8,0:3|0:0,0:0:0:0:
453,293,153402,1,0,0:0:0:0:
382,366,153702,6,0,L|217:366,1,146,8|8,0:0|0:0,0:0:0:0:
177,282,154602,1,8,0:0:0:0:
89,335,154902,2,0,P|74:281|124:193,1,146,8|8,0:0|0:0,0:0:0:0:
193,141,155802,2,0,P|203:73|195:42,1,73,8|2,0:0|0:0,0:0:0:0:
48,91,160902,6,0,L|215:84,1,146,4|10,0:0|0:0,0:0:0:0:
281,136,161802,2,0,P|286:187|274:223,1,73,10|8,0:0|0:0,0:0:0:0:
422,354,162702,2,0,P|416:311|426:267,1,73,8|0,0:0|0:0,0:0:0:0:
486,203,163302,2,0,P|501:140|474:51,1,146,8|0,0:0|0:0,0:0:0:0:
382,36,164202,5,8,0:0:0:0:
312,110,164502,2,0,P|307:152|312:186,1,73,2|2,0:0|0:0,0:0:0:0:
379,259,165102,2,0,P|384:295|379:331,1,73,10|10,0:0|0:0,0:0:0:0:
279,355,165702,70,0,L|108:350,1,146,4|10,0:1|0:0,0:0:0:0:
74,267,166602,1,10,0:0:0:0:
158,208,166902,2,0,P|184:143|161:58,1,146,0|8,0:0|0:0,0:0:0:0:
85,12,167802,1,0,0:0:0:0:
14,86,168102,6,0,L|18:255,1,146,8|8,0:0|0:0,0:0:0:0:
7,333,169002,1,8,0:0:0:0:
199,263,169602,2,0,P|251:256|283:261,2,73,2|10|10,0:0|0:0|0:0,0:0:0:0:
120,329,170502,70,0,B|100:286|100:286|111:157,1,146,4|10,0:1|0:0,0:0:0:0:
59,98,171402,1,10,0:0:0:0:
137,33,171702,2,0,B|210:19|210:19|313:40,1,146,8|8,0:0|0:0,0:0:0:0:
353,104,172602,1,0,0:0:0:0:
291,185,172902,6,0,L|306:351,1,146,8|0,0:0|0:0,0:0:0:0:
396,375,173802,1,8,0:0:0:0:
474,309,174102,2,0,P|481:241|472:204,1,73,2|2,0:0|0:0,0:0:0:0:
403,168,174702,2,0,P|395:132|396:95,1,73,10|10,0:0|0:0,0:0:0:0:
456,13,175302,70,0,P|388:35|298:18,1,146,4|10,0:1|0:0,0:0:0:0:
241,96,176202,2,0,P|188:86|156:91,1,73,10|8,0:0|0:0,0:0:0:0:
38,245,177102,2,0,P|72:250|120:242,1,73,8|0,0:0|0:0,0:0:0:0:
192,184,177702,6,0,P|211:232|174:327,1,146,8|8,0:0|0:0,0:0:0:0:
100,378,178602,1,2,0:0:0:0:
20,313,178902,2,0,L|11:218,1,73,8|4,0:0|0:3,0:0:0:0:
76,159,179502,2,0,L|82:86,2,73,10|10|2,0:0|0:0|0:0,0:0:0:0:
278,189,180702,69,14,0:0:0:0:
287,87,181002,2,0,L|183:91,1,73,10|4,0:0|0:1,0:0:0:0:
19,31,181902,2,0,B|3:58|3:58|6:120,1,73,8|8,0:0|0:0,0:0:0:0:
71,177,182502,6,0,L|242:166,1,146,8|8,0:0|0:0,0:0:0:0:
318,160,183402,1,8,0:0:0:0:
184,314,184002,2,0,L|96:313,2,73,2|10|10,0:3|0:0|0:0,0:0:0:0:
263,377,184902,70,0,P|284:322|248:235,1,146,4|10,0:1|0:0,0:0:0:0:
303,152,185802,1,10,0:0:0:0:
226,84,186102,2,0,L|80:86,1,146,8|8,0:0|0:0,0:0:0:0:
118,181,187002,2,0,L|202:180,1,73,8|0,0:0|0:0,0:0:0:0:
379,258,187902,6,0,P|387:292|372:357,1,73,0|8,0:0|0:0,0:0:0:0:
179,352,188802,2,0,L|84:345,2,73,6|10|10,0:3|0:0|0:0,0:0:0:0:
230,263,189702,2,0,P|242:212|223:104,1,146,4|10,0:1|0:0,0:0:0:0:
241,18,190602,1,10,0:0:0:0:
331,64,190902,70,0,P|402:51|486:67,1,146,8|8,0:0|0:0,0:0:0:0:
504,160,191802,1,8,0:0:0:0:
416,212,192102,2,0,B|385:220|385:220|248:212,1,146,8|8,0:0|0:0,0:0:0:0:
172,240,193002,1,8,0:0:0:0:
50,75,193602,2,0,L|51:173,2,73,0|10|10,0:0|0:0|0:0,0:0:0:0:
146,108,194502,6,0,P|217:121|309:85,1,146,0|10,0:0|0:0,0:0:0:0:
366,36,195402,1,10,0:0:0:0:
438,108,195702,2,0,L|423:280,1,146,8|8,0:0|0:0,0:0:0:0:
467,346,196602,1,8,0:0:0:0:
365,359,196902,70,0,L|194:347,1,146,8|8,0:0|0:0,0:0:0:0:
155,268,197802,1,2,0:0:0:0:
232,201,198102,2,0,P|241:150|231:109,1,73,8|4,0:0|0:3,0:0:0:0:
168,54,198702,2,0,P|127:48|65:57,1,73,10|10,0:0|0:0,0:0:0:0:
29,127,199302,1,2,0:0:0:0:
