osu file format v14

[General]
AudioFilename: SEVENTEEN - Dont Wanna Cry.mp3
AudioLeadIn: 2000
PreviewTime: 55677
Countdown: 0
SampleSet: Soft
StackLeniency: 0.2
Mode: 0
LetterboxInBreaks: 0
WidescreenStoryboard: 0

[Editor]
Bookmarks: 102,9702,19302,28902,38502,48102,60102,79302,88902,98502,108102,117702,136902,146502,160902,180702,199302
DistanceSpacing: 0.8
BeatDivisor: 8
GridSize: 32
TimelineZoom: 4.399998

[Metadata]
Title:Don't Wanna Cry
TitleUnicode:울고 싶지 않아
Artist:SEVENTEEN
ArtistUnicode:세븐틴
Creator:Euny
Version:Insane
Source:
Tags:My_Angel_RangE MARE Natsu PLEDIS ENTERTAINMENT 세븐틴 에스.쿱스 S.COUPS 우지 WOOZI 호시 HOSHI 민규 MINGYU 원우 WONWOO 버논 VERNON 승관 SEUNGKWAN 디노 DINO 준 JUN 도경 DK 조슈아 JOSHUA 정한 JEONGHAN 디에잇 THE8
BeatmapID:1368954
BeatmapSetID:618466

[Difficulty]
HPDrainRate:5.5
CircleSize:4
OverallDifficulty:7.5
ApproachRate:8.5
SliderMultiplier:2.5
SliderTickRate:1

[Events]
//Background and Video events
Video,0,"Don't+Wanna+Cry.avi"
0,0,"bg111.jpg",0,0
//Break Periods
2,9902,18027
2,55202,58827
2,115202,116427
2,156302,159627
//Storyboard Layer 0 (Background)
//Storyboard Layer 1 (Fail)
//Storyboard Layer 2 (Pass)
//Storyboard Layer 3 (Foreground)
//Storyboard Sound Samples

[TimingPoints]
102,600,4,2,55,30,1,0
102,-285.714285714286,4,2,55,30,0,0
4752,-285.714285714286,4,2,55,5,0,0
4902,-285.714285714286,4,2,55,30,0,0
19302,-181.818181818182,4,2,5,50,0,0
28902,-133.333333333334,4,2,5,50,0,0
38502,-117.647058823529,4,2,5,60,0,0
48102,-105.263157894737,4,2,5,60,0,0
59502,-285.714285714286,4,2,5,70,0,0
60102,-90.9090909090909,4,2,5,70,0,1
60702,-90.9090909090909,4,2,5,70,0,0
69702,-90.9090909090909,4,2,5,70,0,1
70302,-90.9090909090909,4,2,5,70,0,0
78777,-90.9090909090909,4,2,5,5,0,0
78852,-90.9090909090909,4,2,5,70,0,0
78927,-90.9090909090909,4,2,5,5,0,0
79002,-90.9090909090909,4,2,5,70,0,0
79077,-90.9090909090909,4,2,5,5,0,0
79152,-90.9090909090909,4,2,5,70,0,0
79227,-90.9090909090909,4,2,5,5,0,0
79302,-90.9090909090909,4,2,5,33,0,0
79902,-90.9090909090909,4,2,5,40,0,0
88902,-153.846153846155,4,2,55,40,0,0
89502,-153.846153846154,4,2,5,40,0,0
90102,-153.846153846154,4,2,55,40,0,0
90702,-153.846153846154,4,2,5,40,0,0
91302,-153.846153846154,4,2,55,40,0,0
91902,-153.846153846154,4,2,5,40,0,0
93102,-153.846153846154,4,2,5,40,0,0
93702,-153.846153846154,4,2,55,40,0,0
94302,-153.846153846154,4,2,5,40,0,0
94902,-153.846153846154,4,2,55,40,0,0
95502,-153.846153846154,4,2,5,40,0,0
96102,-153.846153846154,4,2,55,40,0,0
96702,-153.846153846154,4,2,5,40,0,0
98502,-117.647058823529,4,2,5,60,0,0
108102,-105.263157894737,4,2,5,60,0,0
117102,-285.714285714286,4,2,5,60,0,0
117702,-90.9090909090909,4,2,5,70,0,1
118302,-90.9090909090909,4,2,5,70,0,0
127302,-90.9090909090909,4,2,5,70,0,1
127902,-90.9090909090909,4,2,5,70,0,0
136377,-90.9090909090909,4,2,5,5,0,0
136452,-90.9090909090909,4,2,5,70,0,0
136527,-90.9090909090909,4,2,5,5,0,0
136602,-90.9090909090909,4,2,5,70,0,0
136677,-90.9090909090909,4,2,5,5,0,0
136752,-90.9090909090909,4,2,5,70,0,0
136827,-90.9090909090909,4,2,5,5,0,0
136902,-117.64705882353,4,2,5,70,0,1
137502,-117.64705882353,4,2,55,70,0,1
137802,-117.64705882353,4,2,5,70,0,1
137877,-117.64705882353,4,2,55,70,0,1
138102,-117.64705882353,4,2,5,70,0,0
138777,-117.64705882353,4,2,55,70,0,0
139002,-100,4,2,5,70,0,0
139452,-100,4,2,5,70,0,0
139902,-100,4,2,55,70,0,0
140202,-100,4,2,5,70,0,0
141102,-100,4,2,55,70,0,0
142602,-100,4,2,5,70,0,0
143577,-100,4,2,55,70,0,0
144102,-100,4,2,5,70,0,0
144777,-100,4,2,55,70,0,0
145002,-100,4,2,5,70,0,0
145902,-100,4,2,55,70,0,0
146502,-117.64705882353,4,2,55,50,0,0
148602,-117.64705882353,4,2,5,50,0,0
148902,-117.64705882353,4,2,55,50,0,0
149052,-117.64705882353,4,2,5,50,0,0
149502,-117.64705882353,4,2,55,50,0,0
149802,-117.64705882353,4,2,5,50,0,0
150102,-117.64705882353,4,2,55,50,0,0
150252,-117.64705882353,4,2,5,50,0,0
151302,-105.263157894737,4,2,5,70,0,0
156102,-105.263157894737,4,2,55,70,0,0
160302,-285.714285714286,4,2,5,70,0,0
160902,-90.9090909090909,4,2,5,70,0,1
161502,-90.9090909090909,4,2,5,70,0,0
170502,-90.9090909090909,4,2,5,70,0,1
171102,-90.9090909090909,4,2,5,70,0,0
180102,-90.9090909090909,4,2,55,70,0,0
180702,-90.9090909090909,4,2,5,70,0,1
181302,-90.9090909090909,4,2,5,70,0,0
189702,-90.9090909090909,4,2,5,70,0,1
190302,-90.9090909090909,4,2,5,70,0,0
199302,-90.9090909090909,4,2,55,70,0,0

[Colours]
Combo1 : 150,45,255
Combo2 : 255,0,128
Combo3 : 255,187,221
Combo4 : 255,249,252
Combo5 : 141,141,141
Combo6 : 208,162,255
SliderBorder : 255,187,221
SliderTrackOverride : 0,0,94

[HitObjects]
468,108,102,38,0,L|520:96,2,43.749998664856,2|0|0,0:0|0:0|0:0,0:0:0:0:
384,96,1002,1,0,0:0:0:0:
356,172,1302,2,0,L|304:160,2,43.749998664856,0|0|0,0:0|0:0|0:0,0:0:0:0:
432,160,2202,1,0,0:0:0:0:
468,232,2502,6,0,L|510:222,2,43.749998664856
432,160,3402,1,0,0:0:0:0:
384,224,3702,1,0,0:0:0:0:
416,300,4002,1,0,0:0:0:0:
334,288,4302,70,0,P|302:288|271:279,1,65.624997997284,2|0,0:0|0:0,0:0:0:0:
252,264,4902,6,0,L|256:316,1,43.749998664856,2|0,0:0|0:0,0:0:0:0:
312,204,5502,1,0,0:0:0:0:
232,184,5802,1,0,0:0:0:0:
288,120,6102,70,0,L|252:92,2,43.749998664856
372,144,7002,2,0,L|406:117,2,43.749998664856,0|0|0,0:0|0:0|0:0,0:0:0:0:
340,64,7902,5,0,0:0:0:0:
411,16,8202,1,0,0:0:0:0:
480,64,8502,1,0,0:0:0:0:
448,142,8802,1,0,0:0:0:0:
366,144,9102,70,0,L|362:240,1,87.499997329712,2|2,0:0|0:0,0:0:0:0:
192,240,18702,85,0,0:0:0:0:
176,256,19002,1,0,0:0:0:0:
160,272,19302,6,0,P|144:241|141:207,1,68.7500020980836,4|0,0:1|0:0,0:0:0:0:
192,32,19902,2,0,L|160:48,1,34.3750010490418,2|0,0:0|0:0,0:0:0:0:
112,112,20202,1,0,0:0:0:0:
240,208,20502,69,0,0:0:0:0:
80,256,20802,1,0,0:0:0:0:
191,144,21102,2,0,P|196:110|189:76,1,68.7500020980836,2|0,0:0|0:0,0:0:0:0:
32,96,21702,6,0,L|32:48,2,34.3750010490418,0|0|0,0:0|0:0|0:0,0:0:0:0:
32,256,22302,2,0,L|32:304,2,34.3750010490418,2|0|0,0:0|0:0|0:0,0:0:0:0:
160,160,22902,2,0,P|175:189|166:221,1,68.7500020980836,0|0,0:0|0:0,0:0:0:0:
32,336,23502,1,2,0:0:0:0:
64,336,23802,1,0,0:0:0:0:
96,336,24102,70,0,P|96:301|112:271,1,68.7500020980836
229,131,24702,2,0,P|229:154|217:176,1,34.3750010490418,2|0,0:0|0:0,0:0:0:0:
160,208,25002,1,0,0:0:0:0:
320,192,25302,1,0,0:0:0:0:
224,48,25602,1,0,0:0:0:0:
144,208,25902,2,0,L|208:240,1,68.7500020980836,2|0,0:0|0:0,0:0:0:0:
352,304,26502,6,0,L|352:352,2,34.3750010490418,0|0|0,0:0|0:0|0:0,0:0:0:0:
352,144,27102,2,0,L|352:96,2,34.3750010490418,2|0|0,0:0|0:0|0:0,0:0:0:0:
509,222,27702,1,0,0:0:0:0:
284,184,28002,1,0,0:0:0:0:
415,90,28302,1,2,0:0:0:0:
421,258,28602,1,0,0:0:0:0:
236,123,28902,70,0,P|219:143|211:166,1,46.8750017881394
314,110,29202,2,0,P|306:86|285:60,1,46.8750017881394,0|0,0:0|0:0,0:0:0:0:
283,183,29502,2,0,P|306:189|329:189,1,46.8750017881394,2|0,0:0|0:0,0:0:0:0:
392,139,29802,1,0,0:0:0:0:
431,304,30102,2,0,L|477:291,1,46.8750017881394,0|0,0:0|0:0,0:0:0:0:
343,352,30402,2,0,L|397:368,1,46.8750017881394,0|0,0:0|0:0,0:0:0:0:
270,287,30702,2,0,L|316:274,1,46.8750017881394,2|0,0:0|0:0,0:0:0:0:
230,356,31002,1,0,0:0:0:0:
131,299,31302,6,0,L|139:350,1,46.8750017881394
78,213,31602,2,0,L|64:263,1,46.8750017881394,0|0,0:0|0:0,0:0:0:0:
123,118,31902,2,0,L|136:170,1,46.8750017881394,2|0,0:0|0:0,0:0:0:0:
51,60,32202,2,0,L|42:118,1,46.8750017881394,0|0,0:0|0:0,0:0:0:0:
129,23,32502,2,0,L|179:40,1,46.8750017881394,0|0,0:0|0:0,0:0:0:0:
253,60,32802,1,0,0:0:0:0:
176,208,33102,69,2,0:0:0:0:
192,224,33402,1,0,0:0:0:0:
207,240,33702,6,0,P|217:194|209:148,1,93.7500035762788
224,255,34302,2,0,P|256:224|271:176,1,93.7500035762788,2|0,0:0|0:0,0:0:0:0:
240,272,34902,2,0,P|282:257|317:221,2,93.7500035762788,0|0|2,0:0|0:0|0:0,0:0:0:0:
336,144,35802,69,0,0:0:0:0:
336,320,36102,1,0,0:0:0:0:
192,240,36402,1,0,0:0:0:0:
416,160,36702,5,2,0:0:0:0:
464,224,37002,1,0,0:0:0:0:
464,304,37302,1,0,0:0:0:0:
416,368,37602,1,0,0:0:0:0:
336,352,37902,70,0,B|328:328|328:328|336:304|336:304|328:280|328:280|336:256|336:256|326:232|326:232|336:208,1,140.625005364418,2|0,0:0|0:0,0:0:0:0:
331,219,38502,22,0,L|264:232,1,53.125001013279,4|0,0:0|0:0,0:0:0:0:
232,168,38802,1,0,0:0:0:0:
232,168,38952,1,4,0:3:0:0:
200,288,39102,2,0,P|196:261|201:235,1,53.125001013279,4|0,0:3|0:0,0:0:0:0:
304,72,39402,2,0,P|305:98|301:124,1,53.125001013279,4|0,0:3|0:0,0:0:0:0:
144,160,39702,5,2,0:3:0:0:
144,160,39852,2,0,P|157:136|162:111,1,53.125001013279,4|2,0:3|0:3,0:0:0:0:
74,217,40152,1,4,0:3:0:0:
74,217,40302,2,0,P|61:193|56:168,1,53.125001013279,4|0,0:3|0:0,0:0:0:0:
88,88,40602,1,4,0:3:0:0:
16,280,40902,70,0,P|64:304|120:296,1,106.250002026558,4|2,0:3|0:3,0:0:0:0:
216,232,41352,1,4,0:3:0:0:
216,232,41502,2,0,L|160:232,1,53.125001013279,4|0,0:3|0:0,0:0:0:0:
288,272,41802,2,0,L|248:312,1,53.125001013279,4|0,0:3|0:0,0:0:0:0:
376,264,42102,5,4,0:3:0:0:
376,264,42252,2,0,L|368:320,1,53.125001013279,4|0,0:3|0:0,0:0:0:0:
440,208,42552,1,4,0:3:0:0:
440,208,42702,2,0,L|463:259,1,53.125001013279,4|0,0:3|0:0,0:0:0:0:
504,320,43002,1,4,0:3:0:0:
361,185,43302,70,0,P|388:141|438:126,1,106.250002026558,4|0,0:1|0:0,0:0:0:0:
510,160,43752,1,4,0:3:0:0:
510,160,43902,2,0,L|511:96,1,53.125001013279,4|0,0:3|0:0,0:0:0:0:
511,27,44202,1,4,0:3:0:0:
298,30,44502,5,2,0:3:0:0:
298,30,44652,2,0,L|296:87,1,53.125001013279,4|2,0:3|0:3,0:0:0:0:
214,191,44952,1,4,0:3:0:0:
214,191,45102,2,0,L|216:134,1,53.125001013279,4|0,0:3|0:0,0:0:0:0:
217,59,45402,1,2,0:3:0:0:
253,264,45702,70,0,P|202:275|153:247,1,106.250002026558,4|0,0:3|0:0,0:0:0:0:
80,173,46152,1,4,0:3:0:0:
80,173,46302,2,0,L|136:174,1,53.125001013279,4|0,0:3|0:0,0:0:0:0:
213,191,46602,2,0,P|216:164|210:138,1,53.125001013279,4|0,0:3|0:0,0:0:0:0:
144,88,46902,1,0,0:0:0:0:
144,88,47052,1,0,0:0:0:0:
284,68,47202,6,0,L|208:52,1,53.125001013279,0|4,0:0|0:3,0:0:0:0:
364,120,47502,2,0,L|368:52,1,53.125001013279,4|0,0:3|0:0,0:0:0:0:
368,208,47802,2,0,L|432:176,1,53.125001013279,4|4,0:3|0:3,0:0:0:0:
278,265,48102,70,0,L|336:280,1,59.3749984145165,4|0,0:2|0:0,0:0:0:0:
288,180,48402,1,8,0:0:0:0:
288,344,48552,1,8,0:0:0:0:
124,248,48702,2,0,P|120:277|129:304,1,59.3749984145165,8|8,0:0|0:0,0:0:0:0:
200,268,49002,1,8,0:0:0:0:
43,266,49152,1,8,0:0:0:0:
140,156,49302,5,8,0:0:0:0:
140,156,49452,1,8,0:0:0:0:
42,147,49602,1,8,0:0:0:0:
42,147,49752,1,8,0:0:0:0:
171,73,49902,2,0,P|196:89|212:113,1,59.3749984145165,8|8,0:0|0:0,0:0:0:0:
209,258,50202,2,0,L|207:173,1,59.3749984145165,8|8,0:0|0:0,0:0:0:0:
272,312,50502,70,0,P|249:331|223:345,1,59.3749984145165,8|8,0:0|0:0,0:0:0:0:
144,368,50802,1,8,0:0:0:0:
144,368,50952,1,8,0:0:0:0:
343,239,51102,2,0,P|347:269|348:299,1,59.3749984145165,8|8,0:0|0:0,0:0:0:0:
328,372,51402,1,8,0:0:0:0:
328,372,51552,1,8,0:0:0:0:
420,200,51702,5,8,0:0:0:0:
420,340,51852,1,8,0:0:0:0:
348,152,52002,1,8,0:0:0:0:
348,152,52152,1,8,0:0:0:0:
480,96,52302,2,0,L|423:114,1,59.3749984145165,8|8,0:0|0:0,0:0:0:0:
296,44,52602,2,0,L|350:67,1,59.3749984145165,8|8,0:0|0:0,0:0:0:0:
216,15,52902,5,8,0:0:0:0:
207,44,52977,1,0,0:0:0:0:
210,73,53052,1,8,0:0:0:0:
223,99,53127,1,0,0:0:0:0:
248,116,53202,70,0,L|204:136,3,29.6874992072582,8|0|8|0,0:0|0:0|0:0|0:0,0:0:0:0:
248,208,53502,2,0,L|208:208,3,29.6874992072582,8|0|8|0,0:0|0:0|0:0|0:0,0:0:0:0:
168,284,53802,2,0,L|152:248,3,29.6874992072582,8|0|8|0,0:0|0:0|0:0|0:0,0:0:0:0:
211,356,54102,6,0,P|184:367|155:367,1,59.3749984145165,8|8,0:0|0:0,0:0:0:0:
76,288,54402,1,8,0:0:0:0:
76,288,54552,1,8,0:0:0:0:
13,219,54702,69,8,0:0:0:0:
37,202,54777,1,8,0:0:0:0:
66,195,54852,1,8,0:0:0:0:
95,198,54927,1,8,0:0:0:0:
121,211,55002,1,8,0:0:0:0:
121,211,59502,38,0,L|121:143,1,65.624997997284,8|0,0:1|0:0,0:0:0:0:
121,145,60102,54,0,P|99:71|157:121,1,206.250006294251,4|0,0:0|0:0,0:0:0:0:
200,192,60702,5,10,0:0:0:0:
200,200,60852,1,10,0:0:0:0:
200,208,61002,1,10,0:0:0:0:
264,56,61302,70,0,L|256:136,1,68.7500020980836,8|0,0:0|0:0,0:0:0:0:
296,256,61602,1,0,0:0:0:0:
312,272,61902,6,0,L|320:192,1,68.7500020980836,8|0,0:0|0:0,0:0:0:0:
384,56,62202,2,0,L|376:128,1,68.7500020980836,8|0,0:0|0:0,0:0:0:0:
400,272,62502,1,0,0:0:0:0:
424,280,62802,70,0,L|376:328,1,68.7500020980836
208,320,63102,2,0,L|272:344,1,68.7500020980836,8|0,0:0|0:0,0:0:0:0:
312,200,63402,2,0,L|304:296,1,68.7500020980836,8|0,0:0|0:0,0:0:0:0:
248,144,63702,5,0,0:0:0:0:
240,128,64002,1,0,0:0:0:0:
232,112,64302,69,10,0:0:0:0:
80,136,64452,1,10,0:0:0:0:
208,208,64602,1,10,0:0:0:0:
144,72,64752,1,10,0:0:0:0:
112,215,64903,6,0,P|17:192|4:96,1,206.250006294251,4|0,0:1|0:0,0:0:0:0:
64,40,65502,69,10,0:0:0:0:
64,32,65652,1,10,0:0:0:0:
64,24,65802,1,10,0:0:0:0:
240,128,66102,6,0,L|160:144,1,68.7500020980836,8|0,0:0|0:0,0:0:0:0:
24,144,66402,1,0,0:0:0:0:
8,152,66702,70,0,L|96:176,1,68.7500020980836,8|0,0:0|0:0,0:0:0:0:
200,256,67002,2,0,L|128:240,1,68.7500020980836,0|0,0:0|0:0,0:0:0:0:
0,240,67302,1,8,0:0:0:0:
0,256,67602,1,0,0:0:0:0:
0,272,67902,6,0,L|16:352,1,68.7500020980836,8|0,0:0|0:0,0:0:0:0:
104,376,68202,2,0,L|104:307,1,68.7500020980836,8|0,0:0|0:0,0:0:0:0:
112,199,68502,2,0,P|153:196|123:167,1,103.125003147125,2|0,0:0|0:0,0:0:0:0:
111,159,68802,2,0,L|192:176,1,68.7500020980836,6|0,0:3|0:0,0:0:0:0:
328,192,69102,69,10,0:0:0:0:
200,256,69252,1,10,0:0:0:0:
256,144,69402,1,10,0:0:0:0:
288,272,69552,1,10,0:0:0:0:
178,173,69702,6,0,P|200:79|298:70,1,206.250006294251,4|0,0:1|0:0,0:0:0:0:
365,102,70302,69,10,0:0:0:0:
365,110,70452,1,10,0:0:0:0:
365,118,70602,1,10,0:0:0:0:
400,256,70902,6,0,L|408:176,1,68.7500020980836,8|0,0:0|0:0,0:0:0:0:
472,72,71202,1,0,0:0:0:0:
496,64,71502,70,0,L|488:145,1,68.7500020980836,8|0,0:0|0:0,0:0:0:0:
418,335,71802,2,0,P|450:322|472:296,1,68.7500020980836,0|0,0:0|0:0,0:0:0:0:
344,311,72102,2,0,P|336:344|349:375,1,68.7500020980836,8|0,0:0|0:0,0:0:0:0:
320,240,72402,1,0,0:0:0:0:
320,216,72702,6,0,L|240:224,1,68.7500020980836,0|0,0:0|0:0,0:0:0:0:
368,136,73002,2,0,L|288:120,1,68.7500020980836,8|0,0:0|0:0,0:0:0:0:
405,215,73302,2,0,P|436:231|469:232,1,68.7500020980836,2|0,0:0|0:0,0:0:0:0:
440,16,73602,2,0,P|431:50|432:88,1,68.7500020980836,2|0,0:0|0:0,0:0:0:0:
504,74,73902,69,10,0:0:0:0:
360,48,74052,1,10,0:0:0:0:
456,152,74202,1,10,0:0:0:0:
440,16,74352,1,10,0:0:0:0:
368,135,74502,6,0,B|296:134|275:60|275:60|278:149,1,206.250006294251,4|0,0:1|0:0,0:0:0:0:
288,216,75102,69,10,0:0:0:0:
288,224,75252,1,10,0:0:0:0:
288,232,75402,1,10,0:0:0:0:
152,272,75702,6,0,P|185:277|219:270,1,68.7500020980836,8|0,0:0|0:0,0:0:0:0:
176,128,76002,1,0,0:0:0:0:
192,120,76302,70,0,B|184:200,1,68.7500020980836,8|0,0:0|0:0,0:0:0:0:
80,48,76602,2,0,L|96:120,1,68.7500020980836,0|0,0:0|0:0,0:0:0:0:
64,256,76902,6,0,L|48:176,1,68.7500020980836,8|0,0:0|0:0,0:0:0:0:
88,344,77202,2,0,L|-8:328,1,68.7500020980836,2|0,0:0|0:0,0:0:0:0:
192,312,77502,2,0,L|160:400,1,68.7500020980836,8|0,0:0|0:0,0:0:0:0:
264,248,77802,2,0,L|288:320,1,68.7500020980836,2|0,0:0|0:0,0:0:0:0:
200,184,78102,70,0,P|245:160|295:164,1,103.125003147125,8|0,0:0|0:0,0:0:0:0:
304,168,78402,2,0,P|293:135|292:101,1,68.7500020980836,4|0,0:3|0:0,0:0:0:0:
448,120,78702,2,0,L|376:120,2,68.7500020980836,10|10|10,0:0|0:0|0:0,0:0:0:0:
512,72,79152,1,10,0:0:0:0:
512,168,79302,21,4,0:1:0:0:
256,192,79902,5,2,0:0:0:0:
224,192,81102,69,2,0:0:0:0:
192,192,82302,5,2,0:0:0:0:
160,192,83502,69,2,0:0:0:0:
128,192,84702,5,2,0:0:0:0:
96,192,85902,69,2,0:0:0:0:
64,192,87102,5,2,0:0:0:0:
32,192,88302,69,2,0:0:0:0:
16,305,88902,6,0,L|18:353,2,40.6249981403352,2|2|2,0:0|0:0|0:0,0:0:0:0:
88,272,89352,1,2,0:0:0:0:
104,352,89502,70,0,P|163:362|224:352,1,121.874994421006,2|0,0:0|0:0,0:0:0:0:
272,288,90102,6,0,L|272:247,2,40.6249981403352,2|2|2,0:0|0:0|0:0,0:0:0:0:
352,288,90552,1,2,0:0:0:0:
312,360,90702,70,0,P|370:375|429:364,1,121.874994421006,2|0,0:0|0:0,0:0:0:0:
480,296,91302,6,0,L|512:336,2,40.6249981403352,2|2|2,0:0|0:0|0:0,0:0:0:0:
480,216,91752,1,0,0:0:0:0:
422,162,91902,70,0,P|404:186|399:216,1,60.9374972105028,2|0,0:0|0:0,0:0:0:0:
392,219,92202,2,0,L|362:191,1,40.6249981403352,2|0,0:0|0:0,0:0:0:0:
280,160,92502,6,0,B|256:216|304:216|280:280,1,121.874994421006
216,352,93102,1,2,0:0:0:0:
184,352,93402,1,0,0:0:0:0:
152,352,93702,70,0,L|152:296,2,40.6249981403352,2|2|2,0:0|0:0|0:0,0:0:0:0:
72,360,94152,1,0,0:0:0:0:
80,280,94302,6,0,P|88:220|66:164,1,121.874994421006,2|0,0:0|0:0,0:0:0:0:
24,96,94902,70,0,L|64:80,2,40.6249981403352,2|2|2,0:0|0:0|0:0,0:0:0:0:
16,16,95352,1,0,0:0:0:0:
97,16,95502,6,0,L|232:24,1,121.874994421006,2|0,0:0|0:0,0:0:0:0:
304,24,96102,70,0,P|291:51|287:81,1,60.9374972105028,2|0,0:0|0:0,0:0:0:0:
294,89,96402,2,0,L|350:73,1,40.6249981403352,0|0,0:0|0:0,0:0:0:0:
427,23,96702,2,0,P|433:83|423:151,1,121.874994421006,2|0,0:0|0:0,0:0:0:0:
352,281,97302,6,0,L|349:218,1,60.9374972105028
347,180,97602,1,0,0:0:0:0:
347,180,97752,2,0,P|341:240|287:186,1,162.499992561341,0|0,0:0|0:0,0:0:0:0:
285,105,98502,6,0,L|218:118,1,53.125001013279,4|0,0:0|0:0,0:0:0:0:
147,132,98802,1,0,0:0:0:0:
147,132,98952,1,4,0:3:0:0:
200,245,99102,2,0,P|204:219|201:192,1,53.125001013279,4|0,0:3|0:0,0:0:0:0:
64,99,99402,2,0,P|59:126|61:151,1,53.125001013279,4|0,0:3|0:0,0:0:0:0:
134,52,99702,5,2,0:3:0:0:
134,52,99852,2,0,P|115:33|91:21,1,53.125001013279,4|2,0:3|0:3,0:0:0:0:
211,73,100152,1,4,0:3:0:0:
211,72,100302,2,0,P|213:46|208:20,1,53.125001013279,4|0,0:3|0:0,0:0:0:0:
227,149,100602,1,4,0:3:0:0:
0,165,100902,70,0,P|48:189|104:181,1,106.250002026558,4|2,0:3|0:3,0:0:0:0:
236,180,101352,1,4,0:3:0:0:
236,180,101502,2,0,L|180:180,1,53.125001013279,4|0,0:3|0:0,0:0:0:0:
148,305,101802,2,0,P|139:280|143:248,1,53.125001013279,4|0,0:3|0:0,0:0:0:0:
279,271,102102,5,4,0:3:0:0:
279,271,102252,2,0,L|220:270,1,53.125001013279,4|0,0:3|0:0,0:0:0:0:
353,304,102552,1,4,0:3:0:0:
353,304,102702,2,0,P|338:326|310:345,1,53.125001013279,4|0,0:3|0:0,0:0:0:0:
343,223,103002,1,4,0:3:0:0:
375,25,103302,70,0,P|387:75|381:135,1,106.250002026558,4|0,0:1|0:0,0:0:0:0:
253,126,103752,1,4,0:3:0:0:
253,126,103902,2,0,L|307:144,1,53.125001013279,4|0,0:3|0:0,0:0:0:0:
425,200,104202,1,4,0:3:0:0:
286,353,104502,5,2,0:3:0:0:
286,353,104652,2,0,L|343:353,1,53.125001013279,4|2,0:3|0:3,0:0:0:0:
452,277,104952,1,4,0:3:0:0:
452,277,105102,2,0,L|394:276,1,53.125001013279,4|0,0:3|0:0,0:0:0:0:
309,270,105402,1,2,0:3:0:0:
89,351,105702,70,0,P|130:318|182:311,1,106.250002026558,4|0,0:3|0:0,0:0:0:0:
269,350,106152,1,4,0:3:0:0:
269,350,106302,2,0,L|263:293,1,53.125001013279,4|0,0:3|0:0,0:0:0:0:
223,185,106602,2,0,P|212:210|211:236,1,53.125001013279,4|0,0:3|0:0,0:0:0:0:
302,146,106902,1,0,0:0:0:0:
302,146,107052,1,0,0:0:0:0:
178,86,107202,6,0,L|229:96,1,53.125001013279,0|4,0:0|0:3,0:0:0:0:
104,25,107502,2,0,L|160:10,1,53.125001013279,4|0,0:3|0:0,0:0:0:0:
30,78,107802,2,0,L|83:104,1,53.125001013279,4|4,0:3|0:3,0:0:0:0:
206,168,108102,70,0,L|145:192,1,59.3749984145165,4|0,0:2|0:0,0:0:0:0:
66,213,108402,1,8,0:0:0:0:
246,236,108552,1,8,0:0:0:0:
139,360,108702,2,0,P|135:333|147:296,1,59.3749984145165,8|8,0:0|0:0,0:0:0:0:
218,333,109002,1,8,0:0:0:0:
54,351,109152,1,8,0:0:0:0:
109,209,109302,5,8,0:0:0:0:
109,209,109452,1,8,0:0:0:0:
0,272,109602,1,8,0:0:0:0:
0,272,109752,1,8,0:0:0:0:
142,129,109902,2,0,P|167:145|183:169,1,59.3749984145165,8|8,0:0|0:0,0:0:0:0:
230,287,110202,2,0,P|226:257|235:229,1,59.3749984145165,8|8,0:0|0:0,0:0:0:0:
348,157,110502,70,0,P|319:163|290:158,1,59.3749984145165,8|8,0:0|0:0,0:0:0:0:
318,77,110802,1,8,0:0:0:0:
318,77,110952,1,8,0:0:0:0:
183,32,111102,2,0,P|209:19|239:18,1,59.3749984145165,8|8,0:0|0:0,0:0:0:0:
227,104,111402,1,8,0:0:0:0:
227,104,111552,1,8,0:0:0:0:
211,271,111702,5,8,0:0:0:0:
123,142,111852,1,8,0:0:0:0:
114,273,112002,1,8,0:0:0:0:
114,273,112152,1,8,0:0:0:0:
44,170,112302,2,0,L|34:239,1,59.3749984145165,8|8,0:0|0:0,0:0:0:0:
39,39,112602,2,0,L|62:98,1,59.3749984145165,8|8,0:0|0:0,0:0:0:0:
155,287,112902,5,8,0:0:0:0:
185,285,112977,1,0,0:0:0:0:
211,271,113052,1,8,0:0:0:0:
230,250,113127,1,0,0:0:0:0:
237,220,113202,70,0,L|271:253,3,29.6874992072582,8|0|8|0,0:0|0:0|0:0|0:0,0:0:0:0:
286,155,113502,2,0,L|326:155,3,29.6874992072582,8|0|8|0,0:0|0:0|0:0|0:0,0:0:0:0:
329,83,113802,2,0,L|372:70,3,29.6874992072582,8|0|8|0,0:0|0:0|0:0|0:0,0:0:0:0:
370,3,114102,6,0,L|438:13,1,59.3749984145165,8|8,0:0|0:0,0:0:0:0:
457,90,114402,1,8,0:0:0:0:
457,90,114552,1,8,0:0:0:0:
258,137,114702,69,8,0:0:0:0:
243,111,114777,1,8,0:0:0:0:
239,81,114852,1,8,0:0:0:0:
245,53,114927,1,8,0:0:0:0:
261,28,115002,1,8,0:0:0:0:
261,28,117102,38,0,L|196:48,1,65.624997997284,8|0,0:1|0:0,0:0:0:0:
198,47,117702,54,0,B|220:22|220:22|193:208,1,206.250006294251,4|0,0:0|0:0,0:0:0:0:
178,268,118302,5,10,0:0:0:0:
178,276,118452,1,10,0:0:0:0:
178,284,118602,1,10,0:0:0:0:
71,258,118902,70,0,P|61:290|60:325,1,68.7500020980836,8|0,0:0|0:0,0:0:0:0:
245,346,119202,1,0,0:0:0:0:
264,360,119502,6,0,P|256:324|257:281,1,68.7500020980836,8|0,0:0|0:0,0:0:0:0:
352,168,119802,2,0,P|354:202|352:240,1,68.7500020980836,0|0,0:0|0:0,0:0:0:0:
351,360,120102,1,8,0:0:0:0:
372,360,120402,70,0,P|410:351|447:356,1,68.7500020980836
376,255,120702,2,0,P|415:260|447:278,1,68.7500020980836,8|0,0:0|0:0,0:0:0:0:
446,168,121002,2,0,P|478:190|500:220,1,68.7500020980836,0|0,0:0|0:0,0:0:0:0:
510,378,121302,5,2,0:0:0:0:
502,362,121602,1,2,0:0:0:0:
494,346,121902,69,10,0:0:0:0:
392,272,122052,1,10,0:0:0:0:
301,298,122202,1,10,0:0:0:0:
360,176,122352,1,10,0:0:0:0:
334,375,122503,6,0,P|239:352|230:253,1,206.250006294251,4|0,0:1|0:0,0:0:0:0:
272,192,123102,69,10,0:0:0:0:
272,184,123252,1,10,0:0:0:0:
272,176,123402,1,10,0:0:0:0:
320,40,123702,6,0,P|328:73|320:106,1,68.7500020980836,8|0,0:0|0:0,0:0:0:0:
152,72,124002,1,0,0:0:0:0:
136,56,124302,70,0,L|144:128,1,68.7500020980836,8|0,0:0|0:0,0:0:0:0:
112,272,124602,2,0,L|104:192,1,68.7500020980836,8|0,0:0|0:0,0:0:0:0:
24,24,124902,1,8,0:0:0:0:
24,40,125202,1,0,0:0:0:0:
24,56,125502,6,0,L|32:136,1,68.7500020980836,8|0,0:0|0:0,0:0:0:0:
32,256,125802,2,0,P|46:225|74:199,1,68.7500020980836,8|0,0:0|0:0,0:0:0:0:
140,343,126102,2,0,P|179:311|188:262,1,103.125003147125,2|0,0:0|0:0,0:0:0:0:
190,249,126402,2,0,P|230:272|271:263,1,68.7500020980836,6|0,0:3|0:0,0:0:0:0:
375,175,126702,69,10,0:0:0:0:
245,153,126852,1,10,0:0:0:0:
423,110,127002,1,10,0:0:0:0:
290,90,127152,1,10,0:0:0:0:
452,33,127302,6,0,P|508:111|451:189,1,206.250006294251,4|0,0:1|0:0,0:0:0:0:
375,175,127902,69,10,0:0:0:0:
367,175,128052,1,10,0:0:0:0:
359,176,128202,1,10,0:0:0:0:
252,256,128502,6,0,P|289:261|320:254,1,68.7500020980836,8|0,0:0|0:0,0:0:0:0:
246,102,128802,1,0,0:0:0:0:
231,91,129102,70,0,L|223:172,1,68.7500020980836,8|0,0:0|0:0,0:0:0:0:
157,284,129402,2,0,L|135:202,1,68.7500020980836,0|0,0:0|0:0,0:0:0:0:
71,95,129702,2,0,L|44:158,1,68.7500020980836,8|0,0:0|0:0,0:0:0:0:
0,300,130002,1,0,0:0:0:0:
0,332,130302,6,0,L|70:321,1,68.7500020980836,0|0,0:0|0:0,0:0:0:0:
227,364,130602,2,0,L|147:348,1,68.7500020980836,8|0,0:0|0:0,0:0:0:0:
301,261,130902,2,0,L|230:279,1,68.7500020980836,2|0,0:0|0:0,0:0:0:0:
398,354,131202,2,0,L|325:338,1,68.7500020980836,2|0,0:0|0:0,0:0:0:0:
480,312,131502,69,10,0:0:0:0:
418,189,131652,1,10,0:0:0:0:
382,273,131802,1,10,0:0:0:0:
512,195,131952,1,10,0:0:0:0:
315,330,132102,6,0,B|271:271|317:200|317:200|255:241,1,206.250006294251,4|0,0:1|0:0,0:0:0:0:
200,288,132702,69,10,0:0:0:0:
195,294,132852,1,10,0:0:0:0:
190,300,133002,1,10,0:0:0:0:
136,152,133302,6,0,L|136:224,1,68.7500020980836,8|0,0:0|0:0,0:0:0:0:
128,368,133602,1,0,0:0:0:0:
112,359,133902,70,0,P|78:368|45:362,1,68.7500020980836,8|0,0:0|0:0,0:0:0:0:
32,200,134202,2,0,L|16:280,1,68.7500020980836,0|0,0:0|0:0,0:0:0:0:
64,88,134502,6,0,L|-8:120,1,68.7500020980836,8|0,0:0|0:0,0:0:0:0:
168,24,134802,2,0,L|72:8,1,68.7500020980836,2|0,0:0|0:0,0:0:0:0:
296,56,135102,2,0,L|224:72,1,68.7500020980836,8|0,0:0|0:0,0:0:0:0:
376,88,135402,2,0,P|381:51|373:19,1,68.7500020980836,2|0,0:0|0:0,0:0:0:0:
344,168,135702,70,0,P|392:176|439:148,1,103.125003147125,8|0,0:0|0:0,0:0:0:0:
448,128,136002,2,0,L|440:208,1,68.7500020980836,4|0,0:3|0:0,0:0:0:0:
392,327,136302,2,0,L|392:247,2,68.7500020980836,10|10|10,0:0|0:0|0:0,0:0:0:0:
473,267,136752,1,10,0:0:0:0:
311,245,136902,54,0,L|312:352,1,106.250002026558,4|0,0:0|0:0,0:0:0:0:
233,361,137352,5,0,0:0:0:0:
172,282,137502,2,0,L|237:277,1,53.125001013279,2|0,0:0|0:0,0:0:0:0:
118,188,137802,2,0,L|174:203,1,53.125001013279,2|0,0:3|0:0,0:0:0:0:
75,104,138102,2,0,P|41:139|26:197,1,106.250002026558,2|0,0:0|0:0,0:0:0:0:
74,270,138552,69,2,0:0:0:0:
222,265,138702,2,0,L|171:281,1,53.125001013279,0|0,0:0|0:0,0:0:0:0:
258,181,139002,2,0,L|206:185,2,31.25,2|2|2,0:0|0:0|0:0,0:0:0:0:
340,218,139302,6,0,P|345:187|343:156,1,62.5,4|0,0:1|0:0,0:0:0:0:
277,67,139602,2,0,L|282:97,2,31.25,2|2|2,0:0|0:0|0:0,0:0:0:0:
146,46,139902,2,0,P|172:30|203:22,1,62.5,2|0,0:0|0:0,0:0:0:0:
5,114,140202,2,0,P|38:125|69:127,1,62.5,2|0,0:3|0:0,0:0:0:0:
58,22,140502,1,2,0:0:0:0:
148,130,140652,2,0,P|151:192|137:262,1,125,0|0,0:0|0:0,0:0:0:0:
69,314,141102,69,2,0:0:0:0:
69,314,141252,1,2,0:0:0:0:
156,351,141402,1,2,0:0:0:0:
156,351,141552,1,2,0:0:0:0:
229,273,141702,5,4,0:1:0:0:
139,253,141852,1,0,0:0:0:0:
250,359,142002,2,0,P|304:318|260:186,1,218.75,0|0,0:0|0:0,0:0:0:0:
267,189,142602,2,0,P|306:196|339:196,1,62.5,2|0,0:3|0:0,0:0:0:0:
445,126,142902,2,0,P|405:118|373:119,1,62.5,0|0,0:0|0:0,0:0:0:0:
430,275,143202,70,0,P|424:244|427:213,1,62.5
512,186,143502,1,0,0:0:0:0:
512,186,143652,1,0,0:0:0:0:
505,27,143802,2,0,P|513:54|516:88,1,62.5,0|0,0:0|0:0,0:0:0:0:
362,40,144102,6,0,L|429:32,1,62.5,4|0,0:1|0:0,0:0:0:0:
294,103,144402,2,0,L|369:128,1,62.5,0|0,0:0|0:0,0:0:0:0:
177,55,144702,2,0,L|107:70,1,62.5,0|0,0:0|0:0,0:0:0:0:
192,146,145002,1,2,0:3:0:0:
104,160,145152,1,0,0:0:0:0:
280,165,145302,70,0,B|275:120|275:120|251:99|251:99|271:61|252:15|252:15|281:19|291:39|291:39|280:67,1,218.75,8|0,0:0|0:0,0:0:0:0:
288,45,145902,2,0,P|341:112|453:99,1,187.5,2|0,0:0|0:0,0:0:0:0:
500,4,146502,6,0,L|494:68,1,53.125001013279,2|0,0:0|0:0,0:0:0:0:
512,193,146802,2,0,L|505:128,1,53.125001013279,2|0,0:0|0:0,0:0:0:0:
509,278,147102,1,2,0:0:0:0:
256,297,147402,69,2,0:0:0:0:
256,297,147552,1,2,0:0:0:0:
193,231,147702,2,0,P|267:207|330:251,1,159.375003039837,2|0,0:0|0:0,0:0:0:0:
432,335,148302,2,0,P|382:351|337:326,1,106.250002026558,2|2,0:0|0:3,0:0:0:0:
326,94,148902,5,2,0:0:0:0:
326,94,149052,2,0,L|315:217,1,106.250002026558,2|0,0:0|0:0,0:0:0:0:
228,5,149502,2,0,L|222:124,1,106.250002026558,2|2,0:0|0:3,0:0:0:0:
230,254,150102,2,0,L|224:182,2,53.125001013279,2|8|2,0:0|0:0|0:3,0:0:0:0:
151,151,150702,69,8,0:0:0:0:
151,151,150852,2,0,L|127:262,1,106.250002026558,2|0,0:3|0:0,0:0:0:0:
57,313,151302,1,8,0:0:0:0:
57,313,151452,2,0,L|46:243,1,59.3749984145165,2|0,0:0|0:0,0:0:0:0:
51,4,151902,6,0,L|27:131,1,118.749996829033,2|0,0:3|0:0,0:0:0:0:
7,194,152352,1,8,0:0:0:0:
7,194,152502,1,2,0:3:0:0:
95,183,152652,2,0,P|123:179|153:183,1,59.3749984145165,8|0,0:0|0:0,0:0:0:0:
390,221,153102,70,0,L|200:246,1,178.124995243549,8|0,0:0|0:0,0:0:0:0:
72,265,153702,1,8,0:0:0:0:
72,265,153852,1,8,0:0:0:0:
131,116,154002,6,0,L|135:185,1,59.3749984145165,8|8,0:0|0:0,0:0:0:0:
123,194,154227,1,8,0:0:0:0:
123,194,154302,2,0,P|68:177|50:179,1,59.3749984145165,8|8,0:0|0:0,0:0:0:0:
30,344,154602,5,8,0:0:0:0:
30,344,154752,1,8,0:0:0:0:
159,273,154902,1,8,0:0:0:0:
159,273,155052,1,10,0:0:0:0:
2,215,155202,1,8,0:0:0:0:
2,215,155352,1,8,0:0:0:0:
204,204,155502,70,0,L|215:167,3,29.6874992072582,8|8|8|8,0:0|0:0|0:0|0:0,0:0:0:0:
160,112,155802,2,0,L|140:80,3,29.6874992072582,8|8|8|8,0:0|0:0|0:0|0:0,0:0:0:0:
201,33,156102,1,2,0:0:0:0:
202,48,160302,38,0,P|248:60|274:53,1,76.562497663498,8|0,0:1|0:0,0:0:0:0:
274,53,160902,54,0,B|303:22|303:22|278:105|313:194,1,206.250006294251,4|0,0:0|0:0,0:0:0:0:
371,244,161502,5,10,0:0:0:0:
369,251,161652,1,10,0:0:0:0:
368,259,161802,1,10,0:0:0:0:
507,33,162102,70,0,P|509:2|479:5,1,68.7500020980836,8|0,0:0|0:0,0:0:0:0:
384,161,162402,1,0,0:0:0:0:
373,138,162702,6,0,L|292:136,1,68.7500020980836,8|0,0:0|0:0,0:0:0:0:
169,97,163002,2,0,L|244:78,1,68.7500020980836,0|0,0:0|0:0,0:0:0:0:
131,173,163302,1,8,0:0:0:0:
108,169,163602,70,0,L|122:236,1,68.7500020980836
23,113,163902,2,0,L|0:178,1,68.7500020980836,0|0,0:0|0:0,0:0:0:0:
85,0,164202,2,0,L|93:68,1,68.7500020980836,8|0,0:0|0:0,0:0:0:0:
0,6,164502,5,2,0:0:0:0:
0,27,164802,1,2,0:0:0:0:
0,44,165102,69,10,0:0:0:0:
66,191,165252,1,10,0:0:0:0:
146,79,165402,1,10,0:0:0:0:
0,134,165552,1,10,0:0:0:0:
147,161,165703,6,0,P|227:93|174:6,1,206.250006294251,4|0,0:1|0:0,0:0:0:0:
78,40,166302,69,10,0:0:0:0:
78,32,166452,1,10,0:0:0:0:
78,24,166602,1,10,0:0:0:0:
49,210,166902,6,0,P|39:243|42:277,1,68.7500020980836,0|0,0:0|0:0,0:0:0:0:
240,272,167202,1,0,0:0:0:0:
232,288,167502,70,0,L|147:268,1,68.7500020980836,8|0,0:0|0:0,0:0:0:0:
344,208,167802,2,0,L|272:192,1,68.7500020980836,0|0,0:0|0:0,0:0:0:0:
424,160,168102,1,8,0:0:0:0:
440,152,168402,1,0,0:0:0:0:
464,144,168702,6,0,L|368:120,1,68.7500020980836,8|0,0:0|0:0,0:0:0:0:
280,64,169002,2,0,L|352:56,1,68.7500020980836,8|0,0:0|0:0,0:0:0:0:
215,120,169302,2,0,P|192:79|206:16,1,103.125003147125,2|0,0:0|0:0,0:0:0:0:
213,20,169602,2,0,L|141:48,1,68.7500020980836,2|0,0:0|0:0,0:0:0:0:
0,102,169902,69,10,0:0:0:0:
96,224,170052,1,10,0:0:0:0:
16,184,170202,1,10,0:0:0:0:
176,192,170352,1,10,0:0:0:0:
83,74,170502,6,0,P|145:97|84:122,1,171.875005245209,4|0,0:1|0:0,0:0:0:0:
21,26,171102,69,10,0:0:0:0:
21,18,171252,1,10,0:0:0:0:
21,10,171402,1,10,0:0:0:0:
0,208,171702,6,0,P|-5:174|1:140,1,68.7500020980836,8|0,0:0|0:0,0:0:0:0:
144,176,172002,1,0,0:0:0:0:
159,167,172302,70,0,P|167:201|159:234,1,68.7500020980836,8|0,0:0|0:0,0:0:0:0:
40,312,172602,2,0,P|69:294|103:292,1,68.7500020980836,0|0,0:0|0:0,0:0:0:0:
240,344,172902,2,0,P|207:333|188:305,1,68.7500020980836,8|0,0:0|0:0,0:0:0:0:
336,232,173202,1,0,0:0:0:0:
360,216,173502,6,0,L|368:304,1,68.7500020980836,0|0,0:0|0:0,0:0:0:0:
440,376,173802,2,0,L|464:304,1,68.7500020980836,8|0,0:0|0:0,0:0:0:0:
472,152,174102,2,0,L|488:232,1,68.7500020980836,2|0,0:0|0:0,0:0:0:0:
440,16,174402,2,0,L|416:88,1,68.7500020980836,2|0,0:0|0:0,0:0:0:0:
344,160,174702,69,10,0:0:0:0:
240,64,174852,1,10,0:0:0:0:
240,160,175002,1,10,0:0:0:0:
344,64,175152,1,10,0:0:0:0:
272,231,175302,6,0,P|178:211|174:115,1,206.250006294251,4|0,0:1|0:0,0:0:0:0:
256,56,175902,69,10,0:0:0:0:
256,64,176052,1,10,0:0:0:0:
256,72,176202,1,10,0:0:0:0:
16,40,176502,6,0,P|49:31|82:37,1,68.7500020980836,8|0,0:0|0:0,0:0:0:0:
48,184,176802,1,0,0:0:0:0:
32,200,177102,70,0,B|112:176,1,68.7500020980836,8|0,0:0|0:0,0:0:0:0:
232,144,177402,2,0,L|152:120,1,68.7500020980836,0|0,0:0|0:0,0:0:0:0:
264,224,177702,6,0,P|292:204|309:175,1,68.7500020980836,8|0,0:0|0:0,0:0:0:0:
184,248,178002,2,0,P|201:277|229:296,1,68.7500020980836,0|0,0:0|0:0,0:0:0:0:
152,168,178302,2,0,P|123:186|106:216,1,68.7500020980836,8|0,0:0|0:0,0:0:0:0:
232,144,178602,2,0,P|216:113|188:93,1,68.7500020980836,2|0,0:0|0:0,0:0:0:0:
8,88,178902,70,0,L|128:96,1,103.125003147125,8|0,0:0|0:0,0:0:0:0:
104,96,179202,2,0,P|93:63|92:29,1,68.7500020980836,4|0,0:3|0:0,0:0:0:0:
184,48,179502,1,10,0:0:0:0:
248,104,179652,1,10,0:0:0:0:
264,24,179802,1,10,0:0:0:0:
176,136,179952,1,10,0:0:0:0:
328,72,180102,5,2,0:0:0:0:
355,80,180702,69,14,0:0:0:0:
355,80,180852,1,10,0:0:0:0:
355,80,181002,1,10,0:0:0:0:
496,152,181302,6,0,L|496:232,1,68.7500020980836,4|0,0:1|0:0,0:0:0:0:
496,352,181602,1,0,0:0:0:0:
512,336,181902,70,0,L|440:312,1,68.7500020980836,8|0,0:0|0:0,0:0:0:0:
304,264,182202,2,0,L|384:248,1,68.7500020980836,8|0,0:0|0:0,0:0:0:0:
258,332,182502,1,8,0:0:0:0:
240,328,182802,6,0,P|218:301|213:268,1,68.7500020980836,2|0,0:0|0:0,0:0:0:0:
261,116,183102,2,0,P|261:150|257:184,1,68.7500020980836,8|0,0:0|0:0,0:0:0:0:
98,199,183402,2,0,L|179:190,1,68.7500020980836,8|0,0:0|0:0,0:0:0:0:
20,241,183702,1,2,0:0:0:0:
20,225,184002,1,2,0:3:0:0:
20,209,184302,69,10,0:0:0:0:
78,366,184452,1,10,0:0:0:0:
159,312,184602,1,10,0:0:0:0:
0,316,184752,1,10,0:0:0:0:
231,352,184902,6,0,P|241:319|236:285,1,68.7500020980836,4|0,0:1|0:0,0:0:0:0:
173,230,185202,1,0,0:0:0:0:
232,40,185502,69,10,0:0:0:0:
232,52,185652,1,10,0:0:0:0:
233,63,185802,1,10,0:0:0:0:
80,144,186102,6,0,P|113:136|147:139,1,68.7500020980836,8|0,0:0|0:0,0:0:0:0:
336,184,186402,1,0,0:0:0:0:
352,192,186702,70,0,L|264:216,1,68.7500020980836,8|0,0:0|0:0,0:0:0:0:
144,264,187002,2,0,L|224:272,1,68.7500020980836,8|0,0:0|0:0,0:0:0:0:
360,304,187302,1,0,0:0:0:0:
384,304,187602,1,0,0:0:0:0:
416,304,187902,6,0,P|408:270|410:236,1,68.7500020980836,0|0,0:0|0:0,0:0:0:0:
488,112,188202,2,0,P|487:146|478:179,1,68.7500020980836,8|0,0:0|0:0,0:0:0:0:
288,136,188502,2,0,L|400:152,1,103.125003147125,2|0,0:0|0:0,0:0:0:0:
400,144,188802,2,0,P|376:128|344:88,1,68.7500020980836,6|0,0:3|0:0,0:0:0:0:
296,8,189102,69,10,0:0:0:0:
256,144,189252,1,10,0:0:0:0:
208,16,189402,1,10,0:0:0:0:
320,88,189552,1,10,0:0:0:0:
184,104,189702,6,0,B|51:124|51:124|116:92,1,206.250006294251,4|0,0:1|0:0,0:0:0:0:
152,16,190302,69,10,0:0:0:0:
160,16,190452,1,10,0:0:0:0:
168,16,190602,1,10,0:0:0:0:
55,192,190902,6,0,P|49:158|51:124,1,68.7500020980836,8|0,0:0|0:0,0:0:0:0:
214,179,191202,1,0,0:0:0:0:
240,163,191502,70,0,L|225:240,1,68.7500020980836,8|0,0:0|0:0,0:0:0:0:
364,174,191802,2,0,L|312:229,1,68.7500020980836,8|0,0:0|0:0,0:0:0:0:
476,220,192102,2,0,L|402:243,1,68.7500020980836,8|0,0:0|0:0,0:0:0:0:
512,304,192402,1,0,0:0:0:0:
512,320,192702,6,0,L|439:323,1,68.7500020980836,8|0,0:0|0:0,0:0:0:0:
304,352,193002,2,0,L|366:310,1,68.7500020980836,8|0,0:0|0:0,0:0:0:0:
512,192,193302,69,0,0:0:0:0:
512,176,193602,1,0,0:0:0:0:
512,160,193902,1,10,0:0:0:0:
368,160,194052,1,10,0:0:0:0:
440,88,194202,1,10,0:0:0:0:
440,224,194352,1,10,0:0:0:0:
288,120,194502,6,0,P|279:153|283:187,1,68.7500020980836,0|0,0:0|0:0,0:0:0:0:
344,40,194802,1,0,0:0:0:0:
152,104,195102,69,10,0:0:0:0:
152,96,195252,1,10,0:0:0:0:
152,88,195402,1,10,0:0:0:0:
64,272,195702,6,0,P|56:238|55:204,1,68.7500020980836,8|0,0:0|0:0,0:0:0:0:
80,16,196002,1,0,0:0:0:0:
96,8,196302,70,0,L|176:8,1,68.7500020980836,8|0,0:0|0:0,0:0:0:0:
296,80,196602,2,0,L|216:64,1,68.7500020980836,8|0,0:0|0:0,0:0:0:0:
376,120,196902,6,0,P|381:86|377:52,1,68.7500020980836,8|0,0:0|0:0,0:0:0:0:
232,168,197202,2,0,L|305:163,1,68.7500020980836,2|0,0:0|0:0,0:0:0:0:
168,240,197502,2,0,L|240:256,1,68.7500020980836,8|0,0:0|0:0,0:0:0:0:
96,328,197802,2,0,L|168:328,1,68.7500020980836,2|0,0:0|0:0,0:0:0:0:
352,344,198102,70,0,P|360:302|392:330,1,103.125003147125,8|0,0:0|0:0,0:0:0:0:
400,336,198402,2,0,L|400:264,1,68.7500020980836,4|0,0:3|0:0,0:0:0:0:
384,112,198702,5,10,0:0:0:0:
480,216,198852,1,10,0:0:0:0:
344,192,199002,1,10,0:0:0:0:
472,128,199152,1,10,0:0:0:0:
400,256,199302,69,2,0:0:0:0:
