osu file format v14

[General]
AudioFilename: SEVENTEEN - Dont Wanna Cry.mp3
AudioLeadIn: 2000
PreviewTime: 55677
Countdown: 0
SampleSet: Soft
StackLeniency: 0.2
Mode: 0
LetterboxInBreaks: 0
WidescreenStoryboard: 0

[Editor]
Bookmarks: 102,9702,19302,28902,38502,48102,60102,79302,88902,98502,108102,117702,136902,146502,160902,180702,199302
DistanceSpacing: 1.5
BeatDivisor: 8
GridSize: 32
TimelineZoom: 4.399998

[Metadata]
Title:Don't Wanna Cry
TitleUnicode:울고 싶지 않아
Artist:SEVENTEEN
ArtistUnicode:세븐틴
Creator:Euny
Version:Hard
Source:
Tags:My_Angel_RangE MARE Natsu PLEDIS ENTERTAINMENT 세븐틴 에스.쿱스 S.COUPS 우지 WOOZI 호시 HOSHI 민규 MINGYU 원우 WONWOO 버논 VERNON 승관 SEUNGKWAN 디노 DINO 준 JUN 도경 DK 조슈아 JOSHUA 정한 JEONGHAN 디에잇 THE8
BeatmapID:1371318
BeatmapSetID:618466

[Difficulty]
HPDrainRate:4.7
CircleSize:4
OverallDifficulty:6
ApproachRate:7.8
SliderMultiplier:2.1
SliderTickRate:1

[Events]
//Background and Video events
Video,0,"Don't+Wanna+Cry.avi"
0,0,"bg111.jpg",0,0
//Break Periods
2,9902,17923
2,55202,58723
2,79502,88123
2,115202,116323
2,156302,159523
//Storyboard Layer 0 (Background)
//Storyboard Layer 1 (Fail)
//Storyboard Layer 2 (Pass)
//Storyboard Layer 3 (Foreground)
//Storyboard Sound Samples

[TimingPoints]
102,600,4,2,55,30,1,0
102,-181.818181818182,4,2,55,30,0,0
4752,-181.818181818182,4,2,55,5,0,0
4902,-181.818181818182,4,2,55,30,0,0
19302,-133.333333333334,4,2,5,50,0,0
28902,-133.333333333334,4,2,5,50,0,0
38502,-117.647058823529,4,2,5,60,0,0
48102,-105.263157894737,4,2,5,60,0,0
59502,-181.818181818182,4,2,5,70,0,0
60102,-90.9090909090909,4,2,5,70,0,1
60702,-90.9090909090909,4,2,5,70,0,0
69702,-90.9090909090909,4,2,5,70,0,1
70302,-90.9090909090909,4,2,5,70,0,0
78777,-90.9090909090909,4,2,5,5,0,0
78852,-90.9090909090909,4,2,5,70,0,0
78927,-90.9090909090909,4,2,5,5,0,0
79002,-90.9090909090909,4,2,5,70,0,0
79077,-90.9090909090909,4,2,5,5,0,0
79152,-90.9090909090909,4,2,5,70,0,0
79227,-90.9090909090909,4,2,5,5,0,0
79302,-133.333333333333,4,2,5,33,0,0
79902,-133.333333333333,4,2,5,40,0,0
88902,-133.333333333333,4,2,55,40,0,0
89502,-133.333333333333,4,2,5,40,0,0
90102,-133.333333333333,4,2,55,40,0,0
90702,-133.333333333333,4,2,5,40,0,0
91302,-133.333333333333,4,2,55,40,0,0
91902,-133.333333333333,4,2,5,40,0,0
93102,-133.333333333333,4,2,5,40,0,0
93702,-133.333333333333,4,2,55,40,0,0
94302,-133.333333333333,4,2,5,40,0,0
94902,-133.333333333333,4,2,55,40,0,0
95502,-133.333333333333,4,2,5,40,0,0
96102,-133.333333333333,4,2,55,40,0,0
96702,-133.333333333333,4,2,5,40,0,0
98502,-117.647058823529,4,2,5,60,0,0
108102,-105.263157894737,4,2,5,60,0,0
117102,-181.818181818182,4,2,5,60,0,0
117702,-90.9090909090909,4,2,5,70,0,1
118302,-90.9090909090909,4,2,5,70,0,0
127302,-90.9090909090909,4,2,5,70,0,1
127902,-90.9090909090909,4,2,5,70,0,0
136377,-90.9090909090909,4,2,5,5,0,0
136452,-90.9090909090909,4,2,5,70,0,0
136527,-90.9090909090909,4,2,5,5,0,0
136602,-90.9090909090909,4,2,5,70,0,0
136677,-90.9090909090909,4,2,5,5,0,0
136752,-90.9090909090909,4,2,5,70,0,0
136827,-90.9090909090909,4,2,5,5,0,0
136902,-105.263157894737,4,2,5,70,0,1
137502,-105.263157894737,4,2,55,70,0,1
137802,-105.263157894737,4,2,5,70,0,1
137877,-105.263157894737,4,2,55,70,0,1
138102,-105.263157894737,4,2,5,70,0,0
138777,-105.263157894737,4,2,55,70,0,0
139002,-105.263157894737,4,2,5,70,0,0
139452,-105.263157894737,4,2,5,70,0,0
139902,-105.263157894737,4,2,55,70,0,0
140202,-105.263157894737,4,2,5,70,0,0
141102,-105.263157894737,4,2,55,70,0,0
142602,-105.263157894737,4,2,5,70,0,0
143577,-105.263157894737,4,2,55,70,0,0
144102,-105.263157894737,4,2,5,70,0,0
144777,-105.263157894737,4,2,55,70,0,0
145002,-105.263157894737,4,2,5,70,0,0
145902,-105.263157894737,4,2,55,70,0,0
146502,-105.263157894737,4,2,55,50,0,0
148602,-105.263157894737,4,2,5,50,0,0
148902,-105.263157894737,4,2,55,50,0,0
149052,-105.263157894737,4,2,5,50,0,0
149502,-105.263157894737,4,2,55,50,0,0
149802,-105.263157894737,4,2,5,50,0,0
150102,-105.263157894737,4,2,55,50,0,0
150252,-105.263157894737,4,2,5,50,0,0
151302,-105.263157894737,4,2,5,70,0,0
156102,-105.263157894737,4,2,55,70,0,0
160302,-181.818181818182,4,2,5,70,0,0
160902,-90.9090909090909,4,2,5,70,0,1
161502,-90.9090909090909,4,2,5,70,0,0
170502,-90.9090909090909,4,2,5,70,0,1
171102,-90.9090909090909,4,2,5,70,0,0
180102,-90.9090909090909,4,2,55,70,0,0
180702,-90.9090909090909,4,2,5,70,0,1
181302,-90.9090909090909,4,2,5,70,0,0
189702,-90.9090909090909,4,2,5,70,0,1
190302,-90.9090909090909,4,2,5,70,0,0
199302,-90.9090909090909,4,2,55,70,0,0

[Colours]
Combo1 : 150,45,255
Combo2 : 255,0,128
Combo3 : 255,187,221
Combo4 : 255,249,252
Combo5 : 141,141,141
Combo6 : 208,162,255
SliderBorder : 255,187,221
SliderTrackOverride : 0,0,94

[HitObjects]
122,159,102,38,0,L|54:175,2,57.7500017623902,2|0|0,0:0|0:0|0:0,0:0:0:0:
197,188,1002,1,0,0:0:0:0:
274,208,1302,2,0,P|277:180|269:151,2,57.7500017623902,0|0|0,0:0|0:0|0:0,0:0:0:0:
217,265,2202,1,0,0:0:0:0:
295,284,2502,6,0,L|364:267,2,57.7500017623902
238,341,3402,1,0,0:0:0:0:
158,322,3702,2,0,P|139:301|133:274,1,57.7500017623902,0|0,0:0|0:0,0:0:0:0:
139,192,4302,70,0,B|51:206,1,86.6250026435853,2|0,0:0|0:0,0:0:0:0:
12,209,4902,6,0,P|26:184|29:156,1,57.7500017623902,2|0,0:0|0:0,0:0:0:0:
9,77,5502,1,0,0:0:0:0:
79,36,5802,1,0,0:0:0:0:
159,41,6102,70,0,P|155:76|169:103,2,57.7500017623902
236,63,7002,2,0,L|295:28,2,57.7500017623902,0|0|0,0:0|0:0|0:0,0:0:0:0:
209,139,7902,6,0,L|202:208,1,57.7500017623902,0|0,0:0|0:0,0:0:0:0:
263,250,8502,2,0,L|288:188,1,57.7500017623902,0|0,0:0|0:0,0:0:0:0:
357,161,9102,70,0,L|365:279,1,115.50000352478,2|2,0:0|0:0,0:0:0:0:
360,168,18702,85,0,0:0:0:0:
424,224,19002,1,0,0:0:0:0:
366,318,19302,6,0,P|350:294|348:243,1,78.7500030040742,4|0,0:1|0:0,0:0:0:0:
440,144,19902,1,2,0:0:0:0:
362,89,20202,1,0,0:0:0:0:
267,94,20502,70,0,L|283:174,1,78.7500030040742
229,249,21102,2,0,L|181:177,1,78.7500030040742,2|0,0:0|0:0,0:0:0:0:
114,120,21702,6,0,L|99:160,2,39.3750015020371,0|0|0,0:0|0:0|0:0,0:0:0:0:
167,42,22302,2,0,L|198:90,2,39.3750015020371,2|0|0,0:0|0:0|0:0,0:0:0:0:
75,19,22902,2,0,P|39:35|0:38,1,78.7500030040742,0|0,0:0|0:0,0:0:0:0:
22,131,23502,1,2,0:0:0:0:
59,217,23802,1,0,0:0:0:0:
145,180,24102,70,0,P|152:218|144:256,1,78.7500030040742
76,379,24702,2,0,P|67:340|72:302,1,78.7500030040742,2|0,0:0|0:0,0:0:0:0:
161,336,25302,1,0,0:0:0:0:
252,359,25602,1,0,0:0:0:0:
233,265,25902,2,0,P|271:277|310:274,1,78.7500030040742,2|0,0:0|0:0,0:0:0:0:
376,206,26502,6,0,L|411:232,2,39.3750015020371,0|0|0,0:0|0:0|0:0,0:0:0:0:
357,112,27102,2,0,L|306:102,2,39.3750015020371,2|0|0,0:0|0:0|0:0,0:0:0:0:
457,225,27702,1,0,0:0:0:0:
296,175,28002,1,0,0:0:0:0:
419,50,28302,1,2,0:0:0:0:
441,137,28602,1,0,0:0:0:0:
279,89,28902,69,0,0:0:0:0:
322,250,29202,1,0,0:0:0:0:
241,232,29502,1,2,0:0:0:0:
360,107,29802,1,0,0:0:0:0:
214,150,30102,1,0,0:0:0:0:
301,171,30402,1,0,0:0:0:0:
195,297,30702,1,2,0:0:0:0:
166,216,31002,1,0,0:0:0:0:
338,246,31302,5,0,0:0:0:0:
250,239,31602,1,0,0:0:0:0:
383,181,31902,1,2,0:0:0:0:
408,340,32202,1,0,0:0:0:0:
500,227,32502,1,0,0:0:0:0:
510,212,33102,69,2,0:0:0:0:
510,308,33402,1,0,0:0:0:0:
452,148,33702,2,0,L|526:121,1,78.7500030040742,0|0,0:0|0:0,0:0:0:0:
381,95,34302,2,0,L|467:40,1,78.7500030040742,2|0,0:0|0:0,0:0:0:0:
288,84,34902,2,0,L|342:8,2,78.7500030040742,0|0|2,0:0|0:0|0:0,0:0:0:0:
214,143,35802,2,0,L|196:57,2,78.7500030040742,0|0|0,0:0|0:0|0:0,0:0:0:0:
272,216,36702,5,2,0:0:0:0:
368,200,37002,1,0,0:0:0:0:
384,296,37302,1,0,0:0:0:0:
288,312,37602,1,0,0:0:0:0:
272,216,37902,70,0,P|217:248|147:237,1,118.125004506111,2|0,0:0|0:0,0:0:0:0:
116,220,38502,22,0,B|128:264|128:264|120:320,1,89.2500017023087,4|0,0:0|0:0,0:0:0:0:
72,368,38952,1,4,0:3:0:0:
16,312,39102,2,0,B|9:268|9:268|21:224,1,89.2500017023087,4|4,0:3|0:3,0:0:0:0:
72,80,39702,5,2,0:3:0:0:
142,44,39852,2,0,P|148:87|132:128,1,89.2500017023087,4|4,0:3|0:3,0:0:0:0:
61,159,40302,1,4,0:3:0:0:
217,148,40602,1,4,0:3:0:0:
146,282,40902,70,0,L|193:290,2,44.6250008511543,4|2|2,0:3|0:3|0:3,0:0:0:0:
161,358,41352,1,4,0:3:0:0:
239,347,41502,2,0,P|264:312|265:268,1,89.2500017023087,4|4,0:3|0:3,0:0:0:0:
207,128,42102,5,4,0:3:0:0:
275,166,42252,2,0,P|322:173|373:161,1,89.2500017023087,4|4,0:3|0:3,0:0:0:0:
406,102,42702,2,0,P|427:98|451:103,1,44.6250008511543,4|0,0:3|0:0,0:0:0:0:
505,156,43002,1,4,0:3:0:0:
490,310,43302,70,0,P|446:324|396:317,1,89.2500017023087,4|0,0:1|0:0,0:0:0:0:
338,280,43752,1,4,0:3:0:0:
280,227,43902,2,0,P|258:223|235:224,1,44.6250008511543,4|0,0:3|0:0,0:0:0:0:
169,264,44202,1,4,0:3:0:0:
27,325,44502,6,0,P|22:354|7:383,2,44.6250008511543,2|4|2,0:3|0:3|0:3,0:0:0:0:
13,247,44952,1,4,0:3:0:0:
70,193,45102,2,0,P|75:151|60:107,1,89.2500017023087,4|2,0:3|0:3,0:0:0:0:
186,14,45702,70,0,L|293:26,1,89.2500017023087,4|0,0:3|0:0,0:0:0:0:
350,40,46152,1,4,0:3:0:0:
422,10,46302,2,0,P|404:50|410:94,1,89.2500017023087,4|4,0:3|0:3,0:0:0:0:
512,214,46902,6,0,L|444:239,1,44.6250008511543,0|0,0:0|0:0,0:0:0:0:
386,242,47202,2,0,P|412:277|427:319,2,89.2500017023087,0|4|4,0:0|0:3|0:3,0:0:0:0:
240,278,48102,70,0,L|189:295,1,49.8749986681939,4|0,0:2|0:0,0:0:0:0:
118,289,48402,1,8,0:0:0:0:
118,289,48552,1,8,0:0:0:0:
171,174,48702,2,0,P|165:200|167:224,2,49.8749986681939,8|8|8,0:0|0:0|0:0,0:0:0:0:
206,28,49302,6,0,L|261:58,1,49.8749986681939,8|8,0:0|0:0,0:0:0:0:
310,96,49602,1,8,0:0:0:0:
310,96,49752,1,8,0:0:0:0:
353,35,49902,2,0,L|406:55,1,49.8749986681939,8|8,0:0|0:0,0:0:0:0:
468,81,50202,1,8,0:0:0:0:
498,227,50502,70,0,P|502:255|497:283,1,49.8749986681939,8|8,0:0|0:0,0:0:0:0:
441,333,50802,1,8,0:0:0:0:
441,333,50952,1,8,0:0:0:0:
320,331,51102,2,0,P|338:315|362:306,2,49.8749986681939,8|8|8,0:0|0:0|0:0,0:0:0:0:
171,352,51702,6,0,P|173:327|170:302,1,49.8749986681939,8|8,0:0|0:0,0:0:0:0:
115,251,52002,1,8,0:0:0:0:
115,251,52152,1,8,0:0:0:0:
58,300,52302,2,0,P|39:256|53:209,1,99.7499973363877,8|8,0:0|0:0,0:0:0:0:
128,79,52902,6,0,L|162:64,5,24.9374993340969,8|0|8|0|8|0,0:0|0:0|0:0|0:0|0:0|0:0,0:0:0:0:
188,67,53352,2,0,L|228:72,5,24.9374993340969,8|0|8|0|8|0,0:0|0:0|0:0|0:0|0:0|0:0,0:0:0:0:
260,85,53802,2,0,L|295:64,5,24.9374993340969,8|0|8|0|8|0,0:0|0:0|0:0|0:0|0:0|0:0,0:0:0:0:
313,92,54252,70,0,P|366:103|413:94,1,99.7499973363877,8|8,0:0|0:0,0:0:0:0:
482,41,54702,1,8,0:0:0:0:
482,41,54777,1,8,0:0:0:0:
482,41,54852,1,8,0:0:0:0:
499,131,55002,1,8,0:0:0:0:
358,142,59502,38,0,L|256:117,1,101.062503084183,8|0,0:1|0:0,0:0:0:0:
220,107,60102,54,0,P|228:179|157:160,1,173.250005287171,4|0,0:0|0:0,0:0:0:0:
145,78,60702,2,0,L|86:91,2,57.7500017623902,10|10|10,0:0|0:0|0:0,0:0:0:0:
12,171,61302,6,0,L|20:228,1,57.7500017623902,8|0,0:0|0:0,0:0:0:0:
27,308,61602,2,0,P|52:294|79:285,1,57.7500017623902,0|0,0:0|0:0,0:0:0:0:
206,222,61902,2,0,L|197:279,1,57.7500017623902,8|0,0:0|0:0,0:0:0:0:
194,359,62202,2,0,P|168:344|141:335,1,57.7500017623902,8|0,0:0|0:0,0:0:0:0:
12,333,62502,69,0,0:0:0:0:
33,172,62802,1,0,0:0:0:0:
160,270,63102,1,8,0:0:0:0:
0,243,63402,2,0,P|56:247|99:211,2,115.50000352478,8|0|0,0:0|0:0|0:0,0:0:0:0:
128,145,64302,2,0,P|152:159|168:191,1,57.7500017623902,10|10,0:0|0:0,0:0:0:0:
160,270,64602,1,10,0:0:0:0:
235,241,64752,1,10,0:0:0:0:
227,321,64902,6,0,B|306:354|303:284|408:333,1,173.250005287171,4|0,0:1|0:0,0:0:0:0:
464,370,65502,2,0,P|474:339|473:311,2,57.7500017623902,10|10|10,0:0|0:0|0:0,0:0:0:0:
454,207,66102,70,0,L|390:194,1,57.7500017623902,8|0,0:0|0:0,0:0:0:0:
318,177,66402,1,0,0:0:0:0:
210,56,66702,6,0,L|285:79,1,57.7500017623902,8|0,0:0|0:0,0:0:0:0:
346,70,67002,1,0,0:0:0:0:
309,226,67302,70,0,L|252:210,1,57.7500017623902,8|0,0:0|0:0,0:0:0:0:
175,191,67602,1,0,0:0:0:0:
238,339,67902,1,8,0:0:0:0:
78,316,68202,1,8,0:0:0:0:
226,252,68502,6,0,P|251:216|251:174,1,86.6250026435853,2|0,0:0|0:0,0:0:0:0:
237,136,68802,2,0,P|263:148|300:156,1,57.7500017623902,6|0,0:3|0:0,0:0:0:0:
318,78,69102,2,0,L|248:57,1,57.7500017623902,10|10,0:0|0:0,0:0:0:0:
184,40,69402,1,10,0:0:0:0:
135,104,69552,1,10,0:0:0:0:
70,55,69702,70,0,P|84:145|22:189,1,173.250005287171,4|0,0:1|0:0,0:0:0:0:
6,268,70302,2,0,P|-2:295|-5:323,2,57.7500017623902,10|10|10,0:0|0:0|0:0,0:0:0:0:
139,359,70902,6,0,P|153:333|155:305,1,57.7500017623902,8|0,0:0|0:0,0:0:0:0:
159,224,71202,2,0,L|220:239,1,57.7500017623902,0|0,0:0|0:0,0:0:0:0:
339,300,71502,2,0,P|324:274|322:246,1,57.7500017623902,8|0,0:0|0:0,0:0:0:0:
319,165,71802,2,0,L|258:180,1,57.7500017623902,0|0,0:0|0:0,0:0:0:0:
146,213,72102,69,8,0:0:0:0:
202,61,72402,1,0,0:0:0:0:
43,94,72702,1,0,0:0:0:0:
194,151,73002,2,0,P|220:201|210:256,2,115.50000352478,8|2|2,0:0|0:0|0:0,0:0:0:0:
273,295,73902,2,0,P|254:317|226:327,1,57.7500017623902,10|10,0:0|0:0,0:0:0:0:
150,302,74202,1,10,0:0:0:0:
96,362,74352,1,10,0:0:0:0:
34,309,74502,6,0,B|85:193|85:193|33:205,1,173.250005287171,4|0,0:1|0:0,0:0:0:0:
22,124,75102,2,0,L|79:108,2,57.7500017623902,10|10|10,0:0|0:0|0:0,0:0:0:0:
182,150,75702,70,0,P|183:121|175:93,1,57.7500017623902,8|0,0:0|0:0,0:0:0:0:
118,37,76002,1,0,0:0:0:0:
111,198,76302,2,0,P|128:220|153:235,1,57.7500017623902,8|0,0:0|0:0,0:0:0:0:
234,239,76602,1,0,0:0:0:0:
392,205,76902,6,0,P|379:179|358:159,1,57.7500017623902,8|0,0:0|0:0,0:0:0:0:
281,140,77202,1,2,0:0:0:0:
361,280,77502,1,8,0:0:0:0:
437,137,77802,1,2,0:0:0:0:
298,219,78102,70,0,P|251:214|217:185,1,86.6250026435853,8|0,0:0|0:0,0:0:0:0:
186,169,78402,2,0,L|192:232,1,57.7500017623902,4|0,0:3|0:0,0:0:0:0:
180,306,78702,2,0,L|104:295,1,57.7500017623902,10|10,0:0|0:0,0:0:0:0:
61,245,79002,2,0,L|113:195,1,57.7500017623902,10|10,0:0|0:0,0:0:0:0:
165,150,79302,5,4,0:1:0:0:
264,93,88902,6,0,L|226:124,2,39.3750015020371,2|2|2,0:0|0:0|0:0,0:0:0:0:
277,234,89502,2,0,P|220:222|185:176,1,118.125004506111,2|0,0:0|0:0,0:0:0:0:
152,110,90102,6,0,L|107:123,2,39.3750015020371,2|2|2,0:0|0:0|0:0,0:0:0:0:
21,169,90702,2,0,P|11:111|37:59,1,118.125004506111,2|0,0:0|0:0,0:0:0:0:
105,32,91302,70,0,L|154:31,2,39.3750015020371,2|2|2,0:0|0:0|0:0,0:0:0:0:
245,24,91902,6,0,P|233:61|250:96,1,78.7500030040742,2|2,0:0|0:0,0:0:0:0:
353,194,92502,70,0,B|224:193,1,118.125004506111,0|0,0:0|0:0,0:0:0:0:
165,175,93102,2,0,P|165:213|187:245,1,78.7500030040742,2|0,0:0|0:0,0:0:0:0:
322,291,93702,6,0,L|379:291,2,39.3750015020371,2|2|2,0:0|0:0|0:0,0:0:0:0:
454,343,94302,2,0,P|462:285|440:230,1,118.125004506111,2|0,0:0|0:0,0:0:0:0:
426,144,94902,70,0,L|473:163,2,39.3750015020371,2|2|2,0:0|0:0|0:0,0:0:0:0:
300,77,95502,2,0,L|383:68,1,78.7500030040742,2|0,0:0|0:0,0:0:0:0:
264,154,96102,6,0,P|227:128|215:92,1,78.7500030040742,2|0,0:0|0:0,0:0:0:0:
99,16,96702,2,0,L|106:142,1,118.125004506111,2|0,0:0|0:0,0:0:0:0:
88,203,97302,70,0,P|131:191|169:207,1,78.7500030040742,0|0,0:0|0:0,0:0:0:0:
229,180,97752,2,0,P|251:239|284:185,1,157.500006008148,0|0,0:0|0:0,0:0:0:0:
354,150,98502,22,0,P|365:193|356:249,1,89.2500017023087,4|0,0:0|0:0,0:0:0:0:
313,298,98952,1,4,0:3:0:0:
390,303,99102,2,0,B|490:297,1,89.2500017023087,4|4,0:3|0:3,0:0:0:0:
503,145,99702,5,2,0:3:0:0:
428,122,99852,2,0,P|421:78|438:37,1,89.2500017023087,4|4,0:3|0:3,0:0:0:0:
511,12,100302,1,4,0:3:0:0:
356,28,100602,1,4,0:3:0:0:
316,179,100902,70,0,L|363:187,2,44.6250008511543,4|2|2,0:3|0:3|0:3,0:0:0:0:
242,205,101352,1,4,0:3:0:0:
301,256,101502,2,0,P|298:299|273:336,1,89.2500017023087,4|4,0:3|0:3,0:0:0:0:
117,337,102102,5,4,0:3:0:0:
143,263,102252,2,0,P|142:215|122:166,1,89.2500017023087,4|4,0:3|0:3,0:0:0:0:
59,144,102702,2,0,P|51:123|52:99,1,44.6250008511543,4|0,0:3|0:0,0:0:0:0:
97,37,103002,1,4,0:3:0:0:
183,167,103302,70,0,P|227:153|277:160,1,89.2500017023087,4|0,0:1|0:0,0:0:0:0:
335,197,103752,1,4,0:3:0:0:
393,250,103902,2,0,P|415:254|438:253,1,44.6250008511543,4|0,0:3|0:0,0:0:0:0:
504,213,104202,1,4,0:3:0:0:
489,58,104502,6,0,P|496:37|499:15,2,44.6250008511543,2|4|2,0:3|0:3|0:3,0:0:0:0:
422,17,104952,1,4,0:3:0:0:
405,93,105102,2,0,P|361:102|315:93,1,89.2500017023087,4|2,0:3|0:3,0:0:0:0:
177,24,105702,70,0,L|179:123,1,89.2500017023087,4|0,0:3|0:0,0:0:0:0:
121,166,106152,1,4,0:3:0:0:
175,222,106302,2,0,P|141:242|86:236,1,89.2500017023087,4|4,0:3|0:3,0:0:0:0:
0,115,106902,6,0,L|10:52,1,44.6250008511543,0|0,0:0|0:0,0:0:0:0:
57,12,107202,2,0,P|96:28|148:27,2,89.2500017023087,0|4|4,0:0|0:3|0:3,0:0:0:0:
77,163,108102,70,0,L|80:225,1,49.8749986681939,4|0,0:2|0:0,0:0:0:0:
96,286,108402,1,8,0:0:0:0:
96,286,108552,1,8,0:0:0:0:
207,238,108702,2,0,P|183:243|159:238,2,49.8749986681939,8|8|8,0:0|0:0|0:0,0:0:0:0:
356,217,109302,6,0,L|344:279,1,49.8749986681939,8|8,0:0|0:0,0:0:0:0:
332,339,109602,1,8,0:0:0:0:
332,339,109752,1,8,0:0:0:0:
402,315,109902,2,0,P|427:310|452:310,1,49.8749986681939,8|8,0:0|0:0,0:0:0:0:
508,357,110202,1,8,0:0:0:0:
499,207,110502,70,0,L|506:145,1,49.8749986681939,8|8,0:0|0:0,0:0:0:0:
511,82,110802,1,8,0:0:0:0:
511,82,110952,1,8,0:0:0:0:
425,28,111102,2,0,P|449:25|471:13,2,49.8749986681939,8|8|8,0:0|0:0|0:0,0:0:0:0:
275,20,111702,6,0,L|278:84,1,49.8749986681939,8|8,0:0|0:0,0:0:0:0:
281,144,112002,1,8,0:0:0:0:
281,144,112152,1,8,0:0:0:0:
342,189,112302,2,0,P|294:219|247:212,1,99.7499973363877,8|8,0:0|0:0,0:0:0:0:
107,178,112902,6,0,L|96:214,5,24.9374993340969,8|0|8|0|8|0,0:0|0:0|0:0|0:0|0:0|0:0,0:0:0:0:
78,233,113352,2,0,L|94:267,5,24.9374993340969,8|0|8|0|8|0,0:0|0:0|0:0|0:0|0:0|0:0,0:0:0:0:
98,291,113802,2,0,L|86:337,5,24.9374993340969,8|0|8|0|8|0,0:0|0:0|0:0|0:0|0:0|0:0,0:0:0:0:
90,353,114252,70,0,P|146:339|200:347,1,99.7499973363877,8|8,0:0|0:0,0:0:0:0:
282,363,114702,1,8,0:0:0:0:
282,363,114777,1,8,0:0:0:0:
282,363,114852,1,8,0:0:0:0:
318,277,115002,1,8,0:0:0:0:
268,172,117102,38,0,P|308:157|298:198,1,101.062503084183,8|0,0:1|0:0,0:0:0:0:
260,213,117702,54,0,L|447:207,1,173.250005287171,4|0,0:0|0:0,0:0:0:0:
449,127,118302,2,0,L|384:129,2,57.7500017623902,10|10|10,0:0|0:0|0:0,0:0:0:0:
457,288,118902,6,0,L|393:292,1,57.7500017623902,8|0,0:0|0:0,0:0:0:0:
324,323,119202,2,0,P|326:294|318:266,1,57.7500017623902,0|0,0:0|0:0,0:0:0:0:
232,160,119502,2,0,L|296:164,1,57.7500017623902,8|0,0:0|0:0,0:0:0:0:
365,195,119802,2,0,P|362:166|370:138,1,57.7500017623902,0|0,0:0|0:0,0:0:0:0:
430,84,120102,69,8,0:0:0:0:
432,245,120402,1,0,0:0:0:0:
285,177,120702,1,8,0:0:0:0:
365,36,121002,2,0,P|345:88|368:139,2,115.50000352478,0|2|2,0:0|0:0|0:0,0:0:0:0:
444,176,121902,2,0,P|451:202|440:236,1,57.7500017623902,10|10,0:0|0:0,0:0:0:0:
378,278,122202,1,10,0:0:0:0:
305,243,122352,1,10,0:0:0:0:
307,323,122502,6,0,P|263:289|201:288,1,115.50000352478,4|0,0:1|0:0,0:0:0:0:
28,325,123102,2,0,P|27:353|18:380,2,57.7500017623902,10|10|10,0:0|0:0|0:0,0:0:0:0:
18,163,123702,70,0,L|85:135,1,57.7500017623902,8|0,0:0|0:0,0:0:0:0:
147,111,124002,1,0,0:0:0:0:
308,98,124302,2,0,L|246:65,1,57.7500017623902,8|0,0:0|0:0,0:0:0:0:
187,27,124602,1,8,0:0:0:0:
179,188,124902,6,0,L|257:179,1,57.7500017623902,8|0,0:0|0:0,0:0:0:0:
317,177,125202,1,0,0:0:0:0:
186,271,125502,1,8,0:0:0:0:
147,111,125802,1,8,0:0:0:0:
254,229,126102,70,0,P|289:255|332:259,1,86.6250026435853,2|0,0:0|0:0,0:0:0:0:
372,252,126402,2,0,L|334:312,1,57.7500017623902,6|0,0:3|0:0,0:0:0:0:
390,365,126702,2,0,L|457:337,1,57.7500017623902,10|10,0:0|0:0,0:0:0:0:
505,291,127002,1,10,0:0:0:0:
470,218,127152,1,10,0:0:0:0:
505,145,127302,6,0,P|417:171|365:116,1,173.250005287171,4|0,0:1|0:0,0:0:0:0:
295,80,127902,2,0,L|284:139,2,57.7500017623902,10|10|10,0:0|0:0|0:0,0:0:0:0:
173,187,128502,70,0,L|186:124,1,57.7500017623902,8|0,0:0|0:0,0:0:0:0:
157,53,128802,2,0,P|138:74|112:86,1,57.7500017623902,0|0,0:0|0:0,0:0:0:0:
12,174,129102,2,0,L|-1:237,1,57.7500017623902,8|0,0:0|0:0,0:0:0:0:
27,308,129402,2,0,P|46:286|72:274,1,57.7500017623902,0|0,0:0|0:0,0:0:0:0:
152,286,129702,5,8,0:0:0:0:
156,124,130002,1,0,0:0:0:0:
297,201,130302,1,0,0:0:0:0:
135,204,130602,2,0,P|191:214|230:256,2,115.50000352478,8|2|2,0:0|0:0|0:0,0:0:0:0:
230,335,131502,2,0,P|258:329|283:314,1,57.7500017623902,10|10,0:0|0:0,0:0:0:0:
357,281,131802,1,10,0:0:0:0:
432,310,131952,1,10,0:0:0:0:
495,259,132102,70,0,L|478:87,1,173.250005287171,4|0,0:1|0:0,0:0:0:0:
449,10,132702,2,0,P|421:25|386:31,2,57.7500017623902,10|10|10,0:0|0:0|0:0,0:0:0:0:
287,20,133302,6,0,P|283:48|294:74,1,57.7500017623902,8|0,0:0|0:0,0:0:0:0:
354,130,133602,1,0,0:0:0:0:
284,275,133902,70,0,P|312:277|338:265,1,57.7500017623902,8|0,0:0|0:0,0:0:0:0:
392,205,134202,1,0,0:0:0:0:
484,72,134502,6,0,P|464:50|437:41,1,57.7500017623902,8|0,0:0|0:0,0:0:0:0:
357,48,134802,1,2,0:0:0:0:
467,166,135102,1,8,0:0:0:0:
308,199,135402,1,2,0:0:0:0:
352,354,135702,70,0,P|387:330|404:291,1,86.6250026435853,8|0,0:0|0:0,0:0:0:0:
417,270,136002,2,0,L|349:283,1,57.7500017623902,4|0,0:3|0:0,0:0:0:0:
275,303,136302,2,0,L|198:290,1,57.7500017623902,10|10,0:0|0:0,0:0:0:0:
165,237,136602,2,0,L|102:269,1,57.7500017623902,10|10,0:0|0:0,0:0:0:0:
49,324,136902,70,0,P|24:281|30:232,1,99.7499973363877,4|0,0:0|0:0,0:0:0:0:
93,178,137352,69,0,0:0:0:0:
93,178,137502,2,0,L|83:109,1,49.8749986681939,2|0,0:0|0:0,0:0:0:0:
175,60,137802,2,0,L|162:121,1,49.8749986681939,2|0,0:3|0:0,0:0:0:0:
187,194,138102,2,0,P|231:178|291:189,1,99.7499973363877,2|0,0:0|0:0,0:0:0:0:
343,246,138552,5,2,0:0:0:0:
421,287,138702,2,0,P|428:263|427:238,1,49.8749986681939,0|0,0:0|0:0,0:0:0:0:
389,158,139002,2,0,L|365:164,2,24.9374993340969,2|2|2,0:0|0:0|0:0,0:0:0:0:
471,159,139302,70,0,P|468:134|458:111,1,49.8749986681939,4|0,0:1|0:0,0:0:0:0:
383,72,139602,2,0,L|359:78,2,24.9374993340969,2|2|2,0:0|0:0|0:0,0:0:0:0:
281,105,139902,6,0,P|275:77|282:40,1,49.8749986681939,2|0,0:0|0:0,0:0:0:0:
339,1,140202,1,2,0:3:0:0:
339,1,140352,1,0,0:0:0:0:
424,4,140502,2,0,L|477:26,2,49.8749986681939,2|0|0,0:0|0:0|0:0,0:0:0:0:
266,85,141102,70,0,L|266:148,1,49.8749986681939,2|2,0:0|0:0,0:0:0:0:
191,220,141402,2,0,L|190:163,1,49.8749986681939,2|2,0:0|0:0,0:0:0:0:
176,86,141702,5,4,0:1:0:0:
176,86,141852,1,0,0:0:0:0:
102,130,142002,2,0,L|109:318,1,174.562495338679,0|0,0:0|0:0,0:0:0:0:
140,331,142602,2,0,L|200:315,1,49.8749986681939,2|0,0:3|0:0,0:0:0:0:
264,278,142902,2,0,L|312:291,1,49.8749986681939,0|0,0:0|0:0,0:0:0:0:
382,338,143202,69,0,0:0:0:0:
382,338,143352,1,0,0:0:0:0:
465,351,143502,2,0,P|464:326|458:302,1,49.8749986681939,0|0,0:0|0:0,0:0:0:0:
421,224,143802,2,0,L|485:218,1,49.8749986681939,0|0,0:0|0:0,0:0:0:0:
506,141,144102,6,0,L|447:140,1,49.8749986681939,4|0,0:1|0:0,0:0:0:0:
368,156,144402,2,0,P|332:219|361:285,1,149.624996004582
443,307,145002,1,2,0:3:0:0:
443,307,145152,1,0,0:0:0:0:
424,223,145302,70,0,B|439:185|439:185|478:176|505:140|505:140|525:163|516:191|499:200,1,174.562495338679,8|0,0:0|0:0,0:0:0:0:
511,188,145902,2,0,L|510:37,1,149.624996004582,2|0,0:0|0:0,0:0:0:0:
443,4,146502,6,0,P|404:35|355:38,1,99.7499973363877,2|2,0:0|0:0,0:0:0:0:
209,15,147102,1,2,0:0:0:0:
165,156,147402,2,0,L|121:115,1,49.8749986681939,2|2,0:0|0:0,0:0:0:0:
70,74,147702,2,0,P|81:120|41:222,1,149.624996004582,2|0,0:0|0:0,0:0:0:0:
29,286,148302,2,0,P|71:259|121:257,1,99.7499973363877,2|2,0:0|0:3,0:0:0:0:
262,305,148902,69,2,0:0:0:0:
316,356,149052,2,0,P|336:305|323:257,1,99.7499973363877,2|0,0:0|0:0,0:0:0:0:
283,200,149502,2,0,L|398:214,1,99.7499973363877,2|2,0:0|0:3,0:0:0:0:
479,98,150102,6,0,L|425:89,2,49.8749986681939,2|8|2,0:0|0:0|0:3,0:0:0:0:
479,248,150702,1,8,0:0:0:0:
418,203,150852,2,0,P|403:250|422:295,1,99.7499973363877,2|0,0:3|0:0,0:0:0:0:
489,328,151302,69,8,0:0:0:0:
426,369,151452,2,0,L|361:369,1,49.8749986681939,2|0,0:0|0:0,0:0:0:0:
235,318,151902,2,0,P|189:311|126:314,1,99.7499973363877,2|0,0:3|0:0,0:0:0:0:
66,340,152352,1,8,0:0:0:0:
31,273,152502,2,0,L|13:205,2,49.8749986681939,2|8|0,0:3|0:0|0:0,0:0:0:0:
28,122,153102,6,0,P|100:137|173:110,1,149.624996004582,8|0,0:0|0:0,0:0:0:0:
213,39,153702,1,8,0:0:0:0:
268,104,153852,1,8,0:0:0:0:
326,40,154002,6,0,L|394:36,1,49.8749986681939,8|8,0:0|0:0,0:0:0:0:
412,42,154227,1,8,0:0:0:0:
412,42,154302,2,0,P|402:78|405:113,1,49.8749986681939,8|8,0:0|0:0,0:0:0:0:
446,167,154602,69,8,0:0:0:0:
497,236,154752,2,0,P|499:261|492:285,2,49.8749986681939,8|8|10,0:0|0:0|0:0,0:0:0:0:
409,246,155202,1,8,0:0:0:0:
330,285,155352,1,8,0:0:0:0:
255,230,155502,6,0,L|216:249,3,24.9374993340969,8|8|8|8,0:0|0:0|0:0|0:0,0:0:0:0:
191,263,155802,2,0,L|148:249,3,24.9374993340969,8|8|8|8,0:0|0:0|0:0|0:0,0:0:0:0:
118,243,156102,1,2,0:0:0:0:
257,319,160302,22,0,P|260:284|281:318,1,101.062503084183,8|0,0:1|0:0,0:0:0:0:
257,319,160902,54,0,L|257:135,1,173.250005287171,4|0,0:0|0:0,0:0:0:0:
219,65,161502,2,0,P|194:79|165:79,2,57.7500017623902,10|10|10,0:0|0:0|0:0,0:0:0:0:
371,12,162102,6,0,L|442:24,1,57.7500017623902,8|0,0:0|0:0,0:0:0:0:
493,69,162402,2,0,P|503:43|503:14,1,57.7500017623902,0|0,0:0|0:0,0:0:0:0:
498,157,162702,2,0,L|427:145,1,57.7500017623902,8|0,0:0|0:0,0:0:0:0:
376,99,163002,2,0,P|365:125|365:154,1,57.7500017623902,0|0,0:0|0:0,0:0:0:0:
408,223,163302,69,8,0:0:0:0:
279,322,163602,1,0,0:0:0:0:
259,162,163902,1,0,0:0:0:0:
353,295,164202,2,0,P|316:252|260:247,2,115.50000352478,8|2|2,0:0|0:0|0:0,0:0:0:0:
191,291,165102,2,0,P|178:265|180:236,1,57.7500017623902,10|10,0:0|0:0,0:0:0:0:
217,165,165401,1,10,0:0:0:0:
171,98,165551,1,10,0:0:0:0:
135,171,165702,6,0,P|91:100|130:28,1,173.250005287171,4|0,0:1|0:0,0:0:0:0:
211,27,166302,2,0,P|238:34|267:33,2,57.7500017623902,10|10|10,0:0|0:0|0:0,0:0:0:0:
51,2,166902,70,0,P|33:29|20:62,1,57.7500017623902
19,133,167202,1,0,0:0:0:0:
35,293,167502,6,0,P|57:269|75:239,1,57.7500017623902,8|0,0:0|0:0,0:0:0:0:
90,169,167802,1,0,0:0:0:0:
219,71,168102,70,0,P|187:63|151:63,1,57.7500017623902,8|0,0:0|0:0,0:0:0:0:
85,88,168402,1,0,0:0:0:0:
99,249,168702,1,8,0:0:0:0:
233,158,169002,1,8,0:0:0:0:
317,296,169302,6,0,P|281:271|239:273,1,86.6250026435853,2|0,0:0|0:0,0:0:0:0:
200,288,169602,2,0,L|204:220,1,57.7500017623902,2|0,0:0|0:0,0:0:0:0:
233,158,169902,2,0,L|310:175,1,57.7500017623902,10|10,0:0|0:0,0:0:0:0:
369,184,170202,1,10,0:0:0:0:
432,134,170352,1,10,0:0:0:0:
463,208,170502,70,0,P|510:139|472:65,1,173.250005287171,4|0,0:1|0:0,0:0:0:0:
391,61,171102,2,0,P|363:66|331:62,2,57.7500017623902,10|10|10,0:0|0:0|0:0,0:0:0:0:
280,176,171702,6,0,P|266:150|264:122,1,57.7500017623902,8|0,0:0|0:0,0:0:0:0:
253,41,172002,2,0,L|197:57,1,57.7500017623902,0|0,0:0|0:0,0:0:0:0:
134,178,172302,2,0,P|129:149|113:125,1,57.7500017623902,8|0,0:0|0:0,0:0:0:0:
72,54,172602,2,0,L|125:32,1,57.7500017623902,0|0,0:0|0:0,0:0:0:0:
35,128,172902,69,8,0:0:0:0:
123,263,173202,1,0,0:0:0:0:
204,123,173502,1,0,0:0:0:0:
62,203,173802,2,0,P|40:255|53:310,2,115.50000352478,8|2|2,0:0|0:0|0:0,0:0:0:0:
148,340,174702,2,0,P|174:329|192:307,1,57.7500017623902,10|10,0:0|0:0,0:0:0:0:
229,234,175002,1,10,0:0:0:0:
299,273,175152,1,10,0:0:0:0:
364,225,175302,6,0,P|366:307|439:346,1,173.250005287171,4|0,0:1|0:0,0:0:0:0:
476,274,175902,2,0,P|498:291|510:317,2,57.7500017623902,10|10|10,0:0|0:0|0:0,0:0:0:0:
378,142,176502,70,0,P|350:142|323:152,1,57.7500017623902,8|0,0:0|0:0,0:0:0:0:
274,217,176802,1,0,0:0:0:0:
209,365,177102,6,0,P|237:365|264:355,1,57.7500017623902,8|0,0:0|0:0,0:0:0:0:
314,291,177402,1,0,0:0:0:0:
378,142,177702,70,0,P|350:142|323:152,1,57.7500017623902,8|0,0:0|0:0,0:0:0:0:
274,217,178002,1,0,0:0:0:0:
435,210,178302,1,8,0:0:0:0:
367,356,178602,1,2,0:0:0:0:
225,277,178902,6,0,P|218:314|229:362,1,86.6250026435853,8|0,0:0|0:0,0:0:0:0:
188,355,179202,2,0,L|115:334,1,57.7500017623902,4|0,0:3|0:0,0:0:0:0:
68,289,179502,2,0,L|111:242,1,57.7500017623902,10|10,0:0|0:0,0:0:0:0:
167,192,179802,2,0,L|126:138,1,57.7500017623902,10|10,0:0|0:0,0:0:0:0:
80,83,180102,69,2,0:0:0:0:
64,48,180702,2,0,L|0:64,2,57.7500017623902,14|10|10,0:0|0:0|0:0,0:0:0:0:
226,53,181302,6,0,L|290:49,1,57.7500017623902,4|0,0:1|0:0,0:0:0:0:
359,18,181602,2,0,P|357:47|365:75,1,57.7500017623902,0|0,0:0|0:0,0:0:0:0:
495,131,181902,2,0,L|444:169,1,57.7500017623902,8|0,0:0|0:0,0:0:0:0:
370,192,182202,2,0,P|391:211|403:238,1,57.7500017623902,8|0,0:0|0:0,0:0:0:0:
359,305,182502,69,8,0:0:0:0:
204,257,182802,1,2,0:0:0:0:
315,139,183102,1,8,0:0:0:0:
277,295,183402,2,0,P|234:333|177:334,2,115.50000352478,8|2|2,0:0|0:0|0:3,0:0:0:0:
124,243,184302,2,0,P|136:209|162:188,1,57.7500017623902,10|10,0:0|0:0,0:0:0:0:
231,184,184602,1,10,0:0:0:0:
182,119,184752,1,10,0:0:0:0:
262,111,184902,6,0,P|251:83|230:54,1,57.7500017623902,4|0,0:1|0:0,0:0:0:0:
156,43,185202,1,0,0:0:0:0:
56,170,185502,2,0,L|-6:157,2,57.7500017623902,10|10|10,0:0|0:0|0:0,0:0:0:0:
7,324,186102,70,0,L|74:296,1,57.7500017623902,8|0,0:0|0:0,0:0:0:0:
134,268,186402,1,0,0:0:0:0:
295,264,186702,6,0,L|233:231,1,57.7500017623902,8|0,0:0|0:0,0:0:0:0:
174,193,187002,1,8,0:0:0:0:
27,123,187302,70,0,L|105:114,1,57.7500017623902
165,112,187602,1,0,0:0:0:0:
325,94,187902,1,0,0:0:0:0:
255,240,188202,1,8,0:0:0:0:
237,79,188502,6,0,P|246:121|269:157,1,86.6250026435853,2|0,0:0|0:0,0:0:0:0:
303,177,188802,2,0,P|331:183|358:176,1,57.7500017623902,6|0,0:3|0:0,0:0:0:0:
432,142,189102,2,0,L|435:201,1,57.7500017623902,10|10,0:0|0:0,0:0:0:0:
455,277,189402,1,10,0:0:0:0:
374,270,189552,1,10,0:0:0:0:
411,340,189702,70,0,P|328:336|290:262,1,173.250005287171,4|0,0:1|0:0,0:0:0:0:
260,187,190302,2,0,L|200:213,2,57.7500017623902,10|10|10,0:0|0:0|0:0,0:0:0:0:
194,38,190902,6,0,L|128:63,1,57.7500017623902,8|0,0:0|0:0,0:0:0:0:
65,91,191202,2,0,P|86:109|99:135,1,57.7500017623902,0|0,0:0|0:0,0:0:0:0:
5,252,191502,2,0,L|74:260,1,57.7500017623902,8|0,0:0|0:0,0:0:0:0:
143,265,191802,2,0,P|132:238|133:209,1,57.7500017623902,8|0,0:0|0:0,0:0:0:0:
180,143,192102,69,8,0:0:0:0:
323,216,192402,1,0,0:0:0:0:
319,54,192702,1,8,0:0:0:0:
243,196,193002,2,0,P|249:253|292:290,2,115.50000352478,8|0|0,0:0|0:0|0:0,0:0:0:0:
369,297,193902,2,0,P|361:324|344:347,1,57.7500017623902,10|10,0:0|0:0,0:0:0:0:
263,359,194202,1,10,0:0:0:0:
194,315,194352,1,10,0:0:0:0:
129,363,194502,6,0,P|115:338|114:308,1,57.7500017623902,0|0,0:0|0:0,0:0:0:0:
159,243,194802,1,0,0:0:0:0:
268,123,195102,2,0,L|210:120,2,57.7500017623902,10|10|10,0:0|0:0|0:0,0:0:0:0:
387,13,195702,70,0,P|396:44|388:81,1,57.7500017623902,8|0,0:0|0:0,0:0:0:0:
353,139,196002,1,0,0:0:0:0:
246,260,196302,6,0,P|277:266|313:256,1,57.7500017623902,8|0,0:0|0:0,0:0:0:0:
369,218,196602,1,8,0:0:0:0:
490,324,196902,70,0,P|496:292|486:256,1,57.7500017623902,8|0,0:0|0:0,0:0:0:0:
448,200,197202,1,2,0:0:0:0:
333,313,197502,1,8,0:0:0:0:
268,164,197802,1,2,0:0:0:0:
397,66,198102,6,0,L|301:83,1,86.6250026435853,8|0,0:0|0:0,0:0:0:0:
270,81,198402,2,0,P|272:52|264:24,1,57.7500017623902,4|0,0:3|0:0,0:0:0:0:
186,46,198702,2,0,L|110:35,1,57.7500017623902,10|10,0:0|0:0,0:0:0:0:
48,47,199002,2,0,L|66:108,1,57.7500017623902,10|10,0:0|0:0,0:0:0:0:
99,175,199302,69,2,0:0:0:0:
