osu file format v14

[General]
AudioFilename: ololo.mp3
AudioLeadIn: 0
PreviewTime: 37294
Countdown: 0
SampleSet: Normal
StackLeniency: 0.6
Mode: 0
LetterboxInBreaks: 0
WidescreenStoryboard: 1

[Editor]
Bookmarks: 29556,36940,66486,81249,96017,110785,140321,155089
DistanceSpacing: 1.2
BeatDivisor: 2
GridSize: 4
TimelineZoom: 2

[Metadata]
Title:MALO TEBYA
TitleUnicode:Мало Тебя
Artist:SEREBRO
ArtistUnicode:SEREBRO
Creator:Marmowka
Version:Normal
Source:
Tags:russian русский -bakari- electronica Серебро Silver Olga Seryabkina Elena Temnikova Dasha Shashina
BeatmapID:687766
BeatmapSetID:307391

[Difficulty]
HPDrainRate:5
CircleSize:4
OverallDifficulty:5
ApproachRate:5.5
SliderMultiplier:1.4
SliderTickRate:2

[Events]
//Background and Video events
0,0,"malo.jpg",0,0
//Break Periods
2,66686,80130
//Storyboard Layer 0 (Background)
//Storyboard Layer 1 (Fail)
//Storyboard Layer 2 (Pass)
//Storyboard Layer 3 (Foreground)
//Storyboard Sound Samples

[TimingPoints]
25,461.538461538462,4,2,1,35,1,0
36948,-100,4,3,1,60,0,1
51601,-100,4,3,1,60,0,0
51717,-100,4,3,1,60,0,1
66486,-100,4,1,0,45,0,0
81249,-100,4,2,0,55,0,0
84948,-100,4,1,1,45,0,0
110785,-100,4,1,1,45,0,0
110794,-100,4,3,1,60,0,1
125448,-100,4,3,1,60,0,0
125563,-100,4,3,1,60,0,1
140332,-100,4,1,1,55,0,0
155563,-100,4,1,1,45,0,0
156025,-100,4,1,1,40,0,0
156486,-100,4,1,1,35,0,0
156948,-100,4,1,1,30,0,0
157409,-100,4,1,1,25,0,0
157871,-100,4,1,1,15,0,0
158332,-100,4,1,1,10,0,0
158794,-100,4,1,1,5,0,0

[Colours]
Combo1 : 176,213,234
Combo2 : 190,182,156
Combo3 : 190,200,200
Combo4 : 235,220,205

[HitObjects]
120,184,25,6,0,L|184:244,2,70
113,100,717,2,0,L|57:52,2,70
190,133,1409,2,0,L|264:134,1,70,2|0,0:0|0:0,0:0:0:0:
338,102,1871,6,0,L|394:54,2,70,0|0|2,0:0|0:0|0:0,0:0:0:0:
259,133,2563,1,0,0:0:0:0:
221,202,2794,2,0,B|177:217|144:191|77:208,1,140,0|2,0:0|0:0,0:0:0:0:
39,353,3717,1,0,0:0:0:0:
205,332,4178,6,0,L|293:324,1,70,2|0,0:0|0:0,0:0:0:0:
356,348,4640,2,0,P|349:263|323:190,1,140,0|2,0:0|0:0,0:0:0:0:
271,153,5332,1,0,0:0:0:0:
195,189,5563,6,0,P|187:141|207:97,1,70
209,38,6025,2,0,P|169:38|129:65,1,70,2|0,0:0|0:0,0:0:0:0:
82,109,6486,1,0,0:0:0:0:
84,272,6948,1,2,0:0:0:0:
84,272,7409,1,0,0:0:0:0:
160,307,7640,1,0,0:0:0:0:
242,323,7871,6,0,P|310:307|382:323,1,140,2|2,0:0|0:0,0:0:0:0:
479,186,8794,1,2,0:0:0:0:
396,172,9025,1,0,0:0:0:0:
266,278,9486,5,0,0:0:0:0:
321,214,9717,1,2,0:0:0:0:
319,129,9948,1,2,0:0:0:0:
298,47,10178,2,0,P|248:79|235:154,1,140,0|2,0:0|0:0,0:3:0:0:
229,322,11101,5,2,0:0:0:0:
109,203,11563,1,0,0:0:0:0:
36,245,11794,1,0,0:0:0:0:
92,308,12025,2,0,B|185:326|208:240,1,140,2|2,0:0|0:0,0:0:0:0:
240,176,12717,2,0,B|259:102|347:108,1,140,2|0,0:0|0:0,0:0:0:0:
432,108,13409,5,2,0:0:0:0:
476,272,13871,1,0,0:0:0:0:
312,308,14332,1,2,0:0:0:0:
264,148,14794,1,0,0:0:0:0:
264,148,15255,6,0,P|274:230|248:300,1,140,2|0,0:0|0:0,0:0:0:0:
101,344,16178,2,0,P|79:270|110:185,1,140,2|0,0:0|0:0,0:0:0:0:
237,122,17101,2,0,P|305:111|366:74,1,140,2|0,0:0|0:0,0:0:0:0:
441,41,17794,1,0,0:0:0:0:
459,123,18025,2,0,P|476:189|461:265,1,140,2|0,0:0|0:0,0:0:0:0:
320,345,18948,1,2,0:0:0:0:
352,268,19178,1,2,0:0:0:0:
382,189,19409,6,0,P|319:187|268:265,1,140,0|2,0:0|0:0,0:0:0:0:
191,269,20101,2,0,P|126:232|99:153,1,140,2|0,0:0|0:0,0:0:0:0:
62,99,20794,1,2,0:0:0:0:
220,48,21255,2,0,L|312:56,2,70,0|0|2,0:0|0:0|0:0,0:0:0:0:
100,164,22178,5,0,3:0:0:0:
220,48,22640,2,0,P|296:52|380:40,1,140
480,160,23563,2,0,P|492:196|492:236,2,70
359,44,24486,6,0,P|331:116|355:188,1,140
463,295,25409,2,0,P|447:335|407:351,2,70
345,174,26332,6,0,L|205:169,1,140
46,225,27255,2,0,P|27:257|29:298,2,70
207,178,28178,6,0,P|279:158|343:98,1,140
471,28,29101,2,0,L|471:112,1,70
468,182,29563,5,0,3:0:0:0:
404,337,30025,1,0,3:0:0:0:
248,276,30486,1,0,3:0:0:0:
308,120,30948,1,0,3:0:0:0:
248,276,31409,5,0,3:0:0:0:
404,337,31871,1,0,3:0:0:0:
468,182,32332,1,0,3:0:0:0:
308,120,32794,1,0,3:0:0:0:
151,58,33255,6,0,P|142:103|157:147,1,70,2|2,0:0|0:0,0:0:0:0:
213,178,33717,2,0,P|222:220|201:257,1,70,0|2,0:0|0:0,0:0:0:0:
168,315,34178,2,0,P|208:330|256:321,1,70,0|2,0:0|0:0,0:0:0:0:
318,325,34640,2,0,P|361:317|399:288,2,70,2|2|0,0:0|0:0|0:0,0:0:0:0:
167,258,35563,1,0,0:0:0:0:
166,258,36025,2,0,P|89:241|29:177,2,140,0|8|4,0:0|0:0|0:0,0:0:0:0:
326,208,37409,5,8,0:0:0:0:
412,63,37871,2,0,P|424:131|414:209,1,140
334,346,38794,2,0,P|322:278|326:206,1,140,0|8,0:0|0:0,0:0:0:0:
227,71,39717,2,0,P|196:52|163:11,2,70
283,134,40409,6,2,P|292:210|283:290,1,140,0|0,0:0|0:0,0:0:0:0:
217,320,41101,2,2,P|209:239|225:162,1,140,0|0,0:0|0:0,0:0:0:0:
377,123,42025,5,8,0:0:0:0:
419,50,42255,2,2,P|448:77|459:130,2,70,0|0|0,0:0|0:0|0:0,0:0:0:0:
377,123,42948,2,2,L|397:199,1,70,0|0,0:0|0:0,0:0:0:0:
423,270,43409,1,0,0:0:0:0:
265,324,43871,2,0,P|189:301|133:256,1,140,8|0,0:0|0:0,0:0:0:0:
78,109,44794,6,0,P|114:99|163:123,1,70
222,139,45255,2,0,P|266:148|301:137,1,70
369,115,45717,2,0,P|407:109|434:92,2,70,8|0|0,0:0|0:0|0:0,0:0:0:0:
228,206,46640,1,8,0:0:0:0:
103,93,47101,2,0,L|84:11,2,70
185,113,47794,6,2,P|145:170|70:171,1,140,0|0,0:0|0:0,0:0:0:0:
37,247,48486,2,2,P|73:318|150:335,1,140,0|0,0:0|0:0,0:0:0:0:
287,287,49410,5,8,0:0:0:0:
339,221,49640,2,2,P|368:248|373:301,2,70,0|0|0,0:0|0:0|0:0,0:0:0:0:
285,155,50333,2,2,L|208:157,1,70,0|0,0:0|0:0,0:0:0:0:
216,240,50794,2,2,L|141:240,1,70,0|0,0:0|0:0,0:0:0:0:
64,221,51255,2,4,P|86:299|160:321,1,140,8|4,0:0|0:0,0:0:0:0:
303,324,52178,5,8,0:0:0:0:
268,159,52640,2,0,P|275:89|263:20,1,140
116,101,53563,2,0,P|109:173|124:239,1,140,0|8,0:0|0:0,0:0:0:0:
290,220,54486,6,0,P|327:201|380:201,2,70
251,295,55178,2,2,P|182:344|113:315,1,140,0|0,0:0|0:0,0:0:0:0:
176,258,55870,2,2,P|218:211|301:231,1,140,0|0,0:0|0:0,0:0:0:0:
413,332,56794,5,8,0:0:0:0:
487,294,57025,2,2,P|495:342|479:385,2,70,0|0|0,0:0|0:0|0:0,0:0:0:0:
447,220,57717,2,2,L|416:148,1,70,0|0,0:0|0:0,0:0:0:0:
354,103,58178,1,0,0:0:0:0:
198,42,58640,2,0,P|145:79|116:171,1,140,8|0,0:0|0:0,0:0:0:0:
94,313,59563,6,0,P|130:303|159:254,1,70,8|0,0:0|0:0,0:0:0:0:
186,202,60024,2,0,P|215:169|253:156,1,70
322,148,60486,2,0,P|360:142|387:125,2,70
180,58,61409,1,8,0:0:0:0:
49,162,61870,2,0,P|28:194|29:238,2,70
134,154,62563,2,2,P|201:191|228:260,1,140,0|0,0:0|0:0,0:0:0:0:
164,315,63255,6,2,P|230:342|299:302,1,140,0|0,0:0|0:0,0:0:0:0:
433,228,64179,5,8,0:0:0:0:
452,146,64409,2,2,P|471:100|511:78,2,70,0|0|0,0:0|0:0|0:0,0:0:0:0:
371,172,65101,2,2,L|294:174,1,70,0|0,0:0|0:0,0:0:0:0:
217,178,65563,2,2,P|185:155|174:127,1,70,0|0,0:0|0:0,0:0:0:0:
151,46,66025,2,0,P|206:50|254:116,1,140,8|4,0:0|0:0,0:0:0:0:
184,260,81255,6,0,L|132:204,1,70,2|0,0:0|0:0,0:0:0:0:
213,174,81717,2,0,L|177:110,1,70,2|0,0:0|0:0,0:0:0:0:
261,98,82178,2,0,L|241:18,2,70
289,178,82871,2,0,P|309:226|345:246,1,70
373,170,83332,1,0,0:0:0:0:
450,137,83563,2,0,P|449:205|386:255,2,140,2|0|0,0:0|0:0|0:0,0:0:0:0:
373,170,84717,5,2,0:0:0:0:
305,220,84948,2,0,P|252:249|168:200,1,140,8|0,3:0|0:0,0:0:0:0:
136,62,85871,2,0,P|79:76|28:169,2,140
299,102,87255,1,0,0:0:0:0:
462,60,87717,5,0,0:0:0:0:
414,221,88178,2,0,P|400:259|359:294,2,70
356,63,89101,2,0,P|299:105|208:102,1,140
64,88,90025,2,0,P|40:116|40:168,2,70
220,148,90948,5,0,0:0:0:0:
156,304,91409,1,0,0:0:0:0:
0,241,91871,1,0,0:0:0:0:
64,88,92332,1,0,0:0:0:0:
220,148,92794,6,0,P|261:218|339:202,1,140
468,155,93717,2,0,P|485:186|492:232,2,70
313,219,94640,2,0,B|269:232|269:232|213:223|173:233,2,140
443,113,96025,6,0,L|451:253,2,140
289,164,97409,1,0,0:0:0:0:
289,164,97640,1,0,0:0:0:0:
289,164,97871,2,0,L|297:304,2,140
136,119,99255,1,0,0:0:0:0:
136,119,99486,1,0,0:0:0:0:
136,119,99717,6,0,L|144:259,2,140
291,56,101101,2,0,B|248:88|238:144|238:144|197:179,1,140
90,279,102025,1,0,0:0:0:0:
244,344,102486,1,0,0:0:0:0:
347,210,102948,1,0,0:0:0:0:
188,153,103409,6,0,P|139:106|170:39,1,140,0|0,3:0|3:0,0:0:0:0:
320,100,104332,2,0,P|368:148|340:216,1,140,0|0,3:0|3:0,0:0:0:0:
187,153,105255,1,0,0:0:0:0:
65,269,105717,1,0,0:0:0:0:
218,340,106178,2,0,P|291:345|377:324,1,140
441,187,107101,6,0,P|414:119|311:90,1,140
274,100,107794,1,0,0:0:0:0:
228,170,108025,1,0,0:0:0:0:
290,327,108486,5,0,0:0:0:0:
228,170,108948,1,0,0:0:0:0:
134,311,109409,1,0,0:0:0:0:
287,240,109871,1,0,0:0:0:0:
432,153,110332,1,8,2:0:0:0:
273,97,110794,5,4,0:0:0:0:
168,226,111256,1,8,0:0:0:0:
59,354,111718,2,0,P|47:286|57:208,1,140
159,87,112641,2,0,P|171:155|167:227,1,140,0|8,0:0|0:0,0:0:0:0:
284,346,113564,2,0,P|326:335|354:305,2,70
200,350,114256,6,2,P|191:274|200:194,1,140,0|0,0:0|0:0,0:0:0:0:
280,206,114948,2,2,P|288:287|280:362,1,140,0|0,0:0|0:0,0:0:0:0:
115,330,115872,5,8,0:0:0:0:
53,273,116101,2,2,P|24:246|19:193,2,70,0|0|0,0:0|0:0|0:0,0:0:0:0:
132,243,116795,2,2,L|231:244,1,70,0|0,0:0|0:0,0:0:0:0:
265,188,117256,1,0,0:0:0:0:
378,63,117717,2,0,P|401:122|381:200,1,140,8|0,0:0|0:0,0:0:0:0:
283,330,118641,6,0,P|247:340|198:316,1,70,8|0,0:0|0:0,0:0:0:0:
170,260,119102,2,0,P|203:250|236:258,1,70
320,244,119564,2,0,P|322:204|302:165,2,70
270,83,120487,1,8,0:0:0:0:
412,170,120948,2,0,P|431:202|431:252,2,70
353,109,121640,6,2,L|199:89,1,140,0|0,0:0|0:0,0:0:0:0:
130,99,122333,2,2,P|86:153|70:225,1,140,0|0,0:0|0:0,0:0:0:0:
182,347,123255,5,8,0:0:0:0:
113,298,123487,2,2,P|69:329|22:322,2,70,0|0|0,0:0|0:0|0:0,0:0:0:0:
188,262,124178,2,2,L|265:260,1,70,0|0,0:0|0:0,0:0:0:0:
341,275,124641,2,2,L|335:182,1,70,0|0,0:0|0:0,0:0:0:0:
398,148,125101,2,4,P|311:125|258:173,1,140,8|4,0:0|0:0,0:0:0:0:
416,237,126025,5,8,0:0:0:0:
273,149,126487,2,0,P|265:218|277:287,1,140
423,374,127409,2,0,P|430:302|414:235,1,140,0|8,0:0|0:0,0:0:0:0:
273,149,128333,2,0,P|236:142|198:125,2,70
339,97,129025,6,2,P|396:47|473:67,1,140,0|0,0:0|0:0,0:0:0:0:
417,129,129717,2,2,P|434:201|383:262,1,140,0|0,0:0|0:0,0:0:0:0:
245,321,130641,5,8,0:0:0:0:
208,246,130871,2,2,P|200:198|216:155,2,70,0|0|0,0:0|0:0|0:0,0:0:0:0:
286,277,131564,2,2,P|287:238|271:192,1,70,0|0,0:0|0:0,0:0:0:0:
243,132,132025,1,0,0:0:0:0:
104,213,132487,2,0,P|86:142|117:62,1,140,8|0,0:0|0:0,0:0:0:0:
273,71,133409,6,0,P|298:106|344:133,1,70,8|0,0:0|0:0,0:0:0:0:
379,181,133871,2,0,P|364:225|325:255,1,70
275,283,134332,2,0,P|247:303|229:341,2,70
443,296,135256,1,8,0:0:0:0:
275,283,135717,2,0,L|259:214,2,70
214,340,136409,6,2,P|188:278|191:193,1,140,0|0,0:0|0:0,0:0:0:0:
252,152,137101,2,2,P|186:125|117:165,1,140,0|0,0:0|0:0,0:0:0:0:
36,293,138025,5,8,0:0:0:0:
117,273,138256,2,2,L|208:277,2,70,0|0|0,0:0|0:0|0:0,0:0:0:0:
62,208,138948,2,2,L|70:113,1,70,0|0,0:0|0:0,0:0:0:0:
105,63,139409,2,2,P|137:86|148:114,1,70,0|0,0:0|0:0,0:0:0:0:
168,195,139871,2,0,P|206:250|280:255,1,140,8|4,0:0|0:0,0:0:0:0:
442,272,140794,6,0,P|480:300|491:339,2,70
274,257,141717,1,0,0:0:0:0:
152,142,142178,6,0,P|108:122|72:86,2,70
296,56,143101,1,0,0:0:0:0:
428,159,143563,1,0,0:0:0:0:
268,211,144025,1,4,0:0:0:0:
142,99,144486,6,0,P|78:127|50:199,1,140
176,300,145409,2,0,P|240:272|268:200,1,140
324,52,146332,2,0,P|396:36|480:60,2,140
221,185,147717,5,4,0:0:0:0:
353,287,148178,1,2,0:0:0:0:
441,143,148640,1,0,0:0:0:0:
301,49,149101,2,0,P|265:25|229:17,2,70,2|2|0,0:0|0:0|0:0,0:0:0:0:
329,215,150025,2,0,B|358:254|418:236|456:269,2,140,2|0|2,0:0|0:0|0:0,0:0:0:0:
161,223,151409,5,0,0:0:0:0:
104,64,151871,2,2,L|172:48,1,70,0|0,0:0|0:0,0:0:0:0:
214,121,152332,2,2,L|298:97,1,70,0|0,0:0|0:0,0:0:0:0:
365,117,152794,2,0,P|361:75|338:37,2,70,2|2|0,0:0|0:0|0:0,0:0:0:0:
291,268,153717,5,0,0:0:0:0:
126,297,154178,1,0,0:0:0:0:
91,133,154640,1,0,0:0:0:0:
257,109,155101,1,4,2:0:0:0:
256,192,155563,12,0,158794,0:0:0:0:
