osu file format v13

[General]
AudioFilename: All-Star Theme (Metal Sonic) - Sonic & All-Stars Racing Transformed Music Extended (1).mp3
AudioLeadIn: 0
PreviewTime: -1
Countdown: 1
SampleSet: None
StackLeniency: 0.7
Mode: 0
LetterboxInBreaks: 1
WidescreenStoryboard: 1

[Editor]
DistanceSpacing: 1.2
BeatDivisor: 2
GridSize: 4
TimelineZoom: 2.1

[Metadata]
Title:All-Star Theme (Metal Sonic)
TitleUnicode:All-Star Theme (Metal Sonic)
Artist:SEGA
ArtistUnicode:SEGA
Creator:baraatje123
Version:Normal
Source:Sonic & All-Stars Racing Transformed
Tags:
BeatmapID:448925
BeatmapSetID:188346

[Difficulty]
HPDrainRate:4.5
CircleSize:4
OverallDifficulty:4.5
ApproachRate:4.5
SliderMultiplier:1.2
SliderTickRate:2

[Events]
//Background and Video events
//Break Periods
//Storyboard Layer 0 (Background)
//Storyboard Layer 1 (Fail)
//Storyboard Layer 2 (Pass)
//Storyboard Layer 3 (Foreground)
//Storyboard Sound Samples
//Background Colour Transformations
3,100,163,162,255

[TimingPoints]
80,342.857142857143,4,3,0,100,1,0
1451,-100,4,2,2,100,0,0
34365,-83.3333333333333,4,2,1,100,0,1
45337,-100,4,2,2,100,0,0
56308,-83.3333333333333,4,2,1,100,0,1
67280,-100,4,2,2,100,0,0
74137,-100,4,2,2,50,0,0
77565,-100,4,2,2,30,0,0

[Colours]
Combo1 : 0,255,255
Combo2 : 0,0,255
Combo3 : 0,64,128
Combo4 : 0,128,192

[HitObjects]
100,192,80,6,0,P|160:152|220:144,1,120,8|8,0:0|0:0,0:0:0:0:
324,204,765,2,0,P|264:244|204:252,1,120,8|8,0:0|0:0,0:0:0:0:
156,228,1280,1,8,0:0:0:0:
100,192,1451,6,0,P|84:128|132:80,1,120,12|12,0:0|0:0,0:0:0:0:
169,123,1966,2,0,P|187:179|156:228,1,120,6|14,0:0|0:0,0:0:0:0:
100,192,2480,2,0,L|64:268,1,60,12|2,0:0|0:0,0:0:0:0:
48,308,2822,6,0,B|96:344|96:344|164:344,1,120,4|12,0:0|0:0,0:0:0:0:
216,312,3337,2,0,B|168:276|168:276|96:276,1,120,6|10,0:0|0:0,0:0:0:0:
48,308,3851,2,0,L|-12:252,1,60,8|2,0:0|0:0,0:0:0:0:
12,200,4194,6,0,P|60:136|220:116,1,240,4|4,0:0|0:0,0:0:0:0:
256,236,5222,1,8,0:0:0:0:
301,112,5565,2,0,P|418:115|500:200,1,240,4|0,0:0|0:0,0:0:0:0:
372,236,6594,1,8,0:0:0:0:
256,300,6937,6,0,P|172:296|144:256,1,120,4|12,0:0|0:0,0:0:0:0:
112,220,7451,2,0,P|196:224|224:264,1,120,6|14,0:0|0:0,0:0:0:0:
256,300,7965,2,0,P|300:328|344:328,1,60,12|2,0:0|0:0,0:0:0:0:
372,316,8308,6,0,B|408:288|408:288|408:216|472:212,1,120,4|12,0:0|0:0,0:0:0:0:
512,248,8823,2,0,B|476:276|476:276|476:348|412:352,1,120,6|14,0:0|0:0,0:0:0:0:
372,316,9337,2,0,L|292:348,1,60,12|2,0:0|0:0,0:0:0:0:
252,352,9680,6,0,P|192:324|192:156,1,240,4|4,0:0|0:0,0:0:0:0:
400,20,11051,6,0,P|460:48|460:216,1,240,4|4,0:0|0:0,0:0:0:0:
356,272,12080,1,8,0:0:0:0:
240,332,12422,6,0,P|156:320|136:272,1,120,4|12,0:0|0:0,0:0:0:0:
104,240,12937,2,0,P|188:252|208:300,2,120,6|14|6,0:0|0:0|0:0,0:0:0:0:
256,192,13965,12,4,15165,0:0:0:0:
256,76,15680,5,6,0:0:0:0:
256,272,16194,2,0,P|332:272|360:224,1,120,12|4,0:0|0:0,0:0:0:0:
396,188,16709,2,0,P|320:188|292:236,1,120,6|6,0:0|0:0,0:0:0:0:
256,272,17222,1,4,0:0:0:0:
152,192,17565,1,12,0:0:0:0:
152,60,17908,6,0,L|288:60,1,120,4|12,0:0|0:0,0:0:0:0:
292,124,18423,2,0,L|156:124,2,120,6|14|6,0:0|0:0|0:0,0:0:0:0:
256,192,19451,12,4,20651,0:0:0:0:
256,116,21165,5,6,0:0:0:0:
256,316,21680,6,0,P|192:340|144:304,1,120,12|4,0:0|0:0,0:0:0:0:
204,276,22195,2,0,P|268:252|316:288,1,120,6|6,0:0|0:0,0:0:0:0:
256,316,22708,2,0,L|256:376,2,60,4|14|12,0:0|0:0|0:0,0:0:0:0:
320,200,23394,6,0,P|400:220|448:184,1,120,4|12,0:0|0:0,0:0:0:0:
380,160,23909,2,0,P|300:140|252:176,1,120,6|14,0:0|0:0,0:0:0:0:
320,200,24422,2,0,L|320:272,1,60,8|2,0:0|0:0,0:0:0:0:
264,292,24765,6,0,B|224:308|224:308|192:300|192:300|124:300,1,120,4|12,0:0|0:0,0:0:0:0:
112,244,25280,2,0,B|152:228|152:228|184:236|184:236|252:236,1,120,6|14,0:0|0:0,0:0:0:0:
264,292,25794,2,0,L|336:292,1,60,12|2,0:0|0:0,0:0:0:0:
392,292,26137,5,4,0:0:0:0:
256,68,26822,5,4,0:0:0:0:
120,292,27508,5,4,0:0:0:0:
392,292,28194,5,0,0:0:0:0:
328,176,28537,1,8,0:0:0:0:
256,68,28880,6,0,B|204:84|192:116|192:116|124:136,1,120,4|12,0:0|0:0,0:0:0:0:
192,184,29394,2,0,B|244:168|256:136|256:136|324:116,1,120,6|14,0:0|0:0,0:0:0:0:
256,68,29908,2,0,L|192:28,1,60,12|2,0:0|0:0,0:0:0:0:
140,48,30251,6,0,L|40:120,1,120,4|12,0:0|0:0,0:0:0:0:
68,180,30766,2,0,L|168:108,1,120,6|14,0:0|0:0,0:0:0:0:
140,48,31280,2,0,L|196:24,1,60,12|2,0:0|0:0,0:0:0:0:
256,48,31622,6,0,L|352:144,1,120,4|8,0:0|0:0,0:0:0:0:
460,192,32308,2,0,L|364:288,1,120,4|8,0:0|0:0,0:0:0:0:
256,336,32994,6,0,L|160:240,1,120,4|8,0:0|0:0,0:0:0:0:
52,192,33680,2,0,L|148:96,1,120,4|8,0:0|0:0,0:0:0:0:
292,80,34365,6,0,P|308:128|432:156,1,143.999995605469,4|12,0:0|0:0,0:0:0:0:
468,172,34880,2,0,P|452:124|328:96,2,143.999995605469,6|14|6,0:0|0:0|0:0,0:0:0:0:
348,276,35908,5,6,0:0:0:0:
268,276,36080,2,0,L|180:276,1,71.9999978027344,12|6,0:0|0:0,0:0:0:0:
240,212,36423,2,0,L|328:212,1,71.9999978027344,4|14,0:0|0:0,0:0:0:0:
268,276,36765,2,0,L|180:276,1,71.9999978027344,12|6,0:0|0:0,0:0:0:0:
132,228,37108,6,0,P|96:152|160:64,1,143.999995605469,4|12,0:0|0:0,0:0:0:0:
160,32,37622,2,0,P|196:108|132:196,1,143.999995605469,6|10,0:0|0:0,0:0:0:0:
132,228,38137,6,0,P|96:152|160:64,1,143.999995605469,12|4,0:0|0:0,0:0:0:0:
160,32,38651,2,0,P|196:108|132:196,1,143.999995605469,6|6,0:0|0:0,0:0:0:0:
132,228,39165,6,0,P|116:280|168:328,1,71.9999978027344,4|14,0:0|0:0,0:0:0:0:
184,344,39509,2,0,P|200:292|148:244,1,71.9999978027344,12|6,0:0|0:0,0:0:0:0:
132,228,39851,6,0,P|96:152|160:64,1,143.999995605469,4|12,0:0|0:0,0:0:0:0:
160,32,40365,2,0,P|196:108|132:196,2,143.999995605469,6|14|6,0:0|0:0|0:0,0:0:0:0:
178,161,41394,5,6,0:0:0:0:
256,200,41565,2,0,L|352:200,1,71.9999978027344,12|6,0:0|0:0,0:0:0:0:
388,140,41908,2,0,L|388:64,1,71.9999978027344,4|14,0:0|0:0,0:0:0:0:
344,12,42251,2,0,L|268:12,1,71.9999978027344,12|6,0:0|0:0,0:0:0:0:
272,92,42594,2,0,B|316:96|316:96|352:64|436:84,1,143.999995605469,4|12,0:0|0:0,0:0:0:0:
480,43,43108,2,0,P|415:13|344:12,1,143.999995605469,6|10,0:0|0:0,0:0:0:0:
256,20,43622,6,0,P|168:100|96:72,1,143.999995605469,12|4,0:0|0:0,0:0:0:0:
168,16,44137,2,0,P|228:108|208:184,1,143.999995605469,6|6,0:0|0:0,0:0:0:0:
216,216,44651,6,0,P|208:256|164:296,1,71.9999978027344,4|14,0:0|0:0,0:0:0:0:
112,296,44994,6,0,P|120:256|164:216,1,71.9999978027344,12|6,0:0|0:0,0:0:0:0:
216,216,45337,6,0,P|332:188|340:168,1,120,4|12,0:0|0:0,0:0:0:0:
372,144,45851,2,0,P|256:172|248:192,1,120,6|14,0:0|0:0,0:0:0:0:
216,215,46365,2,0,P|197:239|189:267,1,60,12|2,0:0|0:0,0:0:0:0:
204,340,46708,6,0,P|132:356|64:320,1,120,4|12,0:0|0:0,0:0:0:0:
74,269,47223,2,0,P|131:252|189:268,1,120,6|14,0:0|0:0,0:0:0:0:
204,340,47737,2,0,P|256:360|292:352,1,60,12|2,0:0|0:0,0:0:0:0:
328,340,48080,6,0,B|384:308|340:236|340:236|304:160|396:104,2,240,4|4|4,0:0|0:0|0:0,0:0:0:0:
256,192,49622,12,4,50822,0:0:0:0:
204,120,51337,6,0,L|204:248,1,120,6|14,0:0|0:0,0:0:0:0:
256,272,51851,2,0,L|298:314,1,60,12|2,0:0|0:0,0:0:0:0:
256,272,52194,6,0,P|320:224|384:224,1,120,4|12,0:0|0:0,0:0:0:0:
399,261,52709,2,0,P|355:301|298:314,1,120,6|14,0:0|0:0,0:0:0:0:
256,272,53222,2,0,L|184:272,1,60,12|2,0:0|0:0,0:0:0:0:
136,260,53565,6,0,B|104:228|136:196|136:196|136:152|136:152|104:120|136:88|136:88|192:88,1,240,4|4,0:0|0:0,0:0:0:0:
400,192,54936,6,0,B|432:224|400:256|400:256|400:300|400:300|432:332|400:364|400:364|344:364,1,240,4|4,0:0|0:0,0:0:0:0:
256,92,56308,6,0,P|196:120|168:200,1,143.999995605469,4|12,0:0|0:0,0:0:0:0:
167,276,56823,2,0,P|230:245|256:180,2,143.999995605469,6|14|6,0:0|0:0|0:0,0:0:0:0:
56,144,57851,5,6,0:0:0:0:
128,100,58022,2,0,P|164:72|220:72,1,71.9999978027344,12|6,0:0|0:0,0:0:0:0:
264,108,58366,2,0,P|228:136|172:136,1,71.9999978027344,4|14,0:0|0:0,0:0:0:0:
128,100,58708,2,0,P|80:68|40:72,1,71.9999978027344,12|6,0:0|0:0,0:0:0:0:
56,144,59051,6,0,L|56:304,1,143.999995605469,4|12,0:0|0:0,0:0:0:0:
144,288,59565,1,6,0:0:0:0:
404,288,60080,6,0,L|404:128,1,143.999995605469,12|4,0:0|0:0,0:0:0:0:
316,145,60594,1,6,0:0:0:0:
256,192,60937,12,4,61794,0:0:0:0:
169,278,62308,5,6,0:0:0:0:
169,105,62651,1,14,0:0:0:0:
342,105,62993,1,6,0:0:0:0:
342,278,63336,1,6,0:0:0:0:
344,192,63508,2,0,L|260:192,1,71.9999978027344,12|6,0:0|0:0,0:0:0:0:
272,104,63851,2,0,L|184:104,1,71.9999978027344,4|14,0:0|0:0,0:0:0:0:
200,192,64194,2,0,L|124:192,1,71.9999978027344,12|6,0:0|0:0,0:0:0:0:
128,280,64537,6,0,P|200:344|272:300,1,143.999995605469,4|12,0:0|0:0,0:0:0:0:
256,252,65051,1,6,0:0:0:0:
400,76,65565,6,0,P|328:12|256:56,1,143.999995605469,12|4,0:0|0:0,0:0:0:0:
272,104,66079,1,6,0:0:0:0:
256,192,66422,12,4,67280,0:0:0:0:
256,56,67794,6,0,P|204:124|136:120,1,120,6|14,0:0|0:0,0:0:0:0:
104,140,68308,2,0,L|104:228,1,60,12|2,0:0|0:0,0:0:0:0:
168,232,68651,6,0,P|222:253|249:305,1,120,4|12,0:0|0:0,0:0:0:0:
260,376,69166,2,0,P|205:354|178:302,1,120,6|14,0:0|0:0,0:0:0:0:
168,232,69680,2,0,P|188:156|216:144,1,60,12|2,0:0|0:0,0:0:0:0:
208,112,70022,6,0,P|292:60|412:148,2,240,4|4|4,0:0|0:0|0:0,0:0:0:0:
256,192,71565,12,4,72765,0:0:0:0:
184,212,73280,6,0,P|156:132|176:96,1,120,6|14,0:0|0:0,0:0:0:0:
232,144,73794,2,0,P|258:158|287:158,1,60,12|2,0:0|0:0,0:0:0:0:
328,96,74137,6,0,P|392:152|392:228,1,120,4|12,0:0|0:0,0:0:0:0:
359,246,74651,2,0,P|309:213|288:159,1,120,6|14,0:0|0:0,0:0:0:0:
328,96,75165,2,0,L|396:96,1,60,12|2,0:0|0:0,0:0:0:0:
460,104,75508,6,0,L|460:352,1,240,4|4,0:0|0:0,0:0:0:0:
176,296,76880,2,0,L|176:48,1,240,4|4,0:0|0:0,0:0:0:0:
248,52,77737,1,4,0:0:0:0:
316,68,77908,1,4,0:0:0:0:
376,108,78080,1,4,0:0:0:0:
420,164,78251,1,4,0:0:0:0:
