osu file format v13

[General]
AudioFilename: All-Star Theme (Metal Sonic) - Sonic & All-Stars Racing Transformed Music Extended (1).mp3
AudioLeadIn: 0
PreviewTime: -1
Countdown: 1
SampleSet: Soft
StackLeniency: 0.7
Mode: 0
LetterboxInBreaks: 1
WidescreenStoryboard: 0

[Editor]
DistanceSpacing: 1.1
BeatDivisor: 8
GridSize: 4
TimelineZoom: 2.1

[Metadata]
Title:All-Star Theme (Metal Sonic)
TitleUnicode:All-Star Theme (Metal Sonic)
Artist:SEGA
ArtistUnicode:SEGA
Creator:baraatje123
Version:Insane
Source:Sonic & All-Stars Racing Transformed
Tags:
BeatmapID:448924
BeatmapSetID:188346

[Difficulty]
HPDrainRate:6.5
CircleSize:4
OverallDifficulty:5
ApproachRate:9
SliderMultiplier:2
SliderTickRate:2

[Events]
//Background and Video events
//Break Periods
//Storyboard Layer 0 (Background)
//Storyboard Layer 1 (Fail)
//Storyboard Layer 2 (Pass)
//Storyboard Layer 3 (Foreground)
//Storyboard Sound Samples
//Background Colour Transformations
3,100,163,162,255

[TimingPoints]
80,342.857142857143,4,3,0,100,1,0
1108,-50,4,3,0,100,0,0
1451,-100,4,2,2,100,0,0
34365,-83.3333333333333,4,2,1,100,0,1
45337,-83.3333333333333,4,2,2,100,0,0
56308,-83.3333333333333,4,2,1,100,0,1
67280,-100,4,2,2,100,0,0
74137,-100,4,2,2,50,0,0
77565,-100,4,2,2,30,0,0

[Colours]
Combo1 : 0,255,255
Combo2 : 0,0,255
Combo3 : 0,64,128
Combo4 : 0,128,192

[HitObjects]
256,76,80,6,0,L|256:144,7,50,8|8|8|8|8|8|8|8,0:0|0:0|0:0|0:0|0:0|0:0|0:0|0:0,0:0:0:0:
280,176,765,2,0,L|320:188,3,25,8|0|8|0,0:0|0:0|0:0|0:0,0:0:0:0:
332,188,937,2,0,L|364:192,3,25,8|0|8|0,0:0|0:0|0:0|0:0,0:0:0:0:
412,200,1108,2,0,L|476:192,8,50,8|0|8|0|8|0|8|0|12,0:0|0:0|0:0|0:0|0:0|0:0|0:0|0:0|0:0,0:0:0:0:
436,130,1451,6,0,P|351:81|256:103,1,200,12|12,0:0|0:0,0:0:0:0:
77,130,1966,2,0,P|161:81|256:103,1,200,6|14,0:0|0:0,0:0:0:0:
277,351,2480,1,12,0:0:0:0:
256,103,2651,1,2,0:0:0:0:
277,351,2822,6,0,B|376:326|368:270|368:270|416:202,1,200,4|12,0:0|0:0,0:0:0:0:
106,217,3337,2,0,B|144:270|144:270|136:326|235:351,1,200,6|10,0:0|0:0,0:0:0:0:
256,103,3851,1,8,0:0:0:0:
236,351,4022,1,2,0:0:0:0:
292,192,4194,6,0,P|356:148|364:96,1,100,4|2,0:0|0:0,0:0:0:0:
327,41,4537,2,0,P|281:60|256:102,1,100,8|2,0:0|0:0,0:0:0:0:
228,192,4879,2,0,P|164:148|156:96,1,100,4|10,0:0|0:0,0:0:0:0:
185,41,5222,2,0,P|230:60|255:102,1,100,8|2,0:0|0:0,0:0:0:0:
292,192,5566,6,0,P|356:236|364:288,1,100,4|2,0:0|0:0,0:0:0:0:
327,343,5909,2,0,P|281:323|256:281,1,100,8|2,0:0|0:0,0:0:0:0:
228,192,6252,1,0,0:0:0:0:
211,195,6337,1,0,0:0:0:0:
196,202,6423,1,10,0:0:0:0:
182,211,6509,1,0,0:0:0:0:
171,224,6594,1,8,0:0:0:0:
162,238,6680,1,0,0:0:0:0:
157,253,6766,1,2,0:0:0:0:
326,343,6937,6,0,P|404:328|432:200,1,200,4|12,0:0|0:0,0:0:0:0:
186,343,7452,2,0,P|108:328|80:200,1,200,6|14,0:0|0:0,0:0:0:0:
292,32,7965,1,12,0:0:0:0:
70,223,8137,1,2,0:0:0:0:
292,32,8308,6,0,B|332:40|344:108|344:108|408:56|416:152|468:120,1,200,4|12,0:0|0:0,0:0:0:0:
220,32,8823,2,0,B|180:40|168:108|168:108|104:56|96:152|44:120,1,200,6|14,0:0|0:0,0:0:0:0:
432,261,9337,1,12,0:0:0:0:
79,122,9509,1,2,0:0:0:0:
432,261,9680,6,0,P|344:296|332:336,1,100,4|2,0:0|0:0,0:0:0:0:
186,368,10023,2,0,P|152:280|112:268,1,100,8|2,0:0|0:0,0:0:0:0:
79,122,10366,2,0,P|168:88|180:48,1,100,4|10,0:0|0:0,0:0:0:0:
325,15,10709,2,0,P|360:104|400:116,1,100,8|2,0:0|0:0,0:0:0:0:
432,261,11051,2,0,P|388:320|328:308,1,100,4|2,0:0|0:0,0:0:0:0:
186,368,11394,2,0,P|128:324|140:264,1,100,8|2,0:0|0:0,0:0:0:0:
79,122,11737,1,4,0:0:0:0:
85,98,11822,1,0,0:0:0:0:
99,78,11908,1,10,0:0:0:0:
120,65,11994,1,0,0:0:0:0:
145,61,12079,1,8,0:0:0:0:
195,61,12165,1,0,0:0:0:0:
245,61,12251,1,2,0:0:0:0:
295,61,12337,1,0,0:0:0:0:
345,61,12422,6,0,P|381:145|302:192,1,200,4|12,0:0|0:0,0:0:0:0:
345,322,12937,2,0,P|381:238|302:191,1,200,6|14,0:0|0:0,0:0:0:0:
99,78,13451,1,8,0:0:0:0:
302,191,13622,1,6,0:0:0:0:
99,305,13794,1,0,0:0:0:0:
302,191,13965,1,6,0:0:0:0:
99,78,14137,1,12,0:0:0:0:
302,191,14308,1,6,0:0:0:0:
99,305,14480,1,4,0:0:0:0:
99,78,14651,1,14,0:0:0:0:
99,305,14822,1,12,0:0:0:0:
302,191,14994,1,6,0:0:0:0:
256,340,15165,6,0,B|308:340|340:292|340:292|392:292|424:244,1,200,4|12,0:0|0:0,0:0:0:0:
256,340,15680,2,0,B|204:340|172:292|172:292|120:292|88:244,1,200,6|10,0:0|0:0,0:0:0:0:
176,192,16194,6,0,L|384:192,1,200,12|4,0:0|0:0,0:0:0:0:
476,192,16709,2,0,L|268:192,1,200,6|6,0:0|0:0,0:0:0:0:
176,192,17223,1,4,0:0:0:0:
276,192,17394,1,14,0:0:0:0:
376,192,17565,1,12,0:0:0:0:
476,192,17737,1,6,0:0:0:0:
256,36,17908,5,4,0:0:0:0:
256,36,18251,1,12,0:0:0:0:
256,36,18423,38,0,B|208:24|160:52|160:52|108:32|68:72,1,200,6|14,0:0|0:0,0:0:0:0:
256,36,19108,2,0,B|304:24|352:52|352:52|404:32|444:72,1,200,6|6,0:0|0:0,0:0:0:0:
256,264,19623,1,12,0:0:0:0:
444,72,19794,1,6,0:0:0:0:
256,264,19965,6,0,B|304:252|328:200,1,100,4|14,0:0|0:0,0:0:0:0:
108,128,20308,2,0,B|132:180|180:192,1,100,12|6,0:0|0:0,0:0:0:0:
356,100,20651,2,0,B|256:100,1,100,4|2,0:0|0:0,0:0:0:0:
336,272,20994,2,0,B|420:272,1,50,12|0,0:0|0:0,0:0:0:0:
472,264,21165,6,0,B|456:320|424:356|364:368|318:352,1,200,6|10,0:0|0:0,0:0:0:0:
40,264,21680,6,0,B|56:320|88:356|148:368|196:352,1,200,12|4,0:0|0:0,0:0:0:0:
406,199,22194,6,0,B|422:245|410:305|374:337|318:353,1,200,6|6,0:0|0:0,0:0:0:0:
208,340,22709,1,4,0:0:0:0:
164,216,22880,1,14,0:0:0:0:
312,212,23051,1,12,0:0:0:0:
156,284,23223,1,6,0:0:0:0:
103,99,23394,6,0,P|192:66|256:136,1,200,4|12,0:0|0:0,0:0:0:0:
408,99,23909,2,0,P|319:66|256:136,1,200,6|14,0:0|0:0,0:0:0:0:
324,328,24422,1,8,0:0:0:0:
256,136,24594,1,2,0:0:0:0:
324,328,24765,6,0,P|384:308|440:184,1,200,4|12,0:0|0:0,0:0:0:0:
188,328,25280,2,0,P|128:308|72:184,1,200,6|14,0:0|0:0,0:0:0:0:
256,32,25794,1,12,0:0:0:0:
71,191,25965,1,2,0:0:0:0:
256,32,26137,5,4,0:0:0:0:
325,95,26822,5,4,0:0:0:0:
260,216,27508,5,4,0:0:0:0:
243,234,27593,1,0,0:0:0:0:
222,248,27679,1,2,0:0:0:0:
198,255,27765,1,0,0:0:0:0:
173,256,27850,1,8,0:0:0:0:
149,251,27936,1,0,0:0:0:0:
124,236,28022,1,2,0:0:0:0:
109,222,28108,1,0,0:0:0:0:
96,201,28194,5,0,0:0:0:0:
89,177,28279,1,0,0:0:0:0:
89,152,28365,1,10,0:0:0:0:
95,128,28450,1,0,0:0:0:0:
107,106,28536,1,8,0:0:0:0:
125,89,28622,1,0,0:0:0:0:
147,76,28708,1,2,0:0:0:0:
171,70,28793,1,0,0:0:0:0:
196,70,28880,6,0,P|272:72|352:172,1,200,4|12,0:0|0:0,0:0:0:0:
315,313,29395,2,0,P|240:312|160:212,1,200,6|14,0:0|0:0,0:0:0:0:
196,70,29908,1,12,0:0:0:0:
315,313,30080,1,2,0:0:0:0:
196,70,30251,6,0,P|112:40|16:120,1,200,4|12,0:0|0:0,0:0:0:0:
315,70,30766,2,0,P|400:40|496:120,1,200,6|14,0:0|0:0,0:0:0:0:
298,270,31280,1,12,0:0:0:0:
486,96,31451,1,2,0:0:0:0:
298,270,31622,6,0,P|348:256|356:176,1,100,4|2,0:0|0:0,0:0:0:0:
178,234,31966,2,0,P|192:284|272:292,1,100,8|2,0:0|0:0,0:0:0:0:
214,114,32308,2,0,P|164:128|156:208,1,100,4|10,0:0|0:0,0:0:0:0:
334,150,32652,2,0,P|320:100|240:92,1,100,8|0,0:0|0:0,0:0:0:0:
298,270,32993,6,0,P|356:300|428:276,1,100,4|2,0:0|0:0,0:0:0:0:
178,234,33336,2,0,P|148:292|172:364,1,100,8|2,0:0|0:0,0:0:0:0:
214,114,33679,2,0,P|156:84|84:108,1,100,4|10,0:0|0:0,0:0:0:0:
334,150,34022,1,8,0:0:0:0:
350,131,34107,1,0,0:0:0:0:
360,108,34193,1,2,0:0:0:0:
364,83,34279,1,0,0:0:0:0:
361,59,34365,6,0,P|220:32|136:108,1,239.999992675781,4|12,0:0|0:0,0:0:0:0:
172,216,34879,2,0,P|313:243|397:167,1,239.999992675781,6|14,0:0|0:0,0:0:0:0:
149,84,35393,1,8,0:0:0:0:
383,190,35564,1,6,0:0:0:0:
149,84,35736,1,0,0:0:0:0:
294,258,35907,5,6,0:0:0:0:
294,126,36079,1,12,0:0:0:0:
179,192,36250,1,6,0:0:0:0:
355,249,36422,1,4,0:0:0:0:
255,77,36593,1,14,0:0:0:0:
157,249,36764,1,12,0:0:0:0:
393,191,36936,1,6,0:0:0:0:
187,73,37107,5,4,0:0:0:0:
187,310,37279,1,2,0:0:0:0:
393,191,37450,1,12,0:0:0:0:
256,192,37622,2,0,L|16:192,1,239.999992675781,6|10,0:0|0:0,0:0:0:0:
256,192,38136,6,0,L|496:192,1,239.999992675781,12|4,0:0|0:0,0:0:0:0:
412,296,38651,2,0,L|172:296,1,239.999992675781,6|6,0:0|0:0,0:0:0:0:
256,192,39164,1,4,0:0:0:0:
172,296,39336,1,14,0:0:0:0:
256,192,39507,1,12,0:0:0:0:
172,296,39679,1,6,0:0:0:0:
256,192,39850,6,0,B|176:192|168:132|168:132|100:60|56:132,1,239.999992675781,4|12,0:0|0:0,0:0:0:0:
442,118,40365,2,0,B|407:60|339:132|339:132|331:192|256:192,1,239.999992675781,6|14,0:0|0:0,0:0:0:0:
256,192,41050,2,0,B|331:191|339:251|339:251|407:323|442:265,1,239.999992675781,6|6,0:0|0:0,0:0:0:0:
442,118,41564,1,12,0:0:0:0:
329,378,41736,1,6,0:0:0:0:
69,265,41907,1,4,0:0:0:0:
182,5,42078,1,0,0:0:0:0:
72,112,42250,1,12,0:0:0:0:
176,375,42421,1,6,0:0:0:0:
439,271,42593,6,0,B|348:192|348:192|348:64,1,239.999992675781,4|12,0:0|0:0,0:0:0:0:
182,6,43109,2,0,B|190:126|190:126|100:217,1,239.999992675781,4|12,0:0|0:0,0:0:0:0:
406,43,43622,6,0,B|322:127|322:127|443:119,1,239.999992675781,6|6,0:0|0:0,0:0:0:0:
176,375,44136,2,0,B|256:256|256:256|288:352,1,239.999992675781,12|4,0:0|0:0,0:0:0:0:
45,192,44651,5,4,0:0:0:0:
105,192,44822,1,14,0:0:0:0:
163,191,44993,1,12,0:0:0:0:
140,171,45079,1,0,0:0:0:0:
117,151,45165,1,6,0:0:0:0:
95,132,45251,1,0,0:0:0:0:
72,112,45336,6,0,P|164:47|256:112,1,239.999992675781,4|12,0:0|0:0,0:0:0:0:
439,112,45851,2,0,P|347:47|255:112,1,239.999992675781,6|14,0:0|0:0,0:0:0:0:
459,232,46364,1,12,0:0:0:0:
255,112,46536,1,2,0:0:0:0:
52,232,46707,6,0,B|100:232|100:232|152:284|204:284|204:284|256:336,1,239.999992675781,4|12,0:0|0:0,0:0:0:0:
459,232,47222,2,0,B|412:232|412:232|360:284|308:284|308:284|256:336,1,239.999992675781,6|14,0:0|0:0,0:0:0:0:
439,112,47736,1,12,0:0:0:0:
256,336,47907,1,2,0:0:0:0:
190,258,48079,6,0,P|132:280|56:268,1,119.999996337891,4|2,0:0|0:0,0:0:0:0:
189,126,48422,2,0,P|168:68|180:-8,1,119.999996337891,8|2,0:0|0:0,0:0:0:0:
321,125,48765,2,0,P|380:104|456:116,1,119.999996337891,4|10,0:0|0:0,0:0:0:0:
322,257,49108,2,0,P|344:316|332:392,1,119.999996337891,8|2,0:0|0:0,0:0:0:0:
190,258,49450,6,0,L|90:192,1,119.999996337891,4|2,0:0|0:0,0:0:0:0:
189,126,49793,2,0,L|256:26,1,119.999996337891,8|2,0:0|0:0,0:0:0:0:
321,125,50136,2,0,L|422:192,1,119.999996337891,0|10,0:0|0:0,0:0:0:0:
322,257,50479,1,8,0:0:0:0:
305,283,50564,1,0,0:0:0:0:
288,308,50650,1,2,0:0:0:0:
272,333,50736,1,0,0:0:0:0:
255,358,50822,6,0,P|115:300|97:209,1,239.999992675781,4|12,0:0|0:0,0:0:0:0:
256,358,51336,2,0,P|397:300|415:209,1,239.999992675781,6|14,0:0|0:0,0:0:0:0:
123,58,51850,1,12,0:0:0:0:
416,226,52022,1,2,0:0:0:0:
122,59,52193,6,0,P|147:171|256:208,1,239.999992675781,4|12,0:0|0:0,0:0:0:0:
389,59,52708,2,0,P|364:171|256:208,1,239.999992675781,6|14,0:0|0:0,0:0:0:0:
256,32,53222,1,12,0:0:0:0:
256,208,53393,1,2,0:0:0:0:
84,192,53564,5,4,0:0:0:0:
104,213,53649,1,0,0:0:0:0:
125,235,53735,1,0,0:0:0:0:
146,257,53821,1,0,0:0:0:0:
166,278,53907,2,0,P|232:288|304:260,1,119.999996337891,8|2,0:0|0:0,0:0:0:0:
328,232,54251,5,4,0:0:0:0:
349,211,54336,1,0,0:0:0:0:
371,190,54422,1,10,0:0:0:0:
393,169,54508,1,0,0:0:0:0:
414,149,54594,2,0,P|423:83|395:11,1,119.999996337891,8|2,0:0|0:0,0:0:0:0:
348,32,54937,5,4,0:0:0:0:
318,32,55022,1,0,0:0:0:0:
289,31,55108,1,2,0:0:0:0:
258,30,55194,1,0,0:0:0:0:
228,29,55280,2,0,P|175:68|144:139,1,119.999996337891,8|2,0:0|0:0,0:0:0:0:
147,176,55624,5,0,0:0:0:0:
147,206,55709,1,0,0:0:0:0:
146,237,55795,1,10,0:0:0:0:
146,267,55881,1,0,0:0:0:0:
145,296,55967,1,0,0:0:0:0:
159,322,56052,1,0,0:0:0:0:
179,344,56138,1,2,0:0:0:0:
203,362,56224,1,0,0:0:0:0:
231,374,56307,6,0,P|360:328|416:232,1,239.999992675781,4|12,0:0|0:0,0:0:0:0:
308,160,56822,2,0,P|179:206|123:302,1,239.999992675781,6|14,0:0|0:0,0:0:0:0:
256,36,57336,1,8,0:0:0:0:
126,289,57507,1,6,0:0:0:0:
256,36,57679,1,0,0:0:0:0:
157,233,57850,2,0,P|135:179|156:124,1,119.999996337891,6|12,0:0|0:0,0:0:0:0:
254,361,58193,2,0,P|286:311|288:252,1,119.999996337891,6|4,0:0|0:0,0:0:0:0:
54,188,58536,2,0,P|99:227|157:233,1,119.999996337891,14|12,0:0|0:0,0:0:0:0:
156,124,58879,1,6,0:0:0:0:
256,40,59050,6,0,L|500:40,1,239.999992675781,4|12,0:0|0:0,0:0:0:0:
416,144,59565,2,0,L|172:144,1,239.999992675781,6|10,0:0|0:0,0:0:0:0:
96,240,60079,6,0,L|340:240,1,239.999992675781,12|4,0:0|0:0,0:0:0:0:
256,344,60594,2,0,L|12:344,1,239.999992675781,6|6,0:0|0:0,0:0:0:0:
416,144,61107,1,4,0:0:0:0:
96,240,61279,1,14,0:0:0:0:
256,40,61450,1,12,0:0:0:0:
256,344,61622,1,6,0:0:0:0:
256,40,61793,6,0,B|176:64|144:136|144:136|56:164,1,239.999992675781,4|12,0:0|0:0,0:0:0:0:
451,162,62307,2,0,B|368:136|368:136|336:64|256:40,2,239.999992675781,6|14|6,0:0|0:0|0:0,0:0:0:0:
451,162,63336,5,6,0:0:0:0:
340,232,63507,2,0,L|192:248,1,119.999996337891,12|6,0:0|0:0,0:0:0:0:
451,162,63850,1,4,0:0:0:0:
268,96,64022,2,0,L|152:48,1,119.999996337891,14|12,0:0|0:0,0:0:0:0:
451,162,64364,1,6,0:0:0:0:
128,312,64536,6,0,L|0:352,2,119.999996337891,4|2|12,0:0|0:0|0:0,0:0:0:0:
393,190,65050,2,0,P|362:295|256:272,1,239.999992675781,6|10,0:0|0:0,0:0:0:0:
384,72,65564,6,0,L|512:32,2,119.999996337891,12|2|4,0:0|0:0|0:0,0:0:0:0:
118,193,66078,2,0,P|149:88|256:112,1,239.999992675781,0|6,0:0|0:0,0:0:0:0:
175,192,66593,1,4,0:0:0:0:
256,272,66765,1,14,0:0:0:0:
336,192,66936,1,12,0:0:0:0:
256,111,67108,1,6,0:0:0:0:
256,272,67280,6,0,B|320:292|352:268|352:268|384:208|464:240,1,200,4|12,0:0|0:0,0:0:0:0:
255,272,67794,2,0,B|192:292|160:268|160:268|128:208|48:240,1,200,6|14,0:0|0:0,0:0:0:0:
384,48,68307,1,12,0:0:0:0:
256,272,68479,1,2,0:0:0:0:
382,49,68650,6,0,L|256:204,1,200,4|12,0:0|0:0,0:0:0:0:
129,49,69165,2,0,L|256:204,1,200,6|14,0:0|0:0,0:0:0:0:
364,192,69679,1,12,0:0:0:0:
420,192,69764,1,0,0:0:0:0:
420,136,69850,1,2,0:0:0:0:
424,248,70022,6,0,P|360:312|320:308,1,100,4|2,0:0|0:0,0:0:0:0:
182,217,70365,2,0,P|222:245|272:244,1,100,8|2,0:0|0:0,0:0:0:0:
300,136,70707,2,0,P|344:88|384:80,1,100,4|10,0:0|0:0,0:0:0:0:
212,136,71051,2,0,P|168:88|128:80,1,100,8|2,0:0|0:0,0:0:0:0:
100,184,71393,5,4,0:0:0:0:
100,210,71478,1,0,0:0:0:0:
105,236,71564,1,2,0:0:0:0:
115,261,71650,1,0,0:0:0:0:
130,283,71735,1,8,0:0:0:0:
148,303,71821,1,0,0:0:0:0:
169,318,71907,1,2,0:0:0:0:
193,330,71993,1,0,0:0:0:0:
219,336,72078,1,0,0:0:0:0:
246,338,72164,1,0,0:0:0:0:
272,335,72250,1,10,0:0:0:0:
298,327,72335,1,0,0:0:0:0:
321,314,72421,1,8,0:0:0:0:
342,298,72507,1,0,0:0:0:0:
359,278,72593,1,2,0:0:0:0:
373,254,72678,1,0,0:0:0:0:
373,254,72764,6,0,P|369:86|321:66,1,200,4|12,0:0|0:0,0:0:0:0:
264,24,73279,2,0,P|268:192|316:212,1,200,6|14,0:0|0:0,0:0:0:0:
488,356,73793,1,12,0:0:0:0:
264,24,73964,1,2,0:0:0:0:
488,356,74136,6,0,L|372:192,1,200,4|12,0:0|0:0,0:0:0:0:
488,28,74651,2,0,L|372:192,1,200,6|14,0:0|0:0,0:0:0:0:
60,192,75164,1,12,0:0:0:0:
372,191,75336,1,2,0:0:0:0:
372,191,75507,2,0,P|360:264|320:292,1,100,4|2,0:0|0:0,0:0:0:0:
256,308,75851,2,0,P|184:296|156:256,1,100,8|2,0:0|0:0,0:0:0:0:
139,192,76194,2,0,P|152:120|192:92,1,100,4|10,0:0|0:0,0:0:0:0:
255,75,76537,2,0,P|328:88|356:128,1,100,8|2,0:0|0:0,0:0:0:0:
372,191,76880,5,4,0:0:0:0:
360,191,77565,5,4,0:0:0:0:
349,191,77651,5,4,0:0:0:0:
338,191,77737,5,4,0:0:0:0:
327,191,77822,5,4,0:0:0:0:
316,191,77908,5,4,0:0:0:0:
305,191,77994,5,4,0:0:0:0:
294,191,78080,5,4,0:0:0:0:
283,191,78165,5,4,0:0:0:0:
272,191,78251,5,4,0:0:0:0:
