osu file format v12

[General]
AudioFilename: Rhythm Thief Original Soundtrack - Rhythm Thief Theme (Full Version).mp3
AudioLeadIn: 0
PreviewTime: 48278
Countdown: 1
SampleSet: Soft
StackLeniency: 0.7
Mode: 0
LetterboxInBreaks: 1
CountdownOffset: 3
WidescreenStoryboard: 1

[Editor]
Bookmarks: 2339,2610,9550,18632,31104,34903,43734,48734,55256,56591,61226,67196,68825,69639,71267,71538,71945,72081,72760,73031,73167,77917,105460,117305,148336,188770
DistanceSpacing: 1.2
BeatDivisor: 4
GridSize: 8

[Metadata]
Title:Rhythm Thief Main Theme
TitleUnicode:Rhythm Thief Main Theme
Artist:SEGA & Tomoya Ohtani
ArtistUnicode:SEGA & Tomoya Ohtani
Creator:Raszero
Version:Normal
Source:Rhythm Thief: The Emperor's Treasure
Tags:rhythm game thief sega emperor's treasure video game 3ds
BeatmapID:375928
BeatmapSetID:134099

[Difficulty]
HPDrainRate:4
CircleSize:4
OverallDifficulty:4
ApproachRate:4
SliderMultiplier:1.4
SliderTickRate:1

[Events]
//Background and Video events
0,0,"rhythm-thief-artwork-3ds.jpg",0,0
//Break Periods
2,4648,8230
//Storyboard Layer 0 (Background)
//Storyboard Layer 1 (Fail)
//Storyboard Layer 2 (Pass)
//Storyboard Layer 3 (Foreground)
//Storyboard Sound Samples
//Background Colour Transformations
3,100,163,162,255

[TimingPoints]
571,408.163265306122,4,2,0,60,1,0
4550,-133.333333333333,4,1,0,60,0,0
9244,-133.333333333333,4,2,0,60,0,0
9551,408.163265306122,4,2,0,60,1,0
45264,-133.333333333333,4,1,0,100,0,0
48019,-133.333333333333,4,2,0,80,0,0
48734,-133.333333333333,4,2,0,80,0,1
58428,-133.333333333333,4,2,0,80,0,1
60979,-133.333333333333,4,1,0,80,0,1
61183,-133.333333333333,4,2,0,80,0,1
67509,-133.333333333333,4,1,0,80,0,1
68632,-133.333333333333,4,2,0,80,0,1
70592,-133.333333333333,4,1,0,100,0,1
71489,-133.333333333333,4,1,0,80,0,1
73019,-133.333333333333,4,2,0,55,0,1
74856,-133.333333333333,4,3,0,60,0,0
81387,-133.333333333333,4,2,0,60,0,0
105765,-133.333333333333,4,2,0,80,0,0
117101,-133.333333333333,4,1,0,100,0,0
119652,-133.333333333333,4,2,0,80,0,0
120570,-133.333333333333,4,2,0,80,0,1
126489,-133.333333333333,4,1,0,80,0,1
126860,-133.333333333333,4,2,0,80,0,1
139346,-133.333333333333,4,1,0,100,0,1
140570,-133.333333333333,4,2,0,80,0,1
142407,-133.333333333333,4,1,0,100,0,1
144765,-133.333333333333,4,3,0,55,0,1
146591,-133.333333333333,4,2,0,70,0,0
163019,-133.333333333333,4,1,0,70,0,0
169448,-133.333333333333,4,2,0,70,0,0
174244,-133.333333333333,4,2,0,70,0,0
176081,-133.333333333333,4,2,0,85,0,1
182203,-133.333333333333,4,1,0,100,0,1
185264,-133.333333333333,4,2,0,85,0,1
194754,-133.333333333333,4,1,0,85,0,1
200403,-133.333333333333,4,1,0,100,0,1
207509,-133.333333333333,4,2,0,85,0,0
207611,-133.333333333333,4,2,0,85,0,0

[Colours]
Combo1 : 0,0,160
Combo2 : 216,216,216
Combo3 : 18,124,255
Combo4 : 242,24,57

[HitObjects]
112,32,571,2,0,L|256:32,1,140
344,32,1183,1,2,0:0:0:0:
344,112,1387,2,0,L|208:112,1,105
112,112,1999,1,2,0:0:0:0:
112,192,2203,6,0,L|248:192,1,105
344,192,2815,1,2,0:0:0:0:
344,272,3019,2,0,L|208:272,1,105
112,272,3632,1,2,0:0:0:0:
112,360,3836,2,0,L|248:360,1,105
344,360,4448,1,2,0:0:0:0:
256,80,9550,6,0,L|392:128,1,131.25000500679
424,192,10571,2,0,L|352:256,3,70,0|0|0|2,0:0|0:0|0:0|0:0,0:0:0:0:
224,152,11591,2,0,B|160:64|104:104|104:136,1,140
88,200,12204,2,0,L|160:264,3,70,0|0|0|2,0:0|0:0|0:0|0:0,0:0:0:0:
280,152,13224,2,0,B|344:64|400:104|400:136,1,140
288,248,14040,6,0,P|296:320|232:312,2,140,0|2|0,0:0|0:0|0:0,0:0:0:0:
128,192,15265,2,0,B|168:152|240:152|248:192|280:192,1,140
424,192,16081,2,0,L|368:120,1,70,2|0,0:0|0:0,0:0:0:0:
296,136,16489,1,0,0:0:0:0:
120,312,17102,2,0,L|144:240,3,70,0|0|0|2,0:0|0:0|0:0|0:0,0:0:0:0:
304,200,18122,2,0,B|320:152|280:120|208:120|208:128,1,140
120,120,18734,2,0,L|120:192,1,70
168,264,19142,2,0,L|168:192,1,70,0|2,0:0|0:0,0:0:0:0:
288,224,19653,6,0,L|344:160,2,70
80,224,20571,1,2,0:0:0:0:
80,56,20979,1,0,0:0:0:0:
208,64,21285,1,2,0:0:0:0:
336,64,21591,1,0,0:0:0:0:
272,120,21795,1,4,0:0:0:0:
472,56,22612,6,0,L|424:128,3,70
384,184,23428,1,2,0:0:0:0:
136,192,24040,2,0,L|136:144,2,35
304,192,24550,1,0,0:0:0:0:
224,96,24857,1,0,0:0:0:0:
224,176,25061,2,0,L|224:128,2,35,2|0|4,0:0|0:0|0:0,0:0:0:0:
104,296,25673,6,0,L|136:256,2,35
200,216,26183,1,2,0:0:0:0:
328,208,26489,1,0,0:0:0:0:
256,160,26693,1,4,0:0:0:0:
32,40,27306,6,0,L|64:80,2,35
200,48,27816,1,2,0:0:0:0:
296,128,28122,2,2,L|232:184,1,70,2|0,0:0|0:0,0:0:0:0:
296,256,28530,2,2,L|232:200,1,70,2|0,0:0|0:0,0:0:0:0:
160,200,28938,1,4,0:0:0:0:
72,56,29346,6,2,L|168:56,2,70
72,136,29959,2,0,L|224:184,1,140,4|0,0:0|0:0,0:0:0:0:
288,208,30571,2,0,L|248:256,2,35,0|0|2,0:0|0:0|0:0,0:0:0:0:
208,304,31081,1,0,0:0:0:0:
128,208,31387,1,0,0:0:0:0:
192,152,31591,2,0,L|240:152,2,35,2|0|4,0:0|0:0|0:0,0:0:0:0:
352,96,32204,6,0,P|272:64|208:112,1,140,2|0,0:0|0:0,0:0:0:0:
240,256,33020,2,0,P|160:288|96:240,1,140,2|0,0:0|0:0,0:0:0:0:
240,160,33836,2,0,P|320:128|384:176,1,140,2|4,0:0|0:0,0:0:0:0:
