osu file format v12

[General]
AudioFilename: Rhythm Thief Original Soundtrack - Rhythm Thief Theme (Full Version).mp3
AudioLeadIn: 0
PreviewTime: 48278
Countdown: 1
SampleSet: Soft
StackLeniency: 0.7
Mode: 0
LetterboxInBreaks: 1
CountdownOffset: 3
WidescreenStoryboard: 1

[Editor]
Bookmarks: 2339,2610,9550,18632,31104,34903,43734,48734,55256,56591,61226,67196,68825,69639,71267,71538,71945,72081,72760,73031,73167,77917,105460,117305,148336,188770
DistanceSpacing: 1.2
BeatDivisor: 4
GridSize: 8

[Metadata]
Title:Rhythm Thief Main Theme
TitleUnicode:Rhythm Thief Main Theme
Artist:SEGA & Tomoya Ohtani
ArtistUnicode:SEGA & Tomoya Ohtani
Creator:Raszero
Version:Hard
Source:Rhythm Thief: The Emperor's Treasure
Tags:rhythm game thief sega emperor's treasure video game 3ds
BeatmapID:336464
BeatmapSetID:134099

[Difficulty]
HPDrainRate:6
CircleSize:5
OverallDifficulty:6
ApproachRate:7
SliderMultiplier:1.4
SliderTickRate:1

[Events]
//Background and Video events
0,0,"Phantom-R-and-Fondue-wallpaper-rhythm-thief-33500536-1000-750.jpg",0,0
//Break Periods
2,34546,41303
2,81383,87017
2,106383,113140
2,146688,148650
//Storyboard Layer 0 (Background)
//Storyboard Layer 1 (Fail)
//Storyboard Layer 2 (Pass)
//Storyboard Layer 3 (Foreground)
//Storyboard Sound Samples
//Background Colour Transformations
3,100,163,162,255

[TimingPoints]
571,408.163265306122,4,2,0,60,1,0
4550,-100,4,1,0,60,0,0
9244,-100,4,2,0,60,0,0
9551,408.163265306122,4,2,0,60,1,0
45264,-100,4,1,0,100,0,0
48019,-100,4,2,0,80,0,0
48734,-100,4,2,0,80,0,1
58428,-100,4,2,0,80,0,1
60979,-100,4,1,0,80,0,1
61183,-100,4,2,0,80,0,1
67509,-100,4,1,0,80,0,1
68632,-100,4,2,0,80,0,1
70592,-100,4,1,0,100,0,1
71489,-100,4,1,0,80,0,1
73019,-100,4,2,0,55,0,1
74856,-100,4,3,0,60,0,0
81387,-100,4,2,0,60,0,0
105765,-100,4,2,0,80,0,0
117101,-100,4,1,0,100,0,0
119652,-100,4,2,0,80,0,0
120570,-100,4,2,0,80,0,1
126489,-100,4,1,0,80,0,1
126860,-100,4,2,0,80,0,1
139346,-100,4,1,0,100,0,1
140570,-100,4,2,0,80,0,1
142407,-100,4,1,0,100,0,1
144765,-100,4,3,0,65,0,1
146591,-100,4,2,0,70,0,0
163019,-100,4,1,0,70,0,0
169448,-100,4,2,0,70,0,0
174244,-111.111111111111,4,2,0,70,0,0
176081,-100,4,2,0,85,0,1
182203,-100,4,1,0,100,0,1
185264,-100,4,2,0,85,0,1
194754,-100,4,1,0,85,0,1
200403,-100,4,1,0,100,0,1
207509,-100,4,2,0,85,0,0
207611,-100,4,2,0,85,0,0

[Colours]
Combo1 : 0,0,160
Combo2 : 216,216,216
Combo3 : 18,124,255
Combo4 : 242,24,57

[HitObjects]
64,136,571,1,0,0:0:0:0:
200,136,911,1,0,0:0:0:0:
312,136,1183,1,2,0:0:0:0:
240,184,1387,1,0,0:0:0:0:
376,184,1727,1,0,0:0:0:0:
496,184,1999,1,2,0:0:0:0:
448,136,2203,1,0,0:0:0:0:
312,136,2543,1,0,0:0:0:0:
200,136,2815,1,2,0:0:0:0:
264,184,3019,1,0,0:0:0:0:
120,184,3360,1,0,0:0:0:0:
16,184,3631,1,2,0:0:0:0:
64,136,3836,1,0,0:0:0:0:
200,136,4176,1,0,0:0:0:0:
312,136,4448,1,2,0:0:0:0:
256,200,4652,6,0,L|104:240,1,140
64,304,5264,2,0,L|24:304,2,35
104,304,5570,2,0,L|176:304,1,70
256,304,5979,2,0,L|224:272,1,35
200,232,6285,6,0,B|200:-16|432:112|240:192|248:192|240:168|344:224,1,350,2|4,0:0|0:0,0:0:0:0:
192,104,7917,2,0,L|336:104,1,140,0|2,0:0|0:0,0:0:0:0:
264,152,8734,2,0,L|264:304,1,140,0|4,0:0|0:0,0:0:0:0:
256,192,9550,5,2,0:0:0:0:
88,192,9958,1,0,0:0:0:0:
200,72,10366,5,0,0:0:0:0:
200,192,10570,1,0,0:0:0:0:
200,136,10775,1,2,0:0:0:0:
256,136,10979,1,0,0:0:0:0:
312,136,11183,1,4,0:0:0:0:
248,288,11591,1,0,0:0:0:0:
368,200,11999,1,0,0:0:0:0:
312,200,12203,5,0,0:0:0:0:
312,256,12407,1,2,0:0:0:0:
256,256,12611,1,0,0:0:0:0:
200,256,12815,1,4,0:0:0:0:
144,128,13224,1,0,0:0:0:0:
144,128,13632,1,0,0:0:0:0:
32,128,14040,2,0,P|72:56|144:80,1,140,0|2,0:0|0:0,0:0:0:0:
224,192,14857,1,0,0:0:0:0:
352,280,15265,1,4,0:0:0:0:
200,344,15673,1,0,0:0:0:0:
144,344,15877,1,0,0:0:0:0:
104,288,16081,6,0,L|168:248,1,70
232,200,16489,1,0,0:0:0:0:
320,144,16897,1,2,0:0:0:0:
416,48,17101,2,0,L|480:8,1,70
456,96,17509,2,0,L|396:133,1,70,0|4,0:0|0:0,0:0:0:0:
232,144,18122,1,0,0:0:0:0:
72,32,18530,1,0,0:0:0:0:
72,96,18734,5,2,0:0:0:0:
152,96,18938,1,0,0:0:0:0:
152,176,19142,1,0,0:0:0:0:
72,176,19346,1,4,0:0:0:0:
112,256,19550,2,0,P|176:264|168:320,2,105,0|0|2,0:0|0:0|0:0,0:0:0:0:
112,256,20570,5,0,0:0:0:0:
320,256,20979,1,2,0:0:0:0:
192,256,21285,1,0,0:0:0:0:
320,256,21591,1,2,0:0:0:0:
192,256,21795,1,4,0:0:0:0:
352,192,22203,1,0,0:0:0:0:
344,136,22611,6,0,P|352:104|360:136,3,70,0|0|0|0,0:0|0:0|0:0|0:0,0:0:0:0:
288,136,23428,1,4,0:0:0:0:
176,192,23836,5,0,0:0:0:0:
64,248,24040,2,0,P|72:216|80:248,1,70
216,248,24550,1,0,0:0:0:0:
344,248,24856,1,2,0:0:0:0:
272,200,25061,2,0,L|296:168,2,35,0|0|6,0:0|0:0|0:0,0:0:0:0:
408,104,25673,6,0,L|352:144,2,35
288,176,26183,1,0,0:0:0:0:
224,208,26489,1,2,0:0:0:0:
224,208,26693,2,14,L|304:168,1,70,6|0,0:0|0:0,0:0:0:0:
344,136,27305,6,2,P|352:104|360:136,1,70
240,136,27815,1,0,0:0:0:0:
248,264,28122,2,0,L|176:328,4,70,4|0|4|0|4,0:0|0:0|0:0|0:0|0:0,0:0:0:0:
384,160,29346,5,2,0:0:0:0:
304,160,29550,1,0,0:0:0:0:
384,160,29754,1,2,0:0:0:0:
304,160,29958,1,4,0:0:0:0:
176,160,30366,5,2,0:0:0:0:
136,160,30570,2,0,L|136:216,2,35
208,264,31081,1,2,0:0:0:0:
336,264,31387,1,0,0:0:0:0:
328,184,31591,2,0,L|296:144,2,35,4|0|4,0:0|0:0|0:0,0:0:0:0:
160,160,32203,6,2,P|192:160|168:168,1,70,0|2,0:0|0:0,0:0:0:0:
207,217,32713,2,0,P|224:256|240:216,1,105,0|0,0:0|0:0,0:0:0:0:
256,136,33224,1,2,0:0:0:0:
256,264,33530,1,0,0:0:0:0:
360,192,33836,1,0,0:0:0:0:
280,192,34040,2,0,L|176:192,1,105,2|4,0:0|0:0,0:0:0:0:
256,192,42203,6,0,L|144:192,1,105
256,192,42815,1,2,0:0:0:0:
88,192,43019,2,0,L|192:240,1,105
320,104,43632,2,0,L|272:120,2,35
192,88,44142,2,0,P|152:88|104:152,1,105,2|0,0:0|0:0,0:0:0:0:
168,144,44653,2,0,P|201:182|252:187,1,105
256,32,45468,5,0,0:0:0:0:
448,192,45877,1,0,0:0:0:0:
256,320,46285,1,0,0:0:0:0:
80,192,46693,1,0,0:0:0:0:
360,192,47102,2,0,P|352:248|280:264,1,140
280,264,47713,1,0,0:0:0:0:
208,296,47917,1,0,0:0:0:0:
128,280,48122,6,4,L|96:232,5,35
104,192,48734,5,0,0:0:0:0:
160,128,48938,1,2,0:0:0:0:
216,192,49142,1,0,0:0:0:0:
216,192,49244,1,0,0:0:0:0:
296,192,49448,2,0,P|320:232|408:120,1,245
376,120,50366,5,2,0:0:0:0:
376,120,50570,1,0,0:0:0:0:
288,120,50775,2,0,L|224:120,1,35,2|0,0:0|0:0,0:0:0:0:
336,120,51081,2,0,P|416:152|400:304,1,245
328,288,51999,5,2,0:0:0:0:
248,288,52203,1,0,0:0:0:0:
248,224,52407,2,0,L|248:184,1,35,2|0,0:0|0:0,0:0:0:0:
248,104,52713,1,0,0:0:0:0:
376,104,53019,2,0,L|304:104,1,70,2|2,0:0|0:0,0:0:0:0:
248,104,53428,1,0,0:0:0:0:
168,104,53632,1,0,0:0:0:0:
168,232,53938,1,2,0:0:0:0:
296,240,54244,2,0,B|160:240|160:72|168:80,1,210,0|4,0:0|0:0,0:0:0:0:
456,128,55468,5,2,0:0:0:0:
408,200,55673,1,0,0:0:0:0:
376,128,55877,1,2,0:0:0:0:
328,200,56081,1,0,0:0:0:0:
296,128,56387,5,2,0:0:0:0:
216,224,56693,1,0,0:0:0:0:
216,128,56897,1,2,0:0:0:0:
344,128,57203,1,0,0:0:0:0:
216,128,57510,1,2,0:0:0:0:
216,128,57713,2,0,L|64:312,1,210,0|4,0:0|0:0,0:0:0:0:
152,272,58530,6,0,L|256:304,1,105,2|0,0:0|0:0,0:0:0:0:
392,296,59142,2,2,L|304:312,1,70
264,108,59754,2,0,L|264:248,1,140,0|4,0:0|0:0,0:0:0:0:
224,40,60775,5,4,0:0:0:0:
264,40,60877,1,4,0:0:0:0:
304,40,60979,1,4,0:0:0:0:
56,320,61795,5,2,0:0:0:0:
136,320,61999,1,0,0:0:0:0:
96,248,62204,2,0,L|120:280,1,35
136,320,62509,2,0,L|408:320,1,245,4|0,0:0|0:0,0:0:0:0:
376,232,63428,5,2,0:0:0:0:
400,152,63632,1,0,0:0:0:0:
448,80,63836,2,0,L|408:80,1,35
352,80,64142,2,0,L|103:80,1,245,4|0,0:0|0:0,0:0:0:0:
256,328,65060,5,2,0:0:0:0:
256,248,65264,1,0,0:0:0:0:
256,168,65468,2,0,L|256:120,1,35,2|2,0:0|0:0,0:0:0:0:
256,40,65775,1,4,0:0:0:0:
376,72,66081,5,2,0:0:0:0:
312,120,66285,1,0,0:0:0:0:
376,176,66489,1,2,0:0:0:0:
304,256,66693,1,0,0:0:0:0:
176,264,66999,1,2,0:0:0:0:
120,128,67305,1,4,0:0:0:0:
368,232,67713,6,4,L|168:152,2,210
208,280,69346,5,0,0:0:0:0:
288,280,69550,1,2,0:0:0:0:
368,280,69754,1,0,0:0:0:0:
368,200,69958,6,0,L|240:128,1,140,2|0,0:0|0:0,0:0:0:0:
344,272,70775,5,2,0:0:0:0:
240,344,71081,1,0,0:0:0:0:
136,272,71387,1,6,0:0:0:0:
216,240,71591,6,0,B|216:-8|448:120|256:200|264:200|256:176|360:232,1,350,2|4,0:0|0:0,0:0:0:0:
400,280,73224,5,2,0:0:0:0:
328,232,73428,1,0,0:0:0:0:
400,192,73632,1,2,0:0:0:0:
336,136,73836,1,0,0:0:0:0:
256,136,74040,5,2,0:0:0:0:
192,192,74244,1,0,0:0:0:0:
264,232,74448,1,2,0:0:0:0:
192,280,74652,1,4,0:0:0:0:
192,192,74856,6,0,L|288:112,1,105
280,192,75468,2,0,L|184:112,1,105,0|0,0:0|0:0,0:0:0:0:
232,192,76081,2,2,L|232:120,1,70
184,192,76489,6,0,L|280:272,1,105
280,192,77101,2,0,L|184:272,1,105,0|0,0:0|0:0,0:0:0:0:
232,192,77714,2,8,L|232:264,1,70,8|8,0:0|0:0,0:0:0:0:
184,192,78122,6,0,L|56:192,1,105
280,192,78734,2,0,L|384:192,1,105,0|0,0:0|0:0,0:0:0:0:
232,192,79347,2,0,L|232:288,1,70,2|2,0:0|0:0,0:0:0:0:
184,192,79754,6,0,L|56:192,1,105
280,192,80366,2,0,L|384:192,1,105,0|0,0:0|0:0,0:0:0:0:
232,192,80979,2,0,L|232:96,1,70,8|10,0:0|0:0,0:0:0:0:
48,200,87917,6,0,B|160:88|264:216|264:200,1,210,0|4,0:0|0:0,0:0:0:0:
376,88,88938,1,2,0:0:0:0:
304,136,89142,1,0,0:0:0:0:
376,88,89346,1,2,0:0:0:0:
304,192,89550,2,0,B|279:163|383:291|486:188,1,210,0|4,0:0|0:0,0:0:0:0:
352,296,90570,5,2,0:0:0:0:
408,232,90775,1,0,0:0:0:0:
344,176,90979,1,2,0:0:0:0:
400,112,91183,2,0,L|336:32,1,70
320,112,91591,5,0,0:0:0:0:
240,112,91795,1,2,0:0:0:0:
160,112,91999,1,0,0:0:0:0:
128,192,92203,1,2,0:0:0:0:
104,112,92407,5,0,0:0:0:0:
272,112,92815,2,0,B|472:144|88:240|392:264,1,280,2|4,0:0|0:0,0:0:0:0:
440,272,93836,1,0,0:0:0:0:
392,208,94040,1,0,0:0:0:0:
456,152,94244,1,0,0:0:0:0:
448,72,94448,5,0,0:0:0:0:
376,120,94652,1,2,0:0:0:0:
376,40,94856,1,0,0:0:0:0:
304,80,95060,1,2,0:0:0:0:
240,120,95264,2,0,B|120:232|304:232|168:120,1,210
171,123,95979,5,2,0:0:0:0:
171,123,96081,1,4,0:0:0:0:
288,168,96387,1,0,0:0:0:0:
400,112,96693,1,2,0:0:0:0:
352,48,96897,1,0,0:0:0:0:
312,104,97101,2,0,L|208:216,1,140,4|2,0:0|0:0,0:0:0:0:
240,288,97713,1,2,0:0:0:0:
336,248,98019,5,0,0:0:0:0:
464,248,98326,1,2,0:0:0:0:
416,176,98530,2,0,L|264:176,1,140,4|0,0:0|0:0,0:0:0:0:
192,176,99142,5,2,0:0:0:0:
192,176,99244,1,0,0:0:0:0:
192,176,99346,1,2,0:0:0:0:
176,48,99652,1,0,0:0:0:0:
256,104,99958,5,2,0:0:0:0:
392,192,100162,1,0,0:0:0:0:
256,288,100366,1,2,0:0:0:0:
128,192,100570,1,0,0:0:0:0:
256,192,100775,1,4,0:0:0:0:
392,88,101183,5,0,0:0:0:0:
312,88,101387,1,2,0:0:0:0:
392,120,101591,1,0,0:0:0:0:
312,120,101795,2,0,L|176:280,1,210,6|2,0:0|0:0,0:0:0:0:
176,280,102509,5,0,0:0:0:0:
176,280,102611,1,0,0:0:0:0:
240,256,102917,1,2,0:0:0:0:
360,288,103224,1,2,0:0:0:0:
344,208,103428,2,0,B|424:280|280:256|240:256,1,175,4|0,0:0|0:0,0:0:0:0:
200,256,104040,5,2,0:0:0:0:
176,224,104142,1,0,0:0:0:0:
176,184,104244,2,0,L|280:184,2,105,2|0|0,0:0|0:0|0:0,0:0:0:0:
208,152,105060,2,2,L|208:256,2,105,2|0|2,0:0|0:0|0:0,0:0:0:0:
48,48,105877,1,6,0:0:0:0:
288,224,106183,1,4,0:0:0:0:
208,184,114040,5,0,0:0:0:0:
304,104,114346,1,2,0:0:0:0:
208,184,114652,1,0,0:0:0:0:
144,240,114856,1,2,0:0:0:0:
208,296,115060,1,0,0:0:0:0:
392,296,115468,6,2,L|432:296,2,35
288,224,115979,1,0,0:0:0:0:
192,144,116285,1,2,0:0:0:0:
136,80,116489,2,0,P|80:88|112:152,1,140
88,288,117305,5,4,0:0:0:0:
416,296,117713,1,4,0:0:0:0:
416,56,118122,1,4,0:0:0:0:
88,56,118530,1,4,0:0:0:0:
192,192,118938,1,6,0:0:0:0:
320,192,119244,1,0,0:0:0:0:
168,264,119550,1,2,0:0:0:0:
248,256,119754,1,4,0:0:0:0:
256,176,119856,2,2,P|256:160|272:152,6,35
408,192,120570,5,0,0:0:0:0:
352,256,120774,1,2,0:0:0:0:
296,192,120978,1,0,0:0:0:0:
296,192,121080,1,2,0:0:0:0:
212,189,121285,2,6,B|120:328|120:160|112:144|50:266,1,245,4|0,0:0|0:0,0:0:0:0:
104,328,122204,5,0,0:0:0:0:
160,264,122408,1,0,0:0:0:0:
224,264,122611,2,0,L|259:264,1,35
224,192,122917,1,6,0:0:0:0:
160,136,123224,1,0,0:0:0:0:
176,56,123428,1,0,0:0:0:0:
248,16,123632,1,0,0:0:0:0:
264,80,123835,5,2,0:0:0:0:
336,120,124039,1,0,0:0:0:0:
264,160,124243,2,0,L|264:195,1,35,2|0,0:0|0:0,0:0:0:0:
264,280,124549,1,2,0:0:0:0:
168,280,124857,6,0,L|96:280,2,70
248,216,125468,2,0,L|336:160,1,105,0|2,0:0|0:0,0:0:0:0:
225,144,126080,2,0,B|352:144|352:312|346:280,1,210,0|4,0:0|0:0,0:0:0:0:
96,264,127305,6,0,L|168:264,3,70,0|0|0|2,0:0|0:0|0:0|0:0,0:0:0:0:
272,336,128224,1,0,0:0:0:0:
392,296,128530,5,2,0:0:0:0:
328,240,128734,1,0,0:0:0:0:
200,256,129040,1,2,0:0:0:0:
328,240,129345,1,0,0:0:0:0:
384,176,129550,2,0,P|440:120|352:128,1,210
288,64,130366,5,2,0:0:0:0:
168,96,130673,1,0,0:0:0:0:
288,128,130979,1,2,0:0:0:0:
288,208,131183,1,2,0:0:0:0:
248,276,131591,2,2,L|248:136,1,140
488,72,132611,6,4,L|432:72,2,35
424,128,133019,1,0,0:0:0:0:
360,184,133224,1,0,0:0:0:0:
304,120,133428,1,0,0:0:0:0:
456,64,133631,5,2,0:0:0:0:
376,64,133835,1,0,0:0:0:0:
424,128,134040,2,2,L|424:168,1,35
376,64,134346,2,0,L|176:240,1,245,0|0,0:0|0:0,0:0:0:0:
71,312,135264,5,2,0:0:0:0:
151,312,135468,1,0,0:0:0:0:
112,240,135673,2,2,L|112:280,1,35
151,312,135978,2,4,L|336:144,1,245,4|0,0:0|0:0,0:0:0:0:
256,56,136896,5,2,0:0:0:0:
256,144,137102,1,0,0:0:0:0:
256,224,137305,2,2,L|256:264,1,35
256,304,137611,1,4,0:0:0:0:
136,344,137917,5,2,0:0:0:0:
184,272,138121,1,0,0:0:0:0:
248,216,138326,1,2,0:0:0:0:
312,160,138529,1,0,0:0:0:0:
408,72,138835,1,2,0:0:0:0:
312,160,139141,1,4,0:0:0:0:
144,152,139550,6,0,L|352:232,2,210,4|4|0,0:0|0:0|0:0,0:0:0:0:
304,104,141182,5,2,0:0:0:0:
224,104,141386,1,0,0:0:0:0:
144,104,141590,1,2,0:0:0:0:
144,192,141795,2,0,P|224:192|224:256,1,140
168,112,142611,5,2,0:0:0:0:
72,192,142917,1,2,0:0:0:0:
160,280,143223,1,2,0:0:0:0:
216,240,143427,2,0,B|216:-8|448:120|256:200|264:200|256:176|356:230,1,350,2|4,0:0|0:0,0:0:0:0:
112,104,145060,5,2,0:0:0:0:
184,152,145264,1,0,0:0:0:0:
112,192,145468,1,2,0:0:0:0:
176,248,145672,1,0,0:0:0:0:
256,248,145876,5,2,0:0:0:0:
320,192,146080,1,0,0:0:0:0:
248,152,146284,1,2,0:0:0:0:
320,104,146488,1,0,0:0:0:0:
216,192,149550,6,4,L|264:192,3,35
288,192,149958,2,2,L|360:112,1,105,2|0,0:0|0:0,0:0:0:0:
256,112,150570,2,0,L|392:112,1,105,2|0,0:0|0:0,0:0:0:0:
360,112,150979,2,4,L|392:88,2,35
224,192,151591,6,0,L|153:270,1,105,2|0,0:0|0:0,0:0:0:0:
256,272,152203,2,0,L|151:272,1,105,2|0,0:0|0:0,0:0:0:0:
152,272,152612,2,4,L|124:293,2,35
288,192,153224,6,0,L|358:270,1,105,2|0,0:0|0:0,0:0:0:0:
256,272,153836,2,0,L|361:272,1,105,2|0,0:0|0:0,0:0:0:0:
360,272,154245,2,4,L|388:293,2,35
288,224,154652,5,2,0:0:0:0:
248,208,154754,1,0,0:0:0:0:
224,192,154856,2,0,L|153:113,1,105,2|0,0:0|0:0,0:0:0:0:
128,192,155468,2,0,L|232:104,2,105,2|2|2,0:0|0:0|0:0,0:0:0:0:
216,192,156285,5,2,0:0:0:0:
296,192,156489,2,2,L|368:112,2,105,2|0|4,0:0|0:0|0:0,0:0:0:0:
128,192,157509,2,4,L|64:192,2,35
296,192,158122,6,4,L|376:296,2,105,2|0|4,0:0|0:0|0:0,0:0:0:0:
128,192,159142,2,0,L|176:192,2,35,2|0|2,0:0|0:0|0:0,0:0:0:0:
88,192,159754,2,0,L|88:56,2,105,2|0|4,0:0|0:0|0:0,0:0:0:0:
296,192,160979,5,2,0:0:0:0:
296,360,161387,1,0,0:0:0:0:
232,256,161693,1,2,0:0:0:0:
232,176,161897,2,0,P|224:192|224:176,10,35
272,184,163019,5,2,0:0:0:0:
336,128,163326,1,0,0:0:0:0:
400,72,163632,2,0,L|48:72,1,350,2|2,0:0|0:0,0:0:0:0:
104,184,164958,5,0,0:0:0:0:
232,184,165265,2,0,L|264:280,1,70
200,88,165877,1,0,0:0:0:0:
416,192,166285,6,0,L|304:192,1,105,2|4,0:0|0:0,0:0:0:0:
304,240,166897,1,0,0:0:0:0:
304,240,167101,1,0,0:0:0:0:
304,240,167305,1,0,0:0:0:0:
304,240,167509,1,0,0:0:0:0:
232,200,167713,1,0,0:0:0:0:
192,200,167815,1,0,0:0:0:0:
152,200,167917,1,4,0:0:0:0:
192,80,168224,1,0,0:0:0:0:
224,240,168530,2,0,B|208:64|376:136|264:176|256:192|256:184|256:184|312:256,1,280,0|4,0:0|0:0,0:0:0:0:
352,184,169550,5,6,0:0:0:0:
280,136,169856,1,2,0:0:0:0:
280,264,170162,2,4,L|128:112,1,210,4|0,0:0|0:0,0:0:0:0:
104,280,171183,6,4,L|184:200,1,105,4|0,0:0|0:0,0:0:0:0:
104,280,171795,1,2,0:0:0:0:
352,288,172407,1,0,0:0:0:0:
344,120,172815,2,0,L|248:208,1,105,4|2,0:0|0:0,0:0:0:0:
344,120,173428,1,2,0:0:0:0:
104,96,174448,5,2,0:0:0:0:
184,96,174652,1,2,0:0:0:0:
128,160,174856,1,2,0:0:0:0:
208,160,175060,1,2,0:0:0:0:
288,160,175264,2,0,L|336:160,6,35
456,240,176081,5,0,0:0:0:0:
376,240,176285,1,2,0:0:0:0:
296,248,176489,2,0,P|296:232|288:248,1,35
200,216,176795,2,0,P|56:144|48:56,1,245,4|0,0:0|0:0,0:0:0:0:
128,72,177713,2,2,P|144:40|112:40,2,70,2|2|2,0:0|0:0|0:0,0:0:0:0:
216,160,178428,1,4,1:0:0:0:
384,160,179346,5,0,0:0:0:0:
304,160,179550,1,2,0:0:0:0:
224,160,179754,1,0,0:0:0:0:
224,160,179856,1,0,0:0:0:0:
264,232,180060,1,2,0:0:0:0:
168,312,180366,5,2,0:0:0:0:
120,240,180570,1,0,0:0:0:0:
72,176,180775,1,2,0:0:0:0:
224,160,180979,1,0,0:0:0:0:
48,288,181285,5,2,0:0:0:0:
224,160,181591,1,4,0:0:0:0:
200,264,182611,6,4,B|192:-16|552:80|240:200|248:216|272:224|272:224|368:272,1,490
384,208,184244,1,4,0:0:0:0:
352,88,184550,1,4,0:0:0:0:
224,80,184856,1,4,0:0:0:0:
168,144,185060,2,0,P|80:144|40:200,1,140,2|4,0:0|0:0,0:0:0:0:
184,280,185877,5,0,0:0:0:0:
312,280,186183,1,2,0:0:0:0:
248,176,186489,1,0,0:0:0:0:
248,96,186693,1,2,0:0:0:0:
88,136,187101,1,0,0:0:0:0:
424,136,187509,1,2,0:0:0:0:
256,144,188122,6,4,L|256:208,2,35
112,232,189142,5,2,0:0:0:0:
184,184,189346,1,4,0:0:0:0:
184,264,189550,2,0,L|184:216,1,35
184,144,189856,1,4,0:0:0:0:
304,120,190162,5,0,0:0:0:0:
384,120,190366,1,0,0:0:0:0:
440,176,190570,1,0,0:0:0:0:
352,184,190775,5,4,0:0:0:0:
416,240,190979,1,2,0:0:0:0:
352,264,191183,2,0,L|352:224,1,35
352,144,191489,1,4,0:0:0:0:
224,120,191795,5,0,0:0:0:0:
144,120,191999,1,0,0:0:0:0:
72,168,192203,1,0,0:0:0:0:
152,200,192407,5,2,0:0:0:0:
232,176,192611,1,0,0:0:0:0:
288,112,192815,1,2,0:0:0:0:
288,112,192917,1,0,0:0:0:0:
232,72,193122,2,4,L|232:176,1,105,4|2,0:0|0:0,0:0:0:0:
232,264,193632,5,0,0:0:0:0:
152,264,193836,1,2,0:0:0:0:
72,264,194040,1,0,0:0:0:0:
72,136,194346,1,2,0:0:0:0:
200,136,194652,1,4,0:0:0:0:
200,56,194856,2,0,L|496:56,2,280,6|4|4,0:0|0:0|0:0,0:0:0:0:
136,144,196693,5,4,0:0:0:0:
256,144,196897,1,4,0:0:0:0:
376,144,197101,1,4,0:0:0:0:
296,224,197305,2,0,L|144:224,1,140,4|2,0:0|0:0,0:0:0:0:
192,56,198122,2,0,L|304:56,1,105,4|2,0:0|0:0,0:0:0:0:
296,184,198734,1,4,0:0:0:0:
296,312,198938,1,6,0:0:0:0:
216,312,199142,5,0,0:0:0:0:
136,312,199346,1,0,0:0:0:0:
208,264,199550,1,0,0:0:0:0:
304,264,199754,1,0,0:0:0:0:
376,312,199958,1,0,0:0:0:0:
296,312,200162,1,0,0:0:0:0:
256,240,200366,5,4,0:0:0:0:
224,176,200570,2,0,L|224:24,1,140,4|2,0:0|0:0,0:0:0:0:
288,36,201387,2,0,L|288:176,1,140,4|2,0:0|0:0,0:0:0:0:
456,168,202203,5,2,0:0:0:0:
328,168,202509,1,0,0:0:0:0:
200,168,202815,1,2,0:0:0:0:
72,168,203122,2,0,L|72:208,1,35
152,208,203428,1,2,0:0:0:0:
232,208,203632,1,4,0:0:0:0:
312,216,204040,6,4,L|384:216,2,70,2|4|4,0:0|0:0|0:0,0:0:0:0:
416,88,204856,5,2,0:0:0:0:
336,88,205060,1,2,0:0:0:0:
272,144,205264,1,4,0:0:0:0:
168,216,205673,6,4,L|112:216,4,35,2|4|4|4|4,0:0|0:0|0:0|0:0|0:0,0:0:0:0:
240,192,206897,6,4,P|256:184|272:192,4,35
