osu file format v14

[General]
AudioFilename: [SDVX II --] Dignity [NOFX].mp3
AudioLeadIn: 0
PreviewTime: -1
Countdown: 1
SampleSet: None
StackLeniency: 0.7
Mode: 0
LetterboxInBreaks: 1
WidescreenStoryboard: 0

[Editor]
DistanceSpacing: 0.6
BeatDivisor: 4
GridSize: 4
TimelineZoom: 4.399998

[Metadata]
Title:Dignity
TitleUnicode:Dignity
Artist:SDVC II
ArtistUnicode:SDVC II
Creator:Makan1
Version:EXHAUST
Source:
Tags:
BeatmapID:729113
BeatmapSetID:328763

[Difficulty]
HPDrainRate:5
CircleSize:4
OverallDifficulty:8
ApproachRate:9
SliderMultiplier:1.7
SliderTickRate:1

[Events]
//Background and Video events
//Break Periods
//Storyboard Layer 0 (Background)
//Storyboard Layer 1 (Fail)
//Storyboard Layer 2 (Pass)
//Storyboard Layer 3 (Foreground)
//Storyboard Sound Samples

[TimingPoints]
895,310.880829015544,4,1,0,70,1,0
3982,-80,4,1,0,100,0,0
4003,-80,4,1,0,70,0,0
5848,-100,4,1,0,100,0,0
5869,-100,4,1,0,70,0,0
6780,-133.333333333333,4,1,0,100,0,0
10822,-100,4,1,0,100,0,0
19470,-100,4,1,0,70,0,0
19526,-90.9090909090909,4,1,0,100,0,0
21413,-90.9090909090909,4,1,0,70,0,0
24500,-133.333333333333,4,1,0,100,0,0
25744,-100,4,1,0,100,0,0
42532,-133.333333333333,4,1,0,100,0,0
56521,-100,4,1,0,100,0,0
75195,-133.333333333333,4,1,0,100,0,0
81568,-133.333333333333,4,1,0,70,0,0
87298,-133.333333333333,4,1,0,100,0,0
106806,-100,4,1,0,100,0,0

[HitObjects]
130,95,895,5,0,0:0:0:0:
163,193,1050,1,0,0:0:0:0:
211,147,1128,1,0,0:0:0:0:
224,81,1205,1,0,0:0:0:0:
236,237,1361,1,0,0:0:0:0:
304,179,1516,6,0,P|326:127|364:117,1,85
384,197,1827,2,0,P|377:248|339:268,1,85
272,260,2138,1,0,0:0:0:0:
219,171,2293,1,0,0:0:0:0:
300,99,2449,1,0,0:0:0:0:
395,58,2604,1,0,0:0:0:0:
401,115,2682,1,0,0:0:0:0:
377,166,2760,1,0,0:0:0:0:
285,168,2915,6,0,P|243:132|192:136,1,85
209,208,3226,2,0,P|242:251|283:255,1,85
342,213,3537,2,0,L|430:191,2,85
236,208,4003,6,0,L|219:81,2,106.25
232,241,4392,1,0,0:0:0:0:
201,284,4470,1,0,0:0:0:0:
161,313,4547,1,0,0:0:0:0:
108,317,4625,1,0,0:0:0:0:
62,293,4703,1,0,0:0:0:0:
39,246,4781,1,0,0:0:0:0:
37,193,4858,1,0,0:0:0:0:
52,142,4936,5,0,0:0:0:0:
86,102,5014,1,0,0:0:0:0:
130,73,5091,1,0,0:0:0:0:
179,51,5169,1,0,0:0:0:0:
231,43,5247,1,0,0:0:0:0:
284,47,5325,1,0,0:0:0:0:
336,57,5402,1,0,0:0:0:0:
385,78,5480,1,0,0:0:0:0:
424,113,5558,1,0,0:0:0:0:
445,160,5635,1,0,0:0:0:0:
434,212,5713,1,0,0:0:0:0:
412,260,5791,1,0,0:0:0:0:
388,283,5869,6,0,P|331:293|290:274,1,85
170,100,6179,2,0,P|215:63|261:66,1,85
256,162,6490,2,0,P|198:184|152:178,1,85
191,286,6801,2,0,P|281:275|324:240,2,127.500004863739
391,158,7734,2,0,P|412:221|383:286,2,127.500004863739
121,158,8667,2,0,P|100:221|129:286,2,127.500004863739
310,263,9599,6,0,P|266:325|194:330,2,127.500004863739
344,147,10532,2,0,P|379:96|455:76,1,127.500004863739
335,61,10998,1,0,0:0:0:0:
223,92,11154,1,0,0:0:0:0:
125,198,11309,1,0,0:0:0:0:
250,275,11464,1,0,0:0:0:0:
356,189,11775,2,0,P|412:253|378:333,2,170
161,172,12708,2,0,P|109:108|143:28,2,170
380,152,13485,5,0,0:0:0:0:
309,299,13641,1,0,0:0:0:0:
154,226,13796,1,0,0:0:0:0:
234,78,13951,1,0,0:0:0:0:
336,91,14262,6,0,P|437:111|473:190,2,170
201,222,15195,2,0,P|145:294|51:308,2,170
255,95,15972,2,0,P|313:62|350:64,1,85
327,125,16283,2,0,P|393:104|432:120,1,85
406,106,16594,1,0,0:0:0:0:
394,199,16749,2,0,P|306:230|274:303,2,170
233,133,17682,2,0,P|145:164|113:237,2,170
383,56,18615,2,0,P|439:162|412:202,2,170
358,142,19547,6,0,P|206:215|179:195,1,187.000005706787
259,141,20169,1,0,0:0:0:0:
342,301,20480,2,0,P|442:228|446:164,1,187.000005706787
463,95,20946,1,0,0:0:0:0:
379,142,21102,1,0,0:0:0:0:
381,51,21257,1,0,0:0:0:0:
272,67,21413,2,0,L|213:67,4,46.7500014266968
298,107,21801,5,0,0:0:0:0:
305,153,21879,1,0,0:0:0:0:
290,193,21957,1,0,0:0:0:0:
286,235,22034,2,0,L|330:264,4,46.7500014266968
263,262,22423,1,0,0:0:0:0:
230,284,22501,1,0,0:0:0:0:
188,291,22578,1,0,0:0:0:0:
145,283,22656,2,0,L|145:226,4,46.7500014266968
107,277,23045,5,0,0:0:0:0:
77,244,23122,1,0,0:0:0:0:
58,209,23200,1,0,0:0:0:0:
70,177,23278,2,0,P|139:143|147:117,1,93.5000028533937
263,93,23589,1,0,0:0:0:0:
263,93,23667,1,0,0:0:0:0:
263,93,23744,1,0,0:0:0:0:
378,131,23900,1,0,0:0:0:0:
378,131,23977,1,0,0:0:0:0:
378,131,24055,1,0,0:0:0:0:
258,234,24211,1,0,0:0:0:0:
258,234,24288,1,0,0:0:0:0:
258,234,24366,1,0,0:0:0:0:
475,290,24521,5,0,0:0:0:0:
452,267,24598,1,0,0:0:0:0:
429,245,24676,1,0,0:0:0:0:
343,240,24832,1,0,0:0:0:0:
320,262,24909,1,0,0:0:0:0:
298,285,24987,1,0,0:0:0:0:
217,291,25143,1,0,0:0:0:0:
194,268,25220,1,0,0:0:0:0:
171,246,25298,1,0,0:0:0:0:
94,255,25454,1,0,0:0:0:0:
71,277,25531,1,0,0:0:0:0:
49,300,25609,1,0,0:0:0:0:
80,136,25765,6,0,P|152:68|220:80,1,170
228,188,26387,1,0,0:0:0:0:
416,52,26698,1,0,0:0:0:0:
80,136,27008,1,0,0:0:0:0:
396,224,27319,1,0,0:0:0:0:
60,248,27630,1,0,0:0:0:0:
192,296,27941,5,0,0:0:0:0:
384,240,28252,1,0,0:0:0:0:
404,72,28563,1,0,0:0:0:0:
264,68,28874,2,0,P|192:72|160:104,2,85
256,196,29496,2,0,P|144:204|96:168,1,170
128,76,30117,1,0,0:0:0:0:
384,112,30428,1,0,0:0:0:0:
84,272,30739,5,0,0:0:0:0:
260,44,31050,1,0,0:0:0:0:
376,296,31361,1,0,0:0:0:0:
88,104,31672,1,0,0:0:0:0:
432,104,31983,1,0,0:0:0:0:
224,320,32293,1,0,0:0:0:0:
268,164,32604,2,0,L|320:88,2,85
184,232,33226,6,0,P|288:272|360:248,1,170
341,258,33692,1,0,0:0:0:0:
341,258,33848,1,0,0:0:0:0:
184,232,34159,2,0,P|288:272|360:248,1,170
341,258,34625,1,0,0:0:0:0:
341,258,34781,1,0,0:0:0:0:
184,232,35091,2,0,P|288:272|360:248,1,170
341,258,35557,1,0,0:0:0:0:
341,258,35713,1,0,0:0:0:0:
184,232,36024,2,0,P|288:272|360:248,1,170
341,258,36490,1,0,0:0:0:0:
341,258,36646,1,0,0:0:0:0:
344,172,36957,5,0,0:0:0:0:
316,152,37268,1,0,0:0:0:0:
288,132,37578,1,0,0:0:0:0:
260,112,37889,1,0,0:0:0:0:
232,136,38200,1,0,0:0:0:0:
208,160,38511,1,0,0:0:0:0:
200,184,38822,5,0,0:0:0:0:
216,204,38977,1,0,0:0:0:0:
204,188,39133,1,0,0:0:0:0:
216,204,39288,1,0,0:0:0:0:
216,204,39444,1,0,0:0:0:0:
216,204,39599,1,0,0:0:0:0:
216,204,39755,1,0,0:0:0:0:
212,200,39910,1,0,0:0:0:0:
216,208,40065,5,0,0:0:0:0:
232,220,40143,1,0,0:0:0:0:
256,228,40221,1,0,0:0:0:0:
296,220,40299,1,0,0:0:0:0:
320,192,40376,1,0,0:0:0:0:
352,216,40454,1,0,0:0:0:0:
344,264,40532,1,0,0:0:0:0:
304,276,40610,1,0,0:0:0:0:
256,192,40687,12,0,41464,0:0:0:0:
88,100,41620,6,0,P|169:110|181:105,1,85
194,115,41853,1,0,0:0:0:0:
236,119,41930,1,0,0:0:0:0:
277,127,42008,1,0,0:0:0:0:
318,139,42086,1,0,0:0:0:0:
357,156,42163,5,0,0:0:0:0:
393,178,42241,1,0,0:0:0:0:
411,209,42319,1,0,0:0:0:0:
389,246,42397,1,0,0:0:0:0:
368,282,42474,1,0,0:0:0:0:
338,310,42553,2,0,P|263:328|199:331,3,127.500004863739
172,328,43563,1,0,0:0:0:0:
142,315,43640,1,0,0:0:0:0:
116,297,43718,1,0,0:0:0:0:
96,272,43796,5,0,0:0:0:0:
82,244,43873,1,0,0:0:0:0:
75,213,43951,1,0,0:0:0:0:
76,181,44029,1,0,0:0:0:0:
85,150,44107,1,0,0:0:0:0:
100,122,44184,1,0,0:0:0:0:
122,99,44262,1,0,0:0:0:0:
148,82,44340,1,0,0:0:0:0:
169,72,44418,2,0,P|244:43|300:33,3,127.500004863739
399,96,45428,5,0,0:0:0:0:
376,129,45506,1,0,0:0:0:0:
403,159,45584,1,0,0:0:0:0:
420,203,45661,1,0,0:0:0:0:
418,247,45739,1,0,0:0:0:0:
404,295,45817,1,0,0:0:0:0:
370,321,45895,1,0,0:0:0:0:
326,323,45972,5,0,0:0:0:0:
287,309,46050,1,0,0:0:0:0:
249,287,46128,1,0,0:0:0:0:
215,263,46205,1,0,0:0:0:0:
181,226,46283,1,0,0:0:0:0:
163,189,46361,1,0,0:0:0:0:
151,139,46439,1,0,0:0:0:0:
137,93,46516,1,0,0:0:0:0:
105,63,46594,5,0,0:0:0:0:
66,85,46672,1,0,0:0:0:0:
41,127,46749,1,0,0:0:0:0:
32,170,46827,1,0,0:0:0:0:
35,220,46905,1,0,0:0:0:0:
54,261,46983,1,0,0:0:0:0:
80,290,47060,1,0,0:0:0:0:
116,305,47138,1,0,0:0:0:0:
154,295,47216,5,0,0:0:0:0:
192,275,47293,1,0,0:0:0:0:
225,247,47371,1,0,0:0:0:0:
261,217,47449,1,0,0:0:0:0:
298,192,47527,1,0,0:0:0:0:
332,170,47604,1,0,0:0:0:0:
372,153,47682,1,0,0:0:0:0:
415,151,47760,1,0,0:0:0:0:
441,187,47838,5,0,0:0:0:0:
431,228,47915,1,0,0:0:0:0:
407,267,47993,1,0,0:0:0:0:
176,154,48148,5,0,0:0:0:0:
176,154,48226,1,0,0:0:0:0:
176,154,48304,1,0,0:0:0:0:
238,130,48459,2,0,L|290:114,1,31.8750012159348
183,212,48615,2,0,L|188:247,1,31.8750012159348
110,165,48770,2,0,L|51:173,1,31.8750012159348
336,74,49081,6,0,P|399:78|408:149,1,127.500004863739
404,160,49470,1,0,0:0:0:0:
384,200,49547,1,0,0:0:0:0:
368,244,49625,1,0,0:0:0:0:
360,288,49703,1,0,0:0:0:0:
352,332,49781,1,0,0:0:0:0:
320,356,49858,1,0,0:0:0:0:
276,340,49936,1,0,0:0:0:0:
236,316,50014,6,0,P|144:268|100:264,3,127.500004863739
100,240,51024,1,0,0:0:0:0:
82,190,51102,1,0,0:0:0:0:
96,148,51179,1,0,0:0:0:0:
128,116,51257,1,0,0:0:0:0:
168,92,51335,1,0,0:0:0:0:
213,77,51413,1,0,0:0:0:0:
252,76,51490,1,0,0:0:0:0:
296,80,51568,5,0,0:0:0:0:
328,99,51646,1,0,0:0:0:0:
358,127,51724,1,0,0:0:0:0:
383,163,51801,1,0,0:0:0:0:
401,199,51879,2,0,P|401:283|379:324,3,127.500004863739
228,296,52889,1,0,0:0:0:0:
188,276,52967,1,0,0:0:0:0:
140,288,53045,1,0,0:0:0:0:
100,316,53122,5,0,0:0:0:0:
60,292,53200,1,0,0:0:0:0:
36,238,53278,1,0,0:0:0:0:
40,184,53356,1,0,0:0:0:0:
64,140,53433,1,0,0:0:0:0:
94,100,53511,1,0,0:0:0:0:
137,70,53589,1,0,0:0:0:0:
181,64,53667,1,0,0:0:0:0:
228,72,53744,5,0,0:0:0:0:
267,100,53822,1,0,0:0:0:0:
295,140,53900,1,0,0:0:0:0:
332,170,53977,1,0,0:0:0:0:
370,191,54055,1,0,0:0:0:0:
413,213,54133,1,0,0:0:0:0:
442,246,54211,1,0,0:0:0:0:
467,290,54288,1,0,0:0:0:0:
439,324,54366,5,0,0:0:0:0:
400,316,54444,1,0,0:0:0:0:
356,308,54521,1,0,0:0:0:0:
314,293,54599,1,0,0:0:0:0:
276,282,54677,1,0,0:0:0:0:
234,270,54755,1,0,0:0:0:0:
186,273,54832,1,0,0:0:0:0:
166,229,54910,1,0,0:0:0:0:
135,191,54988,5,0,0:0:0:0:
118,153,55065,1,0,0:0:0:0:
117,105,55143,1,0,0:0:0:0:
143,67,55221,1,0,0:0:0:0:
174,96,55299,1,0,0:0:0:0:
210,127,55376,1,0,0:0:0:0:
249,150,55454,1,0,0:0:0:0:
293,155,55532,1,0,0:0:0:0:
335,156,55610,5,0,0:0:0:0:
374,146,55687,1,0,0:0:0:0:
411,126,55765,1,0,0:0:0:0:
444,88,55843,1,0,0:0:0:0:
416,55,55920,1,0,0:0:0:0:
373,65,55998,1,0,0:0:0:0:
326,71,56076,1,0,0:0:0:0:
279,65,56154,1,0,0:0:0:0:
234,46,56231,1,0,0:0:0:0:
250,269,56542,6,0,P|156:236|88:284,2,170
310,171,57475,2,0,P|404:139|472:187,2,170
212,160,58407,2,0,B|168:120|168:120|112:128|112:128|84:96|84:96|56:72,2,170
300,224,59340,2,0,B|344:264|344:264|400:256|400:256|428:288|428:288|456:312,2,170
196,232,60273,2,0,B|124:282|124:282|40:220,2,170
316,152,61205,2,0,B|388:102|388:102|472:164,2,170
196,148,62138,2,0,P|140:104|212:52,1,170
288,98,62604,5,0,0:0:0:0:
351,227,62915,1,0,0:0:0:0:
226,226,63226,1,0,0:0:0:0:
134,207,63382,2,0,P|105:258|127:291,1,85
194,328,63692,2,0,P|242:322|266:284,1,85
425,176,64003,6,0,P|423:271|346:308,2,170
256,192,64781,12,0,65558,0:0:0:0:
334,256,65869,6,0,P|193:271|163:233,2,170
256,192,66646,12,0,67423,0:0:0:0:
335,99,67734,5,0,0:0:0:0:
335,99,67889,1,0,0:0:0:0:
335,99,68045,1,0,0:0:0:0:
335,99,68200,1,0,0:0:0:0:
209,91,68356,1,0,0:0:0:0:
209,91,68511,1,0,0:0:0:0:
209,91,68667,1,0,0:0:0:0:
209,91,68822,1,0,0:0:0:0:
209,91,68977,1,0,0:0:0:0:
209,91,69133,1,0,0:0:0:0:
303,191,69288,1,0,0:0:0:0:
303,191,69444,1,0,0:0:0:0:
159,266,69599,5,0,0:0:0:0:
159,266,69677,1,0,0:0:0:0:
159,266,69755,1,0,0:0:0:0:
405,264,69910,1,0,0:0:0:0:
156,147,70065,1,0,0:0:0:0:
156,147,70143,1,0,0:0:0:0:
156,147,70221,1,0,0:0:0:0:
425,144,70376,1,0,0:0:0:0:
242,85,70532,5,0,0:0:0:0:
242,85,70610,1,0,0:0:0:0:
242,85,70687,1,0,0:0:0:0:
318,278,70843,1,0,0:0:0:0:
125,120,70998,1,0,0:0:0:0:
125,120,71076,1,0,0:0:0:0:
125,120,71154,1,0,0:0:0:0:
196,305,71309,1,0,0:0:0:0:
288,214,71464,6,0,L|406:214,3,85
224,214,72086,2,0,L|106:214,3,85
214,146,72708,2,0,L|214:28,3,85
298,76,73330,2,0,L|359:76,10,42.5
110,108,74262,6,0,P|192:138|202:181,1,127.5
203,208,74573,1,0,0:0:0:0:
208,245,74651,1,0,0:0:0:0:
221,282,74729,1,0,0:0:0:0:
248,313,74806,1,0,0:0:0:0:
289,322,74884,1,0,0:0:0:0:
330,313,74962,1,0,0:0:0:0:
362,275,75040,1,0,0:0:0:0:
374,231,75117,1,0,0:0:0:0:
376,195,75195,6,0,P|347:167|261:166,3,127.500004863739
239,187,76205,1,0,0:0:0:0:
220,226,76283,1,0,0:0:0:0:
199,269,76361,1,0,0:0:0:0:
174,309,76439,1,0,0:0:0:0:
132,330,76516,1,0,0:0:0:0:
91,309,76594,1,0,0:0:0:0:
63,268,76672,1,0,0:0:0:0:
50,222,76749,5,0,0:0:0:0:
51,174,76827,1,0,0:0:0:0:
63,127,76905,1,0,0:0:0:0:
89,90,76983,1,0,0:0:0:0:
119,72,77060,2,0,L|143:203,3,127.500004863739
157,230,78071,1,0,0:0:0:0:
179,260,78148,1,0,0:0:0:0:
210,286,78226,1,0,0:0:0:0:
242,305,78304,5,0,0:0:0:0:
277,320,78382,1,0,0:0:0:0:
310,320,78459,1,0,0:0:0:0:
346,335,78537,1,0,0:0:0:0:
380,331,78615,1,0,0:0:0:0:
411,322,78692,1,0,0:0:0:0:
439,297,78770,1,0,0:0:0:0:
449,268,78848,1,0,0:0:0:0:
455,233,78926,5,0,0:0:0:0:
451,199,79003,1,0,0:0:0:0:
441,171,79081,1,0,0:0:0:0:
423,142,79159,1,0,0:0:0:0:
398,115,79236,1,0,0:0:0:0:
366,105,79314,1,0,0:0:0:0:
328,97,79392,1,0,0:0:0:0:
294,104,79470,1,0,0:0:0:0:
262,131,79547,5,0,0:0:0:0:
247,160,79625,1,0,0:0:0:0:
229,204,79703,1,0,0:0:0:0:
212,233,79781,1,0,0:0:0:0:
183,271,79858,1,0,0:0:0:0:
153,295,79936,1,0,0:0:0:0:
112,317,80014,1,0,0:0:0:0:
73,302,80091,1,0,0:0:0:0:
59,254,80169,5,0,0:0:0:0:
57,204,80247,1,0,0:0:0:0:
63,158,80325,1,0,0:0:0:0:
76,111,80402,1,0,0:0:0:0:
100,74,80480,1,0,0:0:0:0:
136,52,80558,1,0,0:0:0:0:
179,41,80635,1,0,0:0:0:0:
224,44,80713,1,0,0:0:0:0:
332,71,80791,5,0,0:0:0:0:
332,71,80869,1,0,0:0:0:0:
332,71,80946,1,0,0:0:0:0:
397,109,81102,2,0,L|434:83,1,31.8750012159348
332,147,81257,2,0,L|304:168,1,31.8750012159348
394,184,81413,1,0,0:0:0:0:
245,157,81724,5,0,0:0:0:0:
201,177,81801,1,0,0:0:0:0:
168,220,81879,1,0,0:0:0:0:
147,270,81957,1,0,0:0:0:0:
121,320,82034,1,0,0:0:0:0:
160,338,82112,1,0,0:0:0:0:
205,340,82190,1,0,0:0:0:0:
259,329,82268,1,0,0:0:0:0:
302,317,82345,5,0,0:0:0:0:
340,297,82423,1,0,0:0:0:0:
382,267,82501,1,0,0:0:0:0:
414,240,82578,1,0,0:0:0:0:
441,197,82656,1,0,0:0:0:0:
454,146,82734,1,0,0:0:0:0:
459,95,82812,1,0,0:0:0:0:
457,47,82889,1,0,0:0:0:0:
414,38,82967,5,0,0:0:0:0:
377,68,83045,1,0,0:0:0:0:
347,101,83122,1,0,0:0:0:0:
328,143,83200,1,0,0:0:0:0:
328,189,83278,1,0,0:0:0:0:
317,235,83356,1,0,0:0:0:0:
306,272,83433,1,0,0:0:0:0:
279,304,83511,1,0,0:0:0:0:
241,313,83589,5,0,0:0:0:0:
205,303,83667,1,0,0:0:0:0:
177,276,83744,1,0,0:0:0:0:
154,247,83822,1,0,0:0:0:0:
137,215,83900,1,0,0:0:0:0:
126,186,83977,1,0,0:0:0:0:
115,155,84055,1,0,0:0:0:0:
108,123,84133,1,0,0:0:0:0:
114,86,84211,5,0,0:0:0:0:
134,62,84288,1,0,0:0:0:0:
163,44,84366,1,0,0:0:0:0:
190,29,84444,1,0,0:0:0:0:
228,26,84521,1,0,0:0:0:0:
263,33,84599,1,0,0:0:0:0:
293,48,84677,1,0,0:0:0:0:
319,74,84755,1,0,0:0:0:0:
339,102,84832,5,0,0:0:0:0:
356,134,84910,1,0,0:0:0:0:
368,167,84988,1,0,0:0:0:0:
375,203,85065,1,0,0:0:0:0:
376,241,85143,1,0,0:0:0:0:
362,280,85221,1,0,0:0:0:0:
329,298,85299,1,0,0:0:0:0:
299,320,85376,1,0,0:0:0:0:
249,320,85454,5,0,0:0:0:0:
208,300,85532,1,0,0:0:0:0:
175,264,85610,1,0,0:0:0:0:
149,220,85687,1,0,0:0:0:0:
147,175,85765,1,0,0:0:0:0:
106,212,85843,1,0,0:0:0:0:
99,266,85920,1,0,0:0:0:0:
112,307,85998,1,0,0:0:0:0:
157,300,86076,5,0,0:0:0:0:
193,267,86154,1,0,0:0:0:0:
214,224,86231,1,0,0:0:0:0:
214,171,86309,1,0,0:0:0:0:
197,118,86387,5,0,0:0:0:0:
172,57,86542,1,0,0:0:0:0:
252,62,86698,1,0,0:0:0:0:
314,109,86853,1,0,0:0:0:0:
362,174,87008,1,0,0:0:0:0:
327,246,87164,1,0,0:0:0:0:
248,251,87319,2,0,P|188:227|125:258,2,127.500004863739
277,278,88019,5,0,0:0:0:0:
313,307,88097,1,0,0:0:0:0:
349,320,88174,1,0,0:0:0:0:
392,313,88252,1,0,0:0:0:0:
428,289,88330,1,0,0:0:0:0:
446,247,88407,1,0,0:0:0:0:
450,208,88485,1,0,0:0:0:0:
443,165,88563,5,0,0:0:0:0:
428,132,88641,1,0,0:0:0:0:
404,108,88718,1,0,0:0:0:0:
376,89,88796,1,0,0:0:0:0:
346,75,88874,2,0,L|344:213,2,127.500004863739
299,77,89573,1,0,0:0:0:0:
263,98,89651,1,0,0:0:0:0:
245,137,89729,1,0,0:0:0:0:
229,176,89806,5,0,0:0:0:0:
211,213,89884,1,0,0:0:0:0:
186,240,89962,1,0,0:0:0:0:
154,263,90040,1,0,0:0:0:0:
114,257,90117,1,0,0:0:0:0:
85,233,90195,1,0,0:0:0:0:
69,200,90273,1,0,0:0:0:0:
61,159,90350,1,0,0:0:0:0:
63,117,90428,5,0,0:0:0:0:
80,78,90506,1,0,0:0:0:0:
114,48,90584,1,0,0:0:0:0:
157,44,90661,1,0,0:0:0:0:
190,65,90739,2,0,P|234:107|232:180,2,127.500004863739
170,90,91439,1,0,0:0:0:0:
176,127,91516,1,0,0:0:0:0:
186,165,91594,1,0,0:0:0:0:
210,194,91672,5,0,0:0:0:0:
241,213,91749,1,0,0:0:0:0:
279,216,91827,1,0,0:0:0:0:
315,212,91905,1,0,0:0:0:0:
356,200,91983,1,0,0:0:0:0:
386,185,92060,1,0,0:0:0:0:
412,166,92138,1,0,0:0:0:0:
434,142,92216,1,0,0:0:0:0:
456,115,92293,5,0,0:0:0:0:
465,153,92371,1,0,0:0:0:0:
466,186,92449,1,0,0:0:0:0:
465,216,92527,1,0,0:0:0:0:
460,248,92604,1,0,0:0:0:0:
450,280,92682,1,0,0:0:0:0:
434,304,92760,1,0,0:0:0:0:
409,325,92838,1,0,0:0:0:0:
380,332,92915,5,0,0:0:0:0:
345,325,92993,1,0,0:0:0:0:
325,312,93071,1,0,0:0:0:0:
292,297,93148,1,0,0:0:0:0:
257,299,93226,1,0,0:0:0:0:
225,304,93304,1,0,0:0:0:0:
196,317,93382,1,0,0:0:0:0:
162,330,93459,1,0,0:0:0:0:
126,342,93537,5,0,0:0:0:0:
95,328,93615,1,0,0:0:0:0:
72,304,93692,1,0,0:0:0:0:
57,274,93770,1,0,0:0:0:0:
47,244,93848,1,0,0:0:0:0:
44,208,93926,1,0,0:0:0:0:
45,180,94003,1,0,0:0:0:0:
59,145,94081,1,0,0:0:0:0:
81,122,94159,5,0,0:0:0:0:
106,104,94236,1,0,0:0:0:0:
137,91,94314,1,0,0:0:0:0:
167,82,94392,1,0,0:0:0:0:
201,93,94470,2,0,L|241:131,2,31.8750012159348
336,106,94781,1,0,0:0:0:0:
182,229,94936,1,0,0:0:0:0:
336,106,95091,1,0,0:0:0:0:
397,296,95402,6,0,P|327:254|269:246,1,127.500004863739
250,256,95791,1,0,0:0:0:0:
217,273,95869,1,0,0:0:0:0:
175,291,95946,1,0,0:0:0:0:
138,299,96024,1,0,0:0:0:0:
102,292,96102,1,0,0:0:0:0:
75,268,96179,1,0,0:0:0:0:
65,233,96257,1,0,0:0:0:0:
65,200,96335,6,0,P|79:129|154:109,1,127.500004863739
160,115,96724,1,0,0:0:0:0:
191,135,96801,1,0,0:0:0:0:
219,155,96879,1,0,0:0:0:0:
252,168,96957,1,0,0:0:0:0:
283,180,97034,1,0,0:0:0:0:
312,189,97112,1,0,0:0:0:0:
346,200,97190,1,0,0:0:0:0:
379,215,97268,6,0,P|419:165|365:118,1,127.500004863739
348,122,97656,1,0,0:0:0:0:
320,152,97734,1,0,0:0:0:0:
294,187,97812,1,0,0:0:0:0:
283,226,97889,1,0,0:0:0:0:
269,264,97967,1,0,0:0:0:0:
249,301,98045,1,0,0:0:0:0:
208,317,98122,1,0,0:0:0:0:
177,228,98200,5,0,0:0:0:0:
177,228,98278,1,0,0:0:0:0:
177,228,98356,1,0,0:0:0:0:
286,87,98511,1,0,0:0:0:0:
423,199,98667,1,0,0:0:0:0:
307,293,98822,1,0,0:0:0:0:
170,169,98977,1,0,0:0:0:0:
141,306,99133,5,0,0:0:0:0:
297,191,99288,1,0,0:0:0:0:
163,64,99444,1,0,0:0:0:0:
231,271,99599,1,0,0:0:0:0:
361,209,99755,1,0,0:0:0:0:
360,60,99910,1,0,0:0:0:0:
186,161,100065,1,0,0:0:0:0:
70,104,100221,1,0,0:0:0:0:
90,257,100376,5,0,0:0:0:0:
214,333,100532,1,0,0:0:0:0:
310,249,100687,1,0,0:0:0:0:
428,321,100843,1,0,0:0:0:0:
444,95,100998,1,0,0:0:0:0:
409,124,101076,1,0,0:0:0:0:
381,158,101154,1,0,0:0:0:0:
288,232,101309,5,0,0:0:0:0:
134,79,101464,1,0,0:0:0:0:
157,114,101542,1,0,0:0:0:0:
172,152,101620,1,0,0:0:0:0:
225,248,101775,1,0,0:0:0:0:
265,36,101931,1,0,0:0:0:0:
263,67,102008,1,0,0:0:0:0:
264,96,102086,1,0,0:0:0:0:
266,150,102242,1,0,0:0:0:0:
265,191,102397,1,0,0:0:0:0:
265,216,102475,1,0,0:0:0:0:
265,244,102553,1,0,0:0:0:0:
265,277,102630,1,0,0:0:0:0:
265,304,102708,1,0,0:0:0:0:
256,192,102863,12,0,103641,0:0:0:0:
115,133,103796,5,0,0:0:0:0:
115,133,103874,1,0,0:0:0:0:
115,133,103951,1,0,0:0:0:0:
368,146,104107,1,0,0:0:0:0:
123,249,104262,1,0,0:0:0:0:
123,249,104340,1,0,0:0:0:0:
123,249,104418,1,0,0:0:0:0:
374,253,104573,1,0,0:0:0:0:
224,144,104729,5,0,0:0:0:0:
224,144,104806,1,0,0:0:0:0:
224,144,104884,1,0,0:0:0:0:
224,144,104962,1,0,0:0:0:0:
224,144,105040,1,0,0:0:0:0:
224,144,105117,1,0,0:0:0:0:
224,144,105195,1,0,0:0:0:0:
376,93,105350,5,0,0:0:0:0:
376,93,105428,1,0,0:0:0:0:
376,93,105506,1,0,0:0:0:0:
231,289,105661,1,0,0:0:0:0:
294,58,105817,1,0,0:0:0:0:
294,58,105894,1,0,0:0:0:0:
294,58,105972,1,0,0:0:0:0:
343,298,106128,1,0,0:0:0:0:
112,126,106283,5,0,0:0:0:0:
112,126,106361,1,0,0:0:0:0:
112,126,106439,1,0,0:0:0:0:
112,126,106516,1,0,0:0:0:0:
112,126,106594,1,0,0:0:0:0:
112,126,106672,1,0,0:0:0:0:
112,126,106749,1,0,0:0:0:0:
292,223,106905,6,0,L|291:122,3,85
365,146,107527,6,0,L|466:145,3,85
375,226,108148,6,0,L|376:327,3,85
304,299,108770,6,0,L|203:300,1,85
228,228,109003,2,0,L|229:200,2,21.25
158,226,109236,6,0,L|57:227,1,85
75,156,109470,2,0,L|76:128,2,21.25
134,87,109703,6,0,L|235:88,1,85
223,158,109936,2,0,L|224:186,2,21.25
296,187,110169,2,0,L|363:186,4,42.5
297,263,110635,1,0,0:0:0:0:
256,192,110791,12,0,112812,0:0:0:0:
