osu file format v14

[General]
AudioFilename: humu.mp3
AudioLeadIn: 0
PreviewTime: 54252
Countdown: 0
SampleSet: Soft
StackLeniency: 0.7
Mode: 0
LetterboxInBreaks: 0
WidescreenStoryboard: 0

[Editor]
DistanceSpacing: 1.2
BeatDivisor: 4
GridSize: 4
TimelineZoom: 1

[Metadata]
Title:LOVEST(TV Size Ver.)
TitleUnicode:LφVEST(TV Size Ver.)
Artist:SCREEN mode
ArtistUnicode:SCREEN mode
Creator:Yasora
Version:Insane
Source:LOVE STAGE!!
Tags:opening yaoi BL Boys Love
BeatmapID:480270
BeatmapSetID:203138

[Difficulty]
HPDrainRate:7
CircleSize:4
OverallDifficulty:8
ApproachRate:9
SliderMultiplier:1.6
SliderTickRate:1

[Events]
//Background and Video events
0,0,"XD.jpg",0,0
Video,550,"hyaaa.avi"
//Break Periods
//Storyboard Layer 0 (Background)
//Storyboard Layer 1 (Fail)
//Storyboard Layer 2 (Pass)
//Storyboard Layer 3 (Foreground)
//Storyboard Sound Samples

[TimingPoints]
920,333.333333333333,4,2,1,60,1,0
6253,-100,4,2,1,70,0,0
21753,-100,4,2,1,50,0,0
22253,-100,4,2,1,60,0,0
56919,-100,4,2,1,80,0,1
66753,-100,4,2,1,70,0,0
67586,-100,4,2,1,80,0,1
76753,-100,4,2,1,60,0,0
78086,-100,4,2,1,70,0,0
82253,-100,4,2,1,20,0,0

[Colours]
Combo1 : 255,0,128
Combo2 : 255,128,64
Combo3 : 0,128,192
Combo4 : 214,1,1

[HitObjects]
112,104,919,5,4,0:0:0:0:
208,132,1086,1,0,0:0:0:0:
208,132,1169,1,0,0:0:0:0:
208,132,1253,2,0,L|288:128,1,80,2|0,0:0|0:0,0:0:0:0:
380,120,1586,1,2,0:0:0:0:
352,320,1919,5,2,0:0:0:0:
280,256,2086,1,0,0:0:0:0:
180,264,2253,1,2,0:0:0:0:
120,340,2419,2,0,L|112:392,2,40,0|0|2,0:0|0:0|0:0,0:0:0:0:
80,136,2919,5,2,0:0:0:0:
184,112,3086,1,2,0:0:0:0:
284,88,3253,1,2,0:0:0:0:
428,196,3586,5,4,0:0:0:0:
304,180,3753,1,0,0:0:0:0:
304,180,3836,1,0,0:0:0:0:
304,180,3919,1,2,0:0:0:0:
476,108,4086,1,0,0:0:0:0:
384,288,4253,1,2,0:0:0:0:
160,340,4586,5,2,0:0:0:0:
160,340,4919,2,0,P|108:308|96:212,1,160,4|0,0:0|0:0,0:0:0:0:
296,128,5419,2,0,P|284:176|260:216,1,80,4|0,0:0|0:0,0:0:0:0:
272,332,5753,1,0,0:0:0:0:
296,328,5836,1,0,0:0:0:0:
320,324,5919,1,8,0:0:0:0:
344,320,6003,1,0,0:0:0:0:
368,316,6086,1,0,0:0:0:0:
392,312,6169,1,0,0:0:0:0:
416,308,6253,6,0,P|448:244|456:224,1,80,4|0,0:0|0:0,0:0:0:0:
432,140,6586,1,8,0:0:0:0:
356,80,6753,2,0,P|284:48|188:68,1,160,2|2,0:0|0:0,0:0:0:0:
112,88,7253,1,8,0:0:0:0:
100,252,7419,6,0,P|128:304|220:288,1,160,2|0,0:0|0:0,0:0:0:0:
276,112,7919,2,0,P|328:100|388:100,1,80,8|0,0:0|0:0,0:0:0:0:
428,224,8253,2,0,P|372:212|344:212,1,80,2|0,0:0|0:0,0:0:0:0:
292,332,8586,2,0,P|344:320|404:320,1,80,8|0,0:0|0:0,0:0:0:0:
216,248,8919,6,0,L|56:224,1,160,2|8,0:0|0:0,0:0:0:0:
64,120,9419,2,0,L|144:132,1,80,2|0,0:0|0:0,0:0:0:0:
348,136,9753,1,8,0:0:0:0:
236,148,9919,1,8,0:0:0:0:
300,52,10086,2,0,P|368:44|440:116,1,160,4|2,0:0|0:0,0:0:0:0:
408,248,10586,1,8,0:0:0:0:
284,352,10753,2,0,P|256:288|268:184,1,160,4|0,0:0|0:0,0:0:0:0:
300,112,11253,1,8,0:0:0:0:
92,56,11419,5,0,0:0:0:0:
92,56,11503,1,0,0:0:0:0:
92,56,11586,2,0,L|164:208,1,160,4|4,0:0|0:0,0:0:0:0:
256,352,12253,1,0,0:0:0:0:
320,268,12419,1,0,0:0:0:0:
428,272,12586,1,8,0:0:0:0:
364,356,12753,5,0,0:0:0:0:
364,356,12836,1,0,0:0:0:0:
364,356,12919,2,0,L|284:200,1,160,4|4,0:0|0:0,0:0:0:0:
204,48,13586,1,0,0:0:0:0:
120,120,13753,1,2,0:0:0:0:
108,224,13919,1,0,0:0:0:0:
168,308,14086,1,2,0:0:0:0:
252,196,14253,6,0,L|336:188,1,80,4|0,0:0|0:0,0:0:0:0:
400,120,14586,1,8,0:0:0:0:
284,296,14753,1,8,0:0:0:0:
344,212,14919,1,0,0:0:0:0:
412,288,15086,5,8,0:0:0:0:
256,332,15253,1,2,0:0:0:0:
288,116,15419,1,4,0:0:0:0:
48,52,16253,5,2,0:0:0:0:
104,132,16419,1,0,0:0:0:0:
104,132,16503,1,2,0:0:0:0:
104,132,16586,2,0,L|164:204,1,80,8|0,0:0|0:0,0:0:0:0:
272,136,16919,6,0,P|332:120|380:120,1,80,4|0,0:0|0:0,0:0:0:0:
404,296,17253,2,0,L|316:288,1,80,4|0,0:0|0:0,0:0:0:0:
232,252,17586,1,4,3:0:0:0:
112,284,17753,1,4,3:0:0:0:
144,80,17919,1,8,0:0:0:0:
320,172,18086,6,0,P|398:178|464:128,1,160,4|0,0:0|0:0,0:0:0:0:
260,76,18586,1,8,0:0:0:0:
192,172,18753,2,0,P|114:178|48:128,1,160,2|2,0:0|0:0,0:0:0:0:
56,260,19253,1,8,0:0:0:0:
76,268,19336,1,0,0:0:0:0:
96,276,19419,1,0,0:0:0:0:
112,284,19503,1,0,0:0:0:0:
132,288,19586,6,0,P|184:268|244:260,1,80,4|0,0:0|0:0,0:0:0:0:
316,272,19919,2,0,L|376:340,1,80,4|0,0:0|0:0,0:0:0:0:
300,168,20253,2,0,L|240:108,1,80,4|4,3:0|3:0,0:0:0:0:
400,164,20586,1,8,0:0:0:0:
408,136,20919,5,8,0:0:0:0:
308,64,21086,1,8,0:0:0:0:
192,88,21253,1,0,0:0:0:0:
192,88,21419,1,8,0:0:0:0:
64,272,21753,5,0,0:0:0:0:
104,264,21836,1,0,0:0:0:0:
144,272,21919,1,8,0:0:0:0:
292,320,22086,5,0,0:0:0:0:
292,320,22169,1,0,0:0:0:0:
292,320,22253,2,0,L|196:348,1,80,4|0,0:0|0:0,0:0:0:0:
144,272,22586,2,0,P|136:212|152:104,1,160,8|0,0:0|0:0,0:0:0:0:
216,48,23086,1,2,0:0:0:0:
312,64,23253,1,8,0:0:0:0:
444,108,23419,6,0,P|460:156|372:224,1,160,2|2,0:0|0:0,0:0:0:0:
264,172,23919,1,8,0:0:0:0:
132,204,24086,2,0,P|132:252|208:332,1,160,2|2,0:0|0:0,0:0:0:0:
300,316,24586,2,0,P|336:302|384:296,1,80,8|0,0:0|0:0,0:0:0:0:
264,172,24919,6,0,L|264:88,1,80,2|0,0:0|0:0,0:0:0:0:
144,136,25253,2,0,P|104:120|64:116,1,80,8|0,0:0|0:0,0:0:0:0:
368,136,25586,2,0,P|408:120|448:116,1,80,2|0,0:0|0:0,0:0:0:0:
476,36,25919,1,8,0:0:0:0:
380,60,26086,2,0,L|348:232,1,160,2|2,0:0|0:0,0:0:0:0:
256,296,26586,1,8,0:0:0:0:
161,217,26753,2,0,L|132:60,1,160,2|0,0:0|0:0,0:0:0:0:
256,104,27253,1,8,0:0:0:0:
256,200,27419,1,0,0:0:0:0:
56,256,27586,6,0,P|65:295|84:331,1,80,4|0,0:0|0:0,0:0:0:0:
180,284,27919,2,0,L|348:308,1,160,4|0,0:0|0:0,0:0:0:0:
428,268,28419,1,2,0:0:0:0:
464,180,28586,1,8,0:0:0:0:
384,36,28753,6,0,B|356:72|368:112|368:112|384:144|360:212,1,160,2|0,0:0|0:0,0:0:0:0:
256,148,29253,1,8,0:0:0:0:
156,128,29419,2,0,P|136:76|136:40,1,80,2|0,0:0|0:0,0:0:0:0:
184,224,29753,2,0,P|152:264|120:288,1,80,2|8,0:0|0:0,0:0:0:0:
256,148,30086,1,0,0:0:0:0:
376,88,30253,6,0,L|368:196,2,80,2|0|8,0:0|0:0|0:0,0:0:0:0:
288,244,30753,1,2,0:0:0:0:
432,256,30919,2,0,L|444:348,2,80,2|0|8,0:0|0:0|0:0,0:0:0:0:
248,252,31419,1,0,0:0:0:0:
248,252,31503,1,0,0:0:0:0:
248,252,31586,6,0,P|220:288|96:332,1,160,8|0,0:0|0:0,0:0:0:0:
144,180,32086,2,0,P|172:152|216:132,1,80
448,152,32419,1,2,0:0:0:0:
344,228,32586,1,2,0:0:0:0:
256,124,32753,1,2,0:0:0:0:
408,60,32919,6,0,L|492:68,1,80,4|0,0:0|0:0,0:0:0:0:
260,184,33253,2,0,L|164:176,1,80,4|0,0:0|0:0,0:0:0:0:
96,128,33586,1,0,0:0:0:0:
156,48,33753,1,2,0:0:0:0:
256,72,33919,1,8,0:0:0:0:
280,288,34086,6,0,P|324:320|412:244,1,160,2|2,0:0|0:0,0:0:0:0:
280,288,34586,2,0,L|176:276,1,80,8|0,0:0|0:0,0:0:0:0:
92,143,34919,2,0,P|90:183|102:221,1,80,2|0,0:0|0:0,0:0:0:0:
204,168,35253,2,0,L|308:160,1,80,8|0,0:0|0:0,0:0:0:0:
372,112,35586,5,2,0:0:0:0:
372,112,35919,1,10,0:0:0:0:
432,248,36253,1,0,0:0:0:0:
336,208,36419,1,2,0:0:0:0:
232,236,36586,1,8,0:0:0:0:
160,352,36753,6,0,L|112:200,1,160,2|2,0:0|0:0,0:0:0:0:
176,60,37253,2,0,L|204:152,1,80,8|2,0:0|0:0,0:0:0:0:
308,84,37586,1,0,0:0:0:0:
404,132,37753,1,0,0:0:0:0:
404,244,37919,2,0,P|384:280|352:312,1,80,8|0,0:0|0:0,0:0:0:0:
196,316,38253,5,4,0:0:0:0:
196,316,38586,1,4,0:0:0:0:
88,188,38919,1,0,0:0:0:0:
108,96,39086,1,2,0:0:0:0:
184,36,39253,1,8,0:0:0:0:
268,172,39419,6,0,P|312:188|424:156,1,160,2|2,0:0|0:0,0:0:0:0:
372,76,39919,1,8,0:0:0:0:
276,88,40086,2,0,L|260:260,1,160,2|2,0:0|0:0,0:0:0:0:
376,344,40586,2,0,L|368:252,1,80,8|0,0:0|0:0,0:0:0:0:
192,296,40919,6,0,P|152:308|48:256,1,160,2|8,0:0|0:0,0:0:0:0:
56,164,41419,1,2,0:0:0:0:
208,120,41586,1,2,0:0:0:0:
68,68,41753,1,0,0:0:0:0:
152,200,41919,1,8,0:0:0:0:
160,32,42086,1,2,0:0:0:0:
268,44,42253,6,0,P|320:24|424:52,1,160,4|8,0:0|0:0,0:0:0:0:
384,160,42753,1,4,0:0:0:0:
312,248,42919,2,0,L|232:276,1,80,0|8,0:0|0:0,0:0:0:0:
312,248,43253,1,8,0:0:0:0:
124,320,43586,5,4,0:0:0:0:
72,192,43753,1,0,0:0:0:0:
192,248,43919,2,0,L|228:336,1,80,8|0,0:0|0:0,0:0:0:0:
132,96,44253,5,4,0:0:0:0:
132,96,44586,1,8,0:0:0:0:
232,144,44753,2,0,L|404:156,1,160,4|0,0:0|0:0,0:0:0:0:
224,44,45253,5,4,0:0:0:0:
324,236,45419,1,0,0:0:0:0:
440,72,45586,2,0,L|348:64,1,80,4|0,0:0|0:0,0:0:0:0:
148,224,45919,2,0,L|236:232,1,80,8|0,0:0|0:0,0:0:0:0:
272,316,46253,6,0,P|324:332|416:256,1,160,4|8,0:0|0:0,0:0:0:0:
400,184,46753,1,0,0:0:0:0:
316,120,46919,2,0,P|256:92|164:128,1,160,2|8,0:0|0:0,0:0:0:0:
92,184,47419,1,0,0:0:0:0:
240,220,47586,2,0,L|240:60,1,160,2|8,0:0|0:0,0:0:0:0:
144,280,48086,1,2,0:0:0:0:
360,120,48253,2,0,P|372:184|452:260,1,160,2|8,0:0|0:0,0:0:0:0:
434,252,48753,1,0,0:0:0:0:
328,328,48919,5,4,0:0:0:0:
380,200,49086,1,0,0:0:0:0:
260,256,49252,2,0,L|224:344,1,80,8|0,0:0|0:0,0:0:0:0:
320,104,49586,5,4,0:0:0:0:
320,104,49919,1,8,0:0:0:0:
220,152,50086,2,0,L|48:164,1,160,4|0,0:0|0:0,0:0:0:0:
228,52,50586,5,4,0:0:0:0:
128,244,50752,1,0,0:0:0:0:
12,80,50919,2,0,L|104:72,1,80,4|0,0:0|0:0,0:0:0:0:
304,232,51252,2,0,L|216:240,1,80,8|0,0:0|0:0,0:0:0:0:
320,104,51586,6,0,P|348:64|384:40,1,80,2|0,0:0|0:0,0:0:0:0:
304,232,51919,2,0,P|324:264|336:316,1,80,10|0,0:0|0:0,0:0:0:0:
160,220,52253,2,0,P|124:244|76:256,1,80,10|0,0:0|0:0,0:0:0:0:
168,88,52586,2,0,P|136:64|108:28,1,80,8|0,0:0|0:0,0:0:0:0:
360,52,52919,6,0,L|336:152,1,80,10|0,0:0|0:0,0:0:0:0:
140,88,53253,2,0,L|164:188,1,80,10|0,0:0|0:0,0:0:0:0:
320,232,53586,2,0,L|296:332,1,80,10|0,0:0|0:0,0:0:0:0:
192,280,53919,2,0,L|216:380,1,80,10|0,0:0|0:0,0:0:0:0:
256,116,54253,5,8,0:0:0:0:
256,116,54419,1,8,0:0:0:0:
88,272,54753,5,8,0:0:0:0:
160,196,54919,1,8,0:0:0:0:
180,40,55253,5,8,0:0:0:0:
256,116,55419,1,8,0:0:0:0:
428,28,55753,5,8,0:0:0:0:
356,92,55919,1,8,0:0:0:0:
76,192,56253,5,8,0:0:0:0:
96,168,56336,1,0,0:0:0:0:
124,156,56419,1,0,0:0:0:0:
156,152,56503,1,0,0:0:0:0:
184,168,56586,1,0,0:0:0:0:
204,192,56669,1,0,0:0:0:0:
216,220,56753,1,0,0:0:0:0:
232,248,56836,1,0,0:0:0:0:
252,272,56919,6,0,P|280:300|324:308,1,80,4|0,0:0|0:0,0:0:0:0:
400,260,57253,1,8,0:0:0:0:
468,140,57419,2,0,P|396:156|324:96,1,160,2|2,0:0|0:0,0:0:0:0:
256,28,57919,1,8,0:0:0:0:
184,112,58086,6,0,P|121:158|45:143,1,160,2|0,0:0|0:0,0:0:0:0:
156,264,58586,2,0,L|180:344,1,80,8|0,0:0|0:0,0:0:0:0:
276,256,58919,2,0,L|304:340,1,80,2|0,0:0|0:0,0:0:0:0:
388,248,59253,2,0,L|424:328,1,80,8|0,0:0|0:0,0:0:0:0:
436,120,59586,6,0,B|384:96|384:96|280:132,1,160,2|8,0:0|0:0,0:0:0:0:
200,176,60086,2,0,L|168:88,1,80,2|0,0:0|0:0,0:0:0:0:
256,32,60419,1,2,0:0:0:0:
344,96,60586,1,8,0:0:0:0:
296,208,60753,6,0,L|280:384,1,160,4|0,0:0|0:0,0:0:0:0:
160,268,61253,1,8,0:0:0:0:
296,208,61419,2,0,P|328:160|312:52,1,160,4|0,0:0|0:0,0:0:0:0:
212,120,61919,1,8,0:0:0:0:
76,136,62086,5,0,0:0:0:0:
76,136,62169,1,0,0:0:0:0:
76,136,62253,2,0,L|64:264,1,120,4|0,0:0|0:0,0:0:0:0:
64,288,62586,2,0,P|108:260|212:280,1,160,4|2,0:0|0:0,0:0:0:0:
296,336,63086,1,0,0:0:0:0:
384,308,63253,1,8,0:0:0:0:
416,208,63419,5,0,0:0:0:0:
416,208,63503,1,0,0:0:0:0:
416,208,63586,2,0,L|408:80,1,120,4|0,0:0|0:0,0:0:0:0:
400,56,63919,2,0,P|336:104|240:84,1,160,4|2,0:0|0:0,0:0:0:0:
168,48,64419,1,0,0:0:0:0:
64,56,64586,1,8,0:0:0:0:
24,148,64753,1,2,0:0:0:0:
96,280,64919,6,0,L|180:268,1,80,4|0,0:0|0:0,0:0:0:0:
256,204,65253,1,8,0:0:0:0:
400,328,65419,2,0,L|316:316,1,80,2|8,0:0|0:0,0:0:0:0:
160,188,65753,2,0,P|180:144|292:116,1,160,2|2,0:0|0:0,0:0:0:0:
392,212,66253,5,4,0:0:0:0:
276,264,66419,1,2,0:0:0:0:
160,188,66586,1,2,0:0:0:0:
44,228,66753,1,4,0:0:0:0:
264,132,67086,5,2,0:0:0:0:
284,108,67169,1,0,0:0:0:0:
312,92,67253,1,0,0:0:0:0:
344,88,67336,1,0,0:0:0:0:
376,96,67419,1,0,0:0:0:0:
404,112,67503,1,0,0:0:0:0:
424,136,67586,6,0,L|432:216,1,80,4|0,0:0|0:0,0:0:0:0:
392,308,67919,1,8,0:0:0:0:
304,348,68086,2,0,B|264:320|264:320|136:308,1,160,2|2,0:0|0:0,0:0:0:0:
60,312,68586,1,8,0:0:0:0:
80,176,68753,6,0,B|112:208|112:208|232:220,1,160,2|0,0:0|0:0,0:0:0:0:
368,220,69253,2,0,L|396:140,1,80,8|0,0:0|0:0,0:0:0:0:
276,144,69586,2,0,L|312:60,1,80,2|0,0:0|0:0,0:0:0:0:
176,88,69919,2,0,L|208:12,1,80,8|0,0:0|0:0,0:0:0:0:
92,136,70253,6,0,P|164:219|216:216,1,160,2|8,0:0|0:0,0:0:0:0:
364,124,70753,2,0,L|452:116,1,80,2|0,0:0|0:0,0:0:0:0:
224,148,71086,1,8,0:0:0:0:
304,220,71253,1,8,0:0:0:0:
280,60,71419,6,0,L|92:76,1,160,4|0,0:0|0:0,0:0:0:0:
88,180,71919,1,8,0:0:0:0:
56,320,72086,2,0,P|96:280|204:284,1,160,4|0,0:0|0:0,0:0:0:0:
280,320,72586,1,8,0:0:0:0:
400,176,72753,5,0,0:0:0:0:
400,176,72836,1,0,0:0:0:0:
400,176,72919,2,0,L|272:188,1,120,4|0,0:0|0:0,0:0:0:0:
240,168,73253,2,0,P|184:144|84:148,1,160,4|2,0:0|0:0,0:0:0:0:
40,240,73753,1,0,0:0:0:0:
60,132,73919,1,8,0:0:0:0:
76,28,74086,5,0,0:0:0:0:
76,28,74169,1,0,0:0:0:0:
76,28,74253,2,0,L|216:40,1,120,4|0,0:0|0:0,0:0:0:0:
240,40,74586,2,0,P|300:16|400:24,1,160,4|2,0:0|0:0,0:0:0:0:
464,104,75086,1,0,0:0:0:0:
484,208,75253,1,8,0:0:0:0:
444,300,75419,1,2,0:0:0:0:
284,256,75586,6,0,P|276:208|276:168,1,80,4|0,0:0|0:0,0:0:0:0:
304,88,75919,1,8,0:0:0:0:
208,56,76086,1,0,0:0:0:0:
164,48,76169,1,0,0:0:0:0:
128,68,76253,1,8,0:0:0:0:
32,168,76419,5,8,0:0:0:0:
124,288,76586,1,8,0:0:0:0:
184,144,76753,2,0,B|212:176|204:228|204:228|272:180|288:248|372:204,1,240,4|2,0:0|0:0,0:0:0:0:
440,252,77419,5,0,0:0:0:0:
349,213,77586,1,2,0:0:0:0:
432,140,77753,2,0,L|484:132,2,40,0|0|8,0:0|0:0|0:0,0:0:0:0:
316,104,78086,5,0,0:0:0:0:
316,104,78169,1,0,0:0:0:0:
316,104,78253,2,0,P|264:104|172:40,1,160,4|8,0:0|0:0,0:0:0:0:
56,216,78919,1,4,3:0:0:0:
84,340,79086,1,4,3:0:0:0:
164,240,79253,1,8,0:0:0:0:
280,268,79419,6,0,B|300:316|332:348|332:348|352:320|408:292,1,160,2|2,0:0|0:0,0:0:0:0:
432,216,79919,2,0,L|448:136,1,80,8|2,0:0|0:0,0:0:0:0:
368,64,80253,1,0,0:0:0:0:
264,72,80419,2,0,L|180:64,1,80,2|8,0:0|0:0,0:0:0:0:
100,112,80753,5,0,0:0:0:0:
100,112,80836,1,0,0:0:0:0:
100,112,80919,2,0,P|84:184|140:264,1,160,4|4,0:0|0:0,0:0:0:0:
344,240,81586,1,8,0:0:0:0:
456,172,81753,5,0,0:0:0:0:
356,340,81919,1,8,0:0:0:0:
228,196,82086,1,4,0:0:0:0:
256,192,82253,12,0,86586,0:0:0:0:
