osu file format v14

[General]
AudioFilename: lf.mp3
AudioLeadIn: 2000
PreviewTime: 53180
Countdown: 0
SampleSet: Normal
StackLeniency: 0.7
Mode: 0
LetterboxInBreaks: 0
WidescreenStoryboard: 0

[Editor]
Bookmarks: 308,5611,16219,21523,32131,42738,55998,66606,75888,81191
DistanceSpacing: 1.5
BeatDivisor: 2
GridSize: 4
TimelineZoom: 1.4

[Metadata]
Title:LOVEST(TV Size Ver.)
TitleUnicode:LφVEST(TV Size Ver.)
Artist:SCREEN mode
ArtistUnicode:SCREEN mode
Creator:Sieg
Version:Hard
Source:LOVE STAGE!!
Tags:opening tv-size yaoi boys love j.c.staff
BeatmapID:613667
BeatmapSetID:265859

[Difficulty]
HPDrainRate:5
CircleSize:3.8
OverallDifficulty:6.5
ApproachRate:7.5
SliderMultiplier:1.4
SliderTickRate:2

[Events]
//Background and Video events
0,0,"ls.jpg",0,0
Video,-305,"vid.avi"
//Break Periods
//Storyboard Layer 0 (Background)
//Storyboard Layer 1 (Fail)
//Storyboard Layer 2 (Pass)
//Storyboard Layer 3 (Foreground)
//Storyboard Sound Samples

[TimingPoints]
308,331.491712707182,4,2,1,80,1,0
5611,-100,4,1,1,70,0,1
14727,-83.3333333333333,4,1,1,70,0,1
15390,-100,4,1,1,70,0,1
16178,-100,4,1,1,70,0,0
16219,-100,4,1,1,70,0,1
21482,-100,4,1,1,60,0,0
42738,-100,4,1,1,70,0,1
42780,-100,4,1,1,70,0,0
48042,-100,4,1,1,70,0,1
48084,-100,4,1,1,70,0,0
55998,-100,4,1,1,70,0,1
66564,-100,4,1,1,70,0,0
66606,-100,4,1,1,70,0,1
75722,-83.3333333333333,4,1,1,70,0,1
76385,-100,4,1,1,70,0,1
81233,-100,4,1,1,70,0,0

[Colours]
Combo1 : 119,181,254
Combo2 : 253,63,146
Combo3 : 231,236,119
Combo4 : 158,253,56

[HitObjects]
192,84,308,6,0,P|131:49|51:57,1,140,4|0,0:1|0:0,0:0:0:0:
20,183,970,1,2,0:2:0:0:
76,309,1302,2,0,L|161:295,1,70,2|0,0:0|0:0,0:0:0:0:
245,326,1633,2,0,P|262:286|369:244,1,140,2|4,0:0|0:1,0:0:0:0:
368,82,2296,2,0,P|431:84|485:31,1,140,2|0,0:0|0:0,0:0:0:0:
459,207,2959,6,0,B|386:206|362:274|362:274|282:212|202:250,1,280,4|0,0:1|0:0,0:0:0:0:
31,331,3954,1,4,0:0:0:0:
62,131,4285,6,0,L|40:43,1,70,8|0,0:1|0:0,0:0:0:0:
181,130,4617,2,0,L|203:218,1,70,0|8,0:0|0:1,0:0:0:0:
359,333,5114,2,0,L|309:355,2,35,8|0|0,1:1|1:0|1:0,0:0:0:0:
450,243,5446,1,8,1:0:0:0:
455,230,5528,1,0,1:0:0:0:
459,216,5611,6,0,P|435:134|369:110,2,140,4|0|0,0:0|0:0|0:0,0:0:0:0:
360,333,6440,2,0,L|278:348,1,70,2|0,2:2|0:0,0:0:0:0:
172,290,6772,2,0,B|132:313|93:271|93:271|47:281|27:245,1,140,4|0,2:0|2:0,0:0:0:0:
1,142,7269,2,0,P|8:104|37:72,1,70,2|0,0:2|2:0,0:0:0:0:
156,158,7600,2,0,L|79:141,1,70,2|0,0:0|2:0,0:0:0:0:
209,82,7932,2,0,B|281:73,1,70,0|0,0:0|2:0,0:0:0:0:
379,175,8263,6,0,B|361:203|379:240|379:245|400:278|379:317,1,140,4|0,0:0|0:0,0:0:0:0:
276,279,8761,1,2,2:2:0:0:
238,176,8926,2,0,L|283:31,1,140,0|8,0:0|0:0,0:0:0:0:
407,11,9424,2,0,L|388:78,1,70,0|4,0:0|0:0,0:0:0:0:
379,175,9755,1,2,0:2:0:0:
420,271,9921,1,8,0:0:0:0:
504,205,10087,1,0,0:0:0:0:
304,349,10418,5,0,0:0:0:0:
324,245,10584,1,8,0:0:0:0:
311,140,10749,1,0,0:0:0:0:
308,126,10832,1,0,0:0:0:0:
305,112,10915,2,0,P|284:68|208:24,2,140,4|8|0,0:0|0:0|0:0,0:0:0:0:
190,145,11744,2,0,L|120:164,1,70,2|0,2:2|0:0,0:0:0:0:
5,220,12075,1,0,0:0:0:0:
11,232,12158,1,0,0:0:0:0:
18,243,12241,2,0,P|93:304|143:301,2,140,4|8|0,0:0|0:0|0:0,0:0:0:0:
231,124,13236,6,0,P|225:160|252:208,1,70,4|2,0:0|2:2,0:0:0:0:
337,287,13567,2,0,P|337:252|308:207,1,70,0|2,0:0|2:1,0:0:0:0:
412,328,13899,2,0,P|480:277|472:201,1,140,4|0,2:1|0:0,0:0:0:0:
401,141,14396,2,0,B|414:183,2,35,8|0|8,0:0|0:0|0:0,0:0:0:0:
316,43,14727,6,0,B|260:46|227:91|227:91|189:80|189:80|164:147|91:152,1,251.999992309571,4|4,0:0|0:0,0:0:0:0:
30,94,15390,2,0,P|62:63|103:52,1,70,0|0,0:0|0:0,0:0:0:0:
32,177,15722,2,0,B|14:205|32:242|32:247|53:280|32:319,1,140,8|0,2:1|0:0,0:0:0:0:
171,321,16219,6,0,P|232:351|357:206,1,280,4|0,0:2|0:0,0:0:0:0:
248,236,17048,1,2,0:2:0:0:
216,112,17214,1,8,0:0:0:0:
228,106,17296,1,0,0:0:0:0:
240,100,17379,2,0,L|369:38,1,140,4|0,0:0|0:0,0:0:0:0:
364,163,17877,1,8,0:0:0:0:
449,238,18042,2,0,L|525:202,1,70,2|0,2:2|0:0,0:0:0:0:
483,92,18374,1,0,0:0:0:0:
375,35,18540,6,0,P|333:27|289:40,1,70,8|0,0:0|0:0,0:0:0:0:
216,111,18871,1,4,0:2:0:0:
345,308,19203,2,0,B|305:329|262:313|262:313|238:333|198:333,1,140,12|0,0:0|0:0,0:0:0:0:
289,146,19866,1,4,0:0:0:0:
137,316,20197,5,8,0:0:0:0:
47,263,20363,1,8,0:0:0:0:
17,161,20528,1,8,0:0:0:0:
82,78,20694,1,8,0:0:0:0:
292,43,21026,2,0,L|328:14,2,35,8|0|4,0:0|0:0|0:0,0:0:0:0:
256,160,21357,1,8,0:0:0:0:
263,172,21440,1,0,0:0:0:0:
268,184,21523,6,0,B|293:216|268:249|268:256|246:288|268:321,1,140,4|8,0:0|0:0,0:0:0:0:
477,258,22186,2,0,P|451:283|401:286,1,70,0|0,0:0|2:0,0:0:0:0:
368,165,22517,2,0,P|399:183|417:226,1,70,8|0,0:0|2:0,0:0:0:0:
302,269,22849,2,0,P|226:278|163:222,1,140,0|8,0:0|0:0,0:0:0:0:
86,149,23346,2,0,B|-12:162|-11:162,1,70,0|0,2:0|0:0,0:0:0:0:
114,46,23678,2,0,P|160:76|191:153,1,140,0|0,2:0|2:0,0:0:0:0:
175,289,24175,6,0,P|139:266|94:271,1,70,4|0,0:0|2:0,0:0:0:0:
250,345,24506,2,0,P|292:344|327:315,1,70,8|0,0:0|2:0,0:0:0:0:
385,246,24838,2,0,P|431:294|515:297,1,140,0|8,0:0|0:0,0:0:0:0:
485,184,25335,1,0,2:0:0:0:
449,84,25501,1,0,0:0:0:0:
345,105,25667,2,0,B|299:114|254:67|254:67|207:110|141:82,1,210,2|0,2:1|0:0,0:0:0:0:
112,192,26330,2,0,P|130:229|126:263,1,70,0|8,2:0|0:0,0:0:0:0:
207,341,26661,2,0,P|307:332|353:243,1,210,4|8,2:1|0:0,0:0:0:0:
176,198,27490,5,0,0:0:0:0:
145,97,27656,1,0,2:0:0:0:
42,78,27821,2,0,L|28:-2,2,70,8|0|0,0:0|2:0|0:0,0:0:0:0:
5,177,28319,1,0,2:0:0:0:
26,280,28485,1,8,0:0:0:0:
128,301,28650,2,0,L|142:381,1,70,0|8,2:0|0:0,0:0:0:0:
245,370,28982,2,0,P|309:343|350:283,1,140,4|0,2:1|2:0,0:0:0:0:
229,242,29479,6,0,B|204:210|229:177|229:170|251:138|229:105,1,140,4|8,0:0|0:0,0:0:0:0:
449,23,30142,2,0,B|474:55|449:88|449:95|427:127|449:160,1,140,4|8,0:2|0:0,0:0:0:0:
477,264,30639,1,8,0:0:0:0:
474,277,30722,1,0,0:0:0:0:
471,290,30805,2,0,L|449:370,1,70,4|0,0:0|2:0,0:0:0:0:
336,314,31136,2,0,P|260:324|201:266,1,140,2|0,2:2|0:0,0:0:0:0:
162,159,31633,2,0,P|238:149|297:207,1,140,8|0,2:1|0:0,0:0:0:0:
413,238,32131,6,0,L|399:92,1,140,4|8,0:0|0:0,0:0:0:0:
148,73,32794,2,0,P|175:40|209:21,1,70,0|0,0:0|2:0,0:0:0:0:
304,104,33125,2,0,P|260:111|214:90,1,70,8|0,0:0|2:0,0:0:0:0:
114,155,33457,2,0,P|73:234|96:295,1,140,0|8,0:0|0:0,0:0:0:0:
205,290,33954,2,0,P|187:255|152:231,1,70,0|0,2:0|0:0,0:0:0:0:
285,248,34286,2,0,P|351:284|415:260,1,140,0|0,2:0|2:0,0:0:0:0:
472,161,34783,6,0,L|488:78,1,70,4|0,0:0|2:0,0:0:0:0:
367,96,35114,2,0,L|356:9,1,70,8|0,0:0|2:0,0:0:0:0:
256,93,35446,2,0,B|231:125|256:158|256:165|278:197|256:230,1,140,0|8,0:0|0:0,0:0:0:0:
246,348,35943,2,0,P|282:327|327:337,1,70,0|0,2:0|0:0,0:0:0:0:
174,323,36275,2,0,P|71:336|5:264,1,210,2|0,2:1|0:0,0:0:0:0:
108,239,36937,1,0,2:0:0:0:
56,147,37103,1,8,0:0:0:0:
26,46,37269,2,0,P|126:74|158:166,1,210,4|12,2:1|0:0,0:0:0:0:
355,56,38098,5,0,0:0:0:0:
250,63,38264,1,0,2:0:0:0:
154,104,38429,2,0,P|118:173|143:227,1,140,8|0,0:0|0:0,0:0:0:0:
280,261,38926,2,0,L|209:275,1,70,0|8,2:0|0:0,0:0:0:0:
336,193,39258,2,0,L|407:179,1,70,0|0,2:0|0:0,0:0:0:0:
478,247,39589,2,0,P|418:274|402:353,1,140,4|0,2:1|2:0,0:0:0:0:
315,250,40087,6,0,B|290:217|315:185|315:178|336:146|315:113,1,140,4|8,0:0|0:0,0:0:0:0:
156,224,40750,2,0,B|130:257|156:289|156:296|177:329|156:361,1,140,4|8,0:2|0:0,0:0:0:0:
47,328,41247,1,8,0:0:0:0:
42,314,41330,1,0,0:0:0:0:
36,300,41413,2,0,L|12:226,1,70,4|0,0:0|0:0,0:0:0:0:
27,125,41744,2,0,P|98:122|156:61,1,140,8|0,2:1|2:0,0:0:0:0:
269,38,42241,2,0,L|312:46,2,35,8|0|8,2:1|0:0|2:1,0:0:0:0:
256,158,42573,1,8,0:0:0:0:
254,171,42656,1,0,1:0:0:0:
252,184,42738,6,0,L|240:263,1,70,4|0,0:0|0:0,0:0:0:0:
395,360,43236,1,12,0:0:0:0:
512,339,43401,1,12,0:0:0:0:
400,197,43733,1,12,0:0:0:0:
511,154,43898,1,12,0:0:0:0:
286,84,44230,1,12,0:0:0:0:
389,23,44395,1,12,0:0:0:0:
175,58,44727,2,0,P|139:29|100:26,1,70,4|0,0:2|2:0,0:0:0:0:
95,136,45059,2,0,P|50:129|15:146,1,70,8|0,0:0|2:0,0:0:0:0:
65,243,45390,6,0,P|17:269|-7:361,1,140,4|8,0:0|0:0,0:0:0:0:
97,345,45888,1,0,2:0:0:0:
200,327,46053,2,0,P|257:289|274:223,1,140,4|8,0:0|0:0,0:0:0:0:
254,119,46551,1,0,2:0:0:0:
324,42,46716,2,0,P|392:45|440:94,1,140,4|8,0:0|0:0,0:0:0:0:
457,198,47214,1,0,2:0:0:0:
360,239,47379,2,0,L|382:337,1,70,4|0,0:0|2:0,0:0:0:0:
269,315,47711,1,8,0:0:0:0:
70,171,48042,5,12,0:0:0:0:
8,61,48207,1,12,0:0:0:0:
163,184,48540,1,12,0:0:0:0:
142,59,48705,1,12,0:0:0:0:
254,221,49037,1,12,0:0:0:0:
277,96,49202,1,12,0:0:0:0:
338,284,49534,1,12,0:0:0:0:
402,174,49699,1,12,0:0:0:0:
225,327,50031,2,0,B|143:308,1,70,4|0,0:2|2:0,0:0:0:0:
47,239,50363,2,0,L|131:218,1,70,4|0,0:2|2:0,0:0:0:0:
222,194,50694,1,4,0:2:0:0:
256,192,50777,12,4,53015,0:0:0:0:
204,90,53346,5,8,0:0:0:0:
82,55,53512,1,8,0:0:0:0:
303,139,53843,1,8,0:0:0:0:
425,108,54009,1,8,0:0:0:0:
209,245,54341,1,8,0:0:0:0:
87,276,54507,1,8,0:0:0:0:
308,294,54838,1,8,0:0:0:0:
430,329,55004,1,8,0:0:0:0:
362,141,55335,2,0,P|329:82|243:63,1,140,8|8,0:0|0:0,0:0:0:0:
261,165,55832,1,8,0:0:0:0:
216,282,55998,6,0,P|172:330|73:332,2,140,4|0|0,0:2|0:0|0:0,0:0:0:0:
111,220,56827,2,0,L|29:234,1,70,2|0,2:2|0:0,0:0:0:0:
78,109,57159,2,0,L|221:87,1,140,4|0,2:0|2:0,0:0:0:0:
342,56,57656,2,0,P|313:82|302:114,1,70,2|0,0:2|2:0,0:0:0:0:
410,147,57987,2,0,P|449:147|488:130,1,70,2|0,0:0|2:0,0:0:0:0:
363,219,58319,2,0,B|291:210,1,70,0|0,0:0|2:0,0:0:0:0:
160,169,58650,6,0,B|142:141|160:104|160:99|181:66|160:27,1,140,4|0,0:0|0:0,0:0:0:0:
61,61,59148,1,2,2:2:0:0:
40,163,59313,1,0,0:0:0:0:
16,265,59479,2,0,L|-2:338,1,70,4|8,2:1|0:0,0:0:0:0:
120,338,59810,2,0,L|137:265,1,70,4|0,0:2|0:0,0:0:0:0:
223,187,60142,1,2,0:2:0:0:
251,287,60308,1,8,0:1:0:0:
347,329,60474,1,4,0:0:0:0:
483,205,60805,5,0,0:0:0:0:
430,113,60971,1,8,0:0:0:0:
346,50,61136,1,0,0:0:0:0:
333,43,61219,1,0,0:0:0:0:
320,37,61302,2,0,P|222:27|182:57,2,140,4|8|0,0:2|0:0|0:0,0:0:0:0:
264,137,62131,2,0,L|250:209,1,70,2|0,2:2|0:0,0:0:0:0:
154,281,62462,1,0,0:0:0:0:
162,292,62545,1,0,0:0:0:0:
172,301,62628,2,0,P|266:328|310:306,2,140,4|8|0,0:2|0:0|0:0,0:0:0:0:
14,117,63623,5,4,0:0:0:0:
101,59,63788,1,0,2:0:0:0:
200,91,63954,2,0,P|284:107|341:73,1,140,2|0,0:0|0:0,0:0:0:0:
473,100,64451,2,0,P|438:80|430:38,1,70,0|8,0:0|0:0,0:0:0:0:
452,195,64783,2,0,P|392:247|388:328,1,140,0|2,0:0|0:0,0:0:0:0:
270,313,65280,2,0,L|206:352,2,70,4|0|8,0:2|0:0|2:1,0:0:0:0:
210,215,65777,1,12,0:0:0:0:
324,31,66109,2,0,B|342:59|324:96|324:101|303:134|324:173,1,140,8|0,2:1|0:0,0:0:0:0:
362,283,66606,6,0,P|447:273|482:214,2,140,4|0|0,0:2|0:0|0:0,0:0:0:0:
240,311,67435,2,0,P|215:336|177:343,1,70,2|0,2:2|0:0,0:0:0:0:
167,236,67767,2,0,P|93:235|30:191,1,140,4|0,2:0|2:0,0:0:0:0:
72,95,68264,2,0,P|30:77|-8:77,1,70,2|0,0:2|2:0,0:0:0:0:
136,30,68595,2,0,P|175:30|213:13,1,70,2|0,0:0|2:0,0:0:0:0:
297,112,68927,2,0,P|260:101|225:103,1,70,0|0,0:0|2:0,0:0:0:0:
121,168,69258,6,0,P|81:215|93:307,2,140,4|0|0,0:0|0:0|0:0,0:0:0:0:
188,271,70087,2,0,L|207:350,1,70,2|8,0:0|0:0,0:0:0:0:
295,258,70418,2,0,L|276:179,1,70,2|4,0:2|0:0,0:0:0:0:
185,131,70749,1,0,0:0:0:0:
157,28,70916,1,8,0:0:0:0:
257,55,71081,1,4,0:2:0:0:
396,254,71413,5,0,0:0:0:0:
367,152,71579,1,0,0:0:0:0:
467,179,71744,1,8,0:0:0:0:
472,165,71827,1,0,0:0:0:0:
477,152,71910,2,0,B|495:124|477:87|477:82|455:49|476:10,2,140,4|8|0,0:2|0:0|0:0,0:0:0:0:
439,303,72739,2,0,L|351:284,1,70,2|0,2:1|0:0,0:0:0:0:
278,210,73070,1,8,0:0:0:0:
273,196,73153,1,0,0:0:0:0:
270,182,73236,2,0,B|252:154|270:117|270:112|292:78|271:40,2,140,4|8|0,0:2|0:0|0:0,0:0:0:0:
15,233,74230,5,4,0:0:0:0:
70,324,74396,1,2,2:2:0:0:
182,336,74562,2,0,L|253:328,1,70,0|2,0:0|2:2,0:0:0:0:
280,206,74893,2,0,P|317:239|426:214,1,140,4|0,2:1|0:0,0:0:0:0:
363,122,75390,2,0,L|427:114,2,35,8|0|8,0:0|0:0|0:0,0:0:0:0:
245,48,75722,6,0,B|202:83|139:72|139:72|128:106|128:106|63:75|6:119,1,251.999992309571,4|4,0:0|0:0,0:0:0:0:
37,233,76385,2,0,P|58:193|99:177,1,70,0|0,0:0|0:0,0:0:0:0:
157,285,76716,2,0,P|222:262|239:186,1,140,8|0,2:1|0:0,0:0:0:0:
340,127,77214,6,0,P|336:196|515:247,1,280,4|0,0:2|0:0,0:0:0:0:
440,168,78042,1,2,0:2:0:0:
404,66,78208,1,8,0:0:0:0:
394,56,78290,1,0,0:0:0:0:
384,46,78373,2,0,P|311:34|258:77,1,140,4|0,0:0|0:0,0:0:0:0:
215,156,78871,1,8,0:0:0:0:
271,249,79037,2,0,L|285:334,1,70,2|0,2:2|0:0,0:0:0:0:
177,354,79368,1,0,0:0:0:0:
75,301,79534,2,0,L|23:326,2,35,8|0|0,0:0|0:0|0:0,0:0:0:0:
138,195,79866,6,0,P|112:168|59:154,1,70,4|0,0:2|2:0,0:0:0:0:
215,156,80197,2,0,P|283:205|351:191,1,140,12|0,0:0|0:0,0:0:0:0:
508,137,80860,1,4,0:0:0:0:
431,64,81026,1,0,0:0:0:0:
327,78,81191,1,4,0:2:0:0:
256,192,81274,12,4,82517,2:1:0:0:
