osu file format v14

[General]
AudioFilename: lf.mp3
AudioLeadIn: 2000
PreviewTime: 53180
Countdown: 0
SampleSet: Normal
StackLeniency: 0.7
Mode: 0
LetterboxInBreaks: 0
WidescreenStoryboard: 0

[Editor]
Bookmarks: 308,5611,16219,21523,32131,42738,55998,66606,75888,81191
DistanceSpacing: 1.3
BeatDivisor: 4
GridSize: 4
TimelineZoom: 1.2

[Metadata]
Title:LOVEST(TV Size Ver.)
TitleUnicode:LφVEST(TV Size Ver.)
Artist:SCREEN mode
ArtistUnicode:SCREEN mode
Creator:Sieg
Version:Advanced
Source:LOVE STAGE!!
Tags:opening tv-size yaoi boys love j.c.staff
BeatmapID:615539
BeatmapSetID:265859

[Difficulty]
HPDrainRate:4
CircleSize:3.3
OverallDifficulty:5
ApproachRate:6
SliderMultiplier:1.2
SliderTickRate:2

[Events]
//Background and Video events
0,0,"ls.jpg",0,0
Video,-305,"vid.avi"
//Break Periods
//Storyboard Layer 0 (Background)
//Storyboard Layer 1 (Fail)
//Storyboard Layer 2 (Pass)
//Storyboard Layer 3 (Foreground)
//Storyboard Sound Samples

[TimingPoints]
308,331.491712707182,4,2,1,80,1,0
5611,-100,4,1,1,70,0,1
15390,-100,4,1,1,70,0,1
16178,-100,4,1,1,70,0,0
16219,-100,4,1,1,70,0,1
21482,-100,4,1,1,60,0,0
42738,-100,4,1,1,70,0,1
42780,-100,4,1,1,70,0,0
48042,-100,4,1,1,70,0,1
48084,-100,4,1,1,70,0,0
55998,-100,4,1,1,70,0,1
66564,-100,4,1,1,70,0,0
66606,-100,4,1,1,70,0,1
76385,-100,4,1,1,70,0,1
81233,-100,4,1,1,70,0,0

[Colours]
Combo1 : 119,181,254
Combo2 : 253,63,146
Combo3 : 231,236,119
Combo4 : 158,253,56

[HitObjects]
214,194,308,6,0,P|277:200|347:161,1,120,4|0,0:1|0:0,0:0:0:0:
251,43,970,1,2,0:2:0:0:
94,39,1302,1,2,0:0:0:0:
123,191,1633,2,0,P|125:234|55:296,1,120,2|4,0:0|0:1,0:0:0:0:
224,344,2296,2,0,P|290:306|350:322,1,120,2|0,0:0|0:0,0:0:0:0:
440,200,2959,6,0,B|395:209|369:247|369:247|294:210|219:251,1,240,4|0,0:1|0:0,0:0:0:0:
86,326,3954,1,4,0:0:0:0:
23,183,4285,6,0,L|36:113,1,60,8|0,0:1|0:0,0:0:0:0:
107,150,4617,2,0,L|119:78,1,60,0|8,0:0|0:1,0:0:0:0:
196,224,5114,2,0,L|190:292,2,60,8|0|8,1:1|1:0|1:0,0:0:0:0:
204,146,5611,6,0,P|226:73|285:51,1,120,4|0,0:0|0:0,0:0:0:0:
317,200,6274,2,0,L|305:322,1,120,0|0,0:0|0:0,0:0:0:0:
376,353,6772,2,0,P|438:363|488:324,1,120,4|0,2:0|2:0,0:0:0:0:
495,256,7269,2,0,L|508:120,2,120,2|2|0,0:2|0:0|0:0,0:0:0:0:
367,165,8263,6,0,B|351:140|367:106|367:102|386:72|367:37,1,120,4|0,0:0|0:0,0:0:0:0:
296,25,8761,1,2,2:2:0:0:
236,74,8926,2,0,B|217:108|236:138|236:142|252:176|236:201,1,120,0|8,0:0|0:0,0:0:0:0:
231,268,9424,2,0,P|196:315|129:318,1,120,0|2,0:0|0:2,0:0:0:0:
61,305,9921,1,8,0:0:0:0:
19,238,10087,1,0,0:0:0:0:
34,86,10418,6,0,P|72:40|136:39,1,120,0|0,0:0|0:0,0:0:0:0:
208,42,10915,2,0,L|348:61,2,120,4|8|0,0:0|0:0|0:0,0:0:0:0:
214,120,11744,2,0,L|351:139,1,120,2|0,2:2|0:0,0:0:0:0:
403,170,12241,2,0,P|402:227|353:282,2,120,4|8|0,0:0|0:0|0:0,0:0:0:0:
253,121,13236,6,0,P|194:95|125:120,1,120,4|0,0:0|0:0,0:0:0:0:
84,161,13733,1,2,2:1:0:0:
26,213,13899,2,0,L|55:347,1,120,4|0,2:1|0:0,0:0:0:0:
128,321,14396,2,0,B|139:361,2,30,8|0|8,0:0|0:0|0:0,0:0:0:0:
170,255,14727,6,0,P|252:226|257:123,1,180,4|4,0:0|0:0,0:0:0:0:
191,121,15390,2,0,L|116:141,1,60,0|0,0:0|0:0,0:0:0:0:
88,71,15722,2,0,B|215:38,1,120,8|0,2:1|0:0,0:0:0:0:
280,25,16219,6,0,P|394:29|466:136,1,240,4|0,0:2|0:0,0:0:0:0:
317,178,17214,1,8,0:0:0:0:
356,244,17379,2,0,B|378:273|356:302|356:308|336:337|356:367,1,120,4|0,0:0|0:0,0:0:0:0:
196,345,18042,2,0,L|114:325,1,60,2|0,2:2|0:0,0:0:0:0:
217,196,18540,2,0,L|204:116,1,60,8|0,0:0|0:0,0:0:0:0:
193,59,18871,5,4,0:2:0:0:
38,34,19203,2,0,B|16:63|38:92|38:98|58:127|38:157,1,120,12|0,0:0|0:0,0:0:0:0:
11,302,19866,1,4,0:0:0:0:
155,360,20197,2,0,P|191:354|231:325,1,60,8|8,0:0|0:0,0:0:0:0:
281,307,20528,2,0,P|312:301|357:322,1,60,8|8,0:0|0:0,0:0:0:0:
483,247,21026,2,0,L|489:312,2,60,8|4|8,0:0|0:0|0:0,0:0:0:0:
465,170,21523,6,0,B|480:48,1,120,4|8,0:0|0:0,0:0:0:0:
331,99,22186,1,0,0:0:0:0:
286,248,22517,2,0,P|253:305|271:370,2,120,8|0|8,0:0|0:0|0:0,0:0:0:0:
332,315,23346,2,0,L|413:285,1,60,0|0,2:0|0:0,0:0:0:0:
439,234,23678,2,0,P|469:187|447:109,1,120,0|0,2:0|2:0,0:0:0:0:
414,62,24175,6,0,P|384:109|406:187,1,120,4|8,0:0|0:0,0:0:0:0:
238,192,24838,2,0,P|187:226|122:213,2,120,0|8|0,0:0|0:0|0:0,0:0:0:0:
171,150,25667,2,0,B|124:145|104:100|104:100|44:108|4:59,1,180,2|0,2:1|0:0,0:0:0:0:
79,25,26330,2,0,L|147:25,1,60,0|8,2:0|0:0,0:0:0:0:
216,31,26661,2,0,P|286:51|325:148,1,180,4|8,2:1|0:0,0:0:0:0:
321,299,27490,5,0,0:0:0:0:
171,339,27821,2,0,L|99:320,1,60,8|0,0:0|2:0,0:0:0:0:
104,245,28153,2,0,P|39:292|36:338,2,120,0|8|8,0:0|0:0|0:0,0:0:0:0:
182,245,28982,2,0,P|244:239|287:175,1,120,4|0,2:1|2:0,0:0:0:0:
208,169,29479,6,0,B|186:140|208:111|208:105|228:76|208:46,1,120,4|8,0:0|0:0,0:0:0:0:
365,22,30142,2,0,B|387:50|365:80|365:86|345:115|365:145,1,120,4|8,0:2|0:0,0:0:0:0:
470,247,30805,2,0,L|450:319,1,60,4|0,0:0|2:0,0:0:0:0:
382,337,31136,2,0,P|314:346|261:294,1,120,2|0,2:2|0:0,0:0:0:0:
205,281,31633,2,0,P|137:290|84:238,1,120,8|0,2:1|0:0,0:0:0:0:
55,195,32131,6,0,P|107:183|162:214,1,120,4|8,0:0|0:0,0:0:0:0:
82,349,32794,1,0,0:0:0:0:
55,195,33125,2,0,L|50:132,1,60,8|0,0:0|2:0,0:0:0:0:
91,68,33457,2,0,P|135:93|207:75,1,120,0|8,0:0|0:0,0:0:0:0:
270,114,33954,2,0,L|275:177,1,60,0|0,2:0|0:0,0:0:0:0:
328,230,34285,2,0,P|372:255|444:237,1,120,0|0,2:0|2:0,0:0:0:0:
389,179,34783,5,4,0:0:0:0:
420,26,35114,2,0,L|345:36,1,60,8|0,0:0|2:0,0:0:0:0:
282,44,35446,2,0,P|220:28|154:38,2,120,0|8|0,0:0|0:0|0:0,0:0:0:0:
258,118,36275,2,0,B|230:144|256:196|257:204|288:256|255:292,1,180,2|0,2:1|0:0,0:0:0:0:
112,346,37103,1,8,0:0:0:0:
31,211,37435,6,0,P|80:188|160:199,1,120,0|12,0:0|0:0,0:0:0:0:
250,306,38098,2,0,L|329:338,1,60,0|0,0:0|2:0,0:0:0:0:
364,276,38429,2,0,L|480:327,2,120,8|0|8,0:0|0:0|0:0,0:0:0:0:
363,197,39258,2,0,L|299:169,1,60,0|0,2:0|0:0,0:0:0:0:
300,95,39589,2,0,P|246:119|233:188,1,120,4|0,2:1|2:0,0:0:0:0:
251,249,40087,6,0,P|235:307|180:329,1,120,4|8,0:0|0:0,0:0:0:0:
37,275,40749,2,0,P|53:217|108:195,1,120,4|8,0:2|0:0,0:0:0:0:
182,198,41247,1,8,0:0:0:0:
173,120,41413,2,0,L|167:56,1,60,4|0,0:0|0:0,0:0:0:0:
241,35,41744,2,0,P|305:32|362:72,1,120,8|0,2:1|2:0,0:0:0:0:
407,113,42241,1,8,2:1:0:0:
426,188,42407,1,8,2:1:0:0:
270,192,42738,6,0,L|259:263,1,60,4|0,0:0|0:0,0:0:0:0:
113,304,43236,1,12,0:0:0:0:
38,281,43401,1,12,0:0:0:0:
172,201,43733,1,12,0:0:0:0:
119,143,43898,1,12,0:0:0:0:
271,109,44230,1,12,0:0:0:0:
254,32,44395,1,12,0:0:0:0:
406,66,44727,1,4,0:2:0:0:
481,202,45059,2,0,L|490:274,1,60,8|0,0:0|2:0,0:0:0:0:
467,336,45390,6,0,P|413:336|354:272,1,120,4|8,0:0|0:0,0:0:0:0:
333,223,45888,1,0,2:0:0:0:
257,241,46053,2,0,P|223:292|143:290,1,120,4|8,0:0|0:0,0:0:0:0:
91,283,46551,1,0,2:0:0:0:
32,231,46716,2,0,P|34:170|84:128,1,120,4|8,0:0|0:0,0:0:0:0:
149,109,47214,1,0,2:0:0:0:
223,130,47379,2,0,P|271:155|337:135,1,120,4|8,0:0|0:0,0:0:0:0:
435,21,48042,5,12,0:0:0:0:
510,38,48207,1,12,0:0:0:0:
423,168,48540,1,12,0:0:0:0:
480,220,48705,1,12,0:0:0:0:
332,272,49037,1,12,0:0:0:0:
355,345,49202,1,12,0:0:0:0:
208,290,49534,1,12,0:0:0:0:
192,365,49699,1,12,0:0:0:0:
57,285,50031,2,0,P|37:194|65:158,1,120,4|4,0:2|0:2,0:0:0:0:
256,192,50694,12,4,52683,0:0:0:0:
132,185,53346,5,8,0:0:0:0:
57,206,53512,1,8,0:0:0:0:
201,265,53843,1,8,0:0:0:0:
173,336,54009,1,8,0:0:0:0:
311,265,54341,1,8,0:0:0:0:
339,336,54507,1,8,0:0:0:0:
380,185,54838,1,8,0:0:0:0:
455,206,55004,1,8,0:0:0:0:
386,66,55335,2,0,P|343:33|272:43,1,120,8|8,0:0|0:0,0:0:0:0:
217,84,55832,1,8,0:0:0:0:
142,108,55998,6,0,P|69:86|47:27,1,120,4|0,0:2|0:0,0:0:0:0:
34,206,56661,2,0,L|22:328,1,120,0|0,0:0|0:0,0:0:0:0:
94,357,57159,2,0,P|156:367|206:328,1,120,4|0,2:0|2:0,0:0:0:0:
258,283,57656,2,0,L|271:147,2,120,2|2|0,0:2|0:0|0:0,0:0:0:0:
410,317,58650,6,0,P|465:290|486:222,1,120,4|0,0:0|0:0,0:0:0:0:
408,237,59148,1,2,2:2:0:0:
371,168,59313,2,0,B|352:134|371:104|371:100|387:66|371:41,1,120,0|8,0:0|0:0,0:0:0:0:
298,65,59811,2,0,P|263:112|196:115,1,120,4|2,0:2|0:2,0:0:0:0:
129,98,60308,1,8,0:1:0:0:
67,49,60474,1,4,0:0:0:0:
19,197,60805,6,0,P|27:269|68:299,1,120,0|0,0:0|0:0,0:0:0:0:
125,341,61302,2,0,L|265:360,2,120,4|8|0,0:2|0:0|0:0,0:0:0:0:
159,270,62131,2,0,L|296:289,1,120,2|0,2:2|0:0,0:0:0:0:
355,291,62628,2,0,P|412:290|457:235,2,120,4|8|0,0:2|0:0|0:0,0:0:0:0:
321,138,63622,5,4,0:0:0:0:
236,269,63954,2,0,P|167:283|120:264,1,120,2|0,0:0|0:0,0:0:0:0:
45,251,64451,2,0,P|55:182|29:72,1,180,0|0,0:0|0:0,0:0:0:0:
94,30,65114,2,0,P|165:15|245:77,1,180,2|8,0:0|2:1,0:0:0:0:
260,153,65777,1,12,0:0:0:0:
330,292,66109,6,0,P|380:268|396:191,1,120,8|0,2:1|0:0,0:0:0:0:
478,213,66606,2,0,L|491:354,1,120,4|0,0:2|0:0,0:0:0:0:
337,371,67269,2,0,P|274:344|250:289,1,120,0|0,0:0|0:0,0:0:0:0:
221,227,67767,2,0,P|272:185|274:127,1,120,4|0,2:0|2:0,0:0:0:0:
199,149,68264,2,0,L|63:136,2,120,2|2|0,0:2|0:0|0:0,0:0:0:0:
336,223,69258,6,0,B|352:248|336:282|336:286|317:316|336:351,1,120,4|0,0:0|0:0,0:0:0:0:
256,362,69756,1,0,0:0:0:0:
180,339,69921,2,0,B|195:316|176:286|176:282|160:248|176:223,1,120,0|8,0:0|0:0,0:0:0:0:
107,184,70419,2,0,P|72:231|5:234,1,120,2|0,0:2|0:0,0:0:0:0:
34,162,70915,1,8,0:0:0:0:
39,84,71081,1,4,0:2:0:0:
181,33,71412,6,0,P|238:25|295:70,1,120,0|8,0:0|0:0,0:0:0:0:
222,102,71910,2,0,L|213:225,2,120,4|8|0,0:2|0:0|0:0,0:0:0:0:
145,119,72738,2,0,L|136:242,1,120,2|8,2:1|0:0,0:0:0:0:
159,313,73236,2,0,P|204:350|285:335,2,120,4|8|0,0:2|0:0|0:0,0:0:0:0:
253,188,74230,6,0,P|311:191|360:257,1,120,4|0,0:0|0:0,0:0:0:0:
377,308,74728,1,2,2:2:0:0:
446,343,74894,2,0,P|486:298|486:221,1,120,4|0,2:1|0:0,0:0:0:0:
470,165,75391,2,0,B|516:141,2,30,8|0|8,0:0|0:0|0:0,0:0:0:0:
391,169,75722,2,0,P|298:185|243:117,1,180,4|4,0:0|0:0,0:0:0:0:
189,73,76385,2,0,L|114:62,1,60,0|0,0:0|0:0,0:0:0:0:
55,91,76717,2,0,P|25:142|44:219,1,120,8|0,2:1|0:0,0:0:0:0:
69,269,77214,6,0,P|171:318|279:253,1,240,4|0,0:2|0:0,0:0:0:0:
335,116,78209,1,8,0:0:0:0:
407,87,78374,2,0,B|429:116|407:145|407:151|387:180|407:210,1,120,4|0,0:0|0:0,0:0:0:0:
322,336,79037,2,0,L|235:351,1,60,2|0,2:2|0:0,0:0:0:0:
242,191,79535,2,0,L|174:177,1,60,8|0,0:0|0:0,0:0:0:0:
106,165,79866,5,4,0:2:0:0:
197,39,80197,2,0,P|257:29|317:73,1,120,12|0,0:0|0:0,0:0:0:0:
402,181,80860,2,0,L|412:254,1,60,4|0,0:0|0:0,0:0:0:0:
256,192,81191,12,4,82517,2:1:0:0:
