osu file format v14

[General]
AudioFilename: lf.mp3
AudioLeadIn: 2000
PreviewTime: 53180
Countdown: 0
SampleSet: Normal
StackLeniency: 0.7
Mode: 0
LetterboxInBreaks: 0
WidescreenStoryboard: 0

[Editor]
Bookmarks: 308,5611,16219,21523,32131,42738,55998,66606,75888,81191
DistanceSpacing: 0.8
BeatDivisor: 8
GridSize: 4
TimelineZoom: 1.5

[Metadata]
Title:LOVEST(TV Size Ver.)
TitleUnicode:LφVEST(TV Size Ver.)
Artist:SCREEN mode
ArtistUnicode:SCREEN mode
Creator:Sieg
Version:Love!!
Source:LOVE STAGE!!
Tags:opening tv-size yaoi boys love j.c.staff
BeatmapID:605851
BeatmapSetID:265859

[Difficulty]
HPDrainRate:7
CircleSize:4
OverallDifficulty:8
ApproachRate:9
SliderMultiplier:1.6
SliderTickRate:2

[Events]
//Background and Video events
0,0,"ls.jpg",0,0
Video,-305,"vid.avi"
//Break Periods
//Storyboard Layer 0 (Background)
//Storyboard Layer 1 (Fail)
//Storyboard Layer 2 (Pass)
//Storyboard Layer 3 (Foreground)
//Storyboard Sound Samples

[TimingPoints]
308,331.491712707182,4,2,1,80,1,0
5611,-100,4,1,1,70,0,1
14727,-83.3333333333333,4,1,1,70,0,1
15390,-100,4,1,1,70,0,1
16178,-100,4,1,1,70,0,0
16219,-100,4,1,1,70,0,1
21482,-100,4,1,1,60,0,0
42738,-100,4,1,1,70,0,1
42780,-100,4,1,1,70,0,0
48042,-100,4,1,1,70,0,1
48084,-100,4,1,1,70,0,0
55335,-100,4,1,1,50,0,0
55667,-100,4,1,1,60,0,0
55998,-100,4,1,1,70,0,1
66564,-100,4,1,1,70,0,0
66606,-100,4,1,1,70,0,1
75722,-83.3333333333333,4,1,1,70,0,1
76385,-100,4,1,1,70,0,1
81233,-100,4,1,1,70,0,0

[Colours]
Combo1 : 119,181,254
Combo2 : 253,63,146
Combo3 : 231,236,119
Combo4 : 158,253,56

[HitObjects]
200,65,308,54,0,P|118:24|45:39,1,160,4|0,0:1|0:0,0:0:0:0:
100,180,970,1,2,0:2:0:0:
239,333,1302,2,0,P|304:331|330:315,1,80,2|0,0:0|0:0,0:0:0:0:
503,249,1633,2,0,P|441:227|411:233,1,80,2|0,0:0|0:0,0:0:0:0:
264,250,1965,1,4,0:1:0:0:
318,102,2296,2,0,P|399:56|473:76,1,160,2|0,0:0|0:0,0:0:0:0:
388,282,2959,6,0,P|330:293|304:327,1,80,4|0,0:1|0:0,0:0:0:0:
169,358,3291,2,0,P|123:312|27:312,1,160,2|0,0:0|0:0,0:0:0:0:
100,89,3954,1,4,0:0:0:0:
278,187,4285,6,0,P|319:189|365:169,1,80,8|0,0:1|0:0,0:0:0:0:
420,34,4617,1,0,0:0:0:0:
211,40,4783,2,0,P|183:71|173:120,1,80,8|0,0:1|0:0,0:0:0:0:
124,261,5114,2,0,L|75:242,2,40,8|0|0,1:1|1:0|1:0,1:0:0:0:
256,316,5446,1,8,1:0:0:0:
284,328,5528,1,0,1:0:0:0:
314,338,5611,6,0,L|391:365,1,80,4|0,0:0|2:0,0:0:0:0:
426,222,5943,2,0,P|365:192|277:218,1,160,0|0,0:0|0:0,0:0:0:0:
166,328,6440,2,0,L|75:344,1,80,2|0,2:2|0:0,0:0:0:0:
93,162,6772,2,0,P|56:255|4:275,1,160,4|0,2:0|2:0,0:0:0:0:
82,79,7269,2,0,P|33:78|-1:55,1,80,2|0,0:2|2:0,0:0:0:0:
196,46,7600,2,0,L|282:27,1,80,2|0,0:0|2:0,0:0:0:0:
448,108,7932,2,0,B|368:98,1,80,0|0,0:0|2:0,0:0:0:0:
256,158,8263,6,0,B|236:189|256:230|256:236|280:273|257:316,1,160,4|0,0:0|0:0,0:0:0:0:
172,278,8761,1,2,2:2:0:0:
343,190,8926,1,0,0:0:0:0:
195,48,9092,2,0,P|238:31|279:40,1,80,2|8,0:0|0:0,0:0:0:0:
443,42,9423,1,0,0:0:0:0:
443,42,9506,1,0,0:0:0:0:
443,42,9589,2,0,L|465:128,1,80,4|2,0:0|0:2,0:0:0:0:
343,190,9921,1,8,0:0:0:0:
466,262,10087,2,0,L|488:348,1,80,0|0,0:0|2:2,0:0:0:0:
474,187,10418,5,0,0:0:0:0:
353,276,10584,1,8,0:0:0:0:
243,177,10749,1,0,0:0:0:0:
243,177,10832,1,0,0:0:0:0:
243,177,10915,2,0,B|179:265|179:265|184:319,2,160,4|8|0,0:0|0:0|0:0,0:0:0:0:
407,206,11744,2,0,L|320:177,1,80,2|0,2:2|0:0,0:0:0:0:
360,52,12075,1,0,0:0:0:0:
360,52,12158,1,0,0:0:0:0:
360,52,12241,2,0,B|464:82|464:82|513:58,1,160,4|8,0:0|0:0,0:0:0:0:
172,165,12904,6,0,B|144:63|144:65,1,80,0|2,0:0|2:2,0:0:0:0:
261,258,13236,2,0,B|289:360|289:358,1,80,4|2,0:0|2:2,0:0:0:0:
92,249,13567,1,0,0:0:0:0:
120,105,13733,1,2,2:1:0:0:
242,187,13898,1,4,2:1:0:0:
91,322,14064,2,0,L|101:370,2,40,0|0|0,0:0|0:0|0:0,0:0:0:0:
45,126,14396,1,8,0:0:0:0:
72,97,14478,1,0,0:0:0:0:
110,84,14561,1,8,0:0:0:0:
149,89,14644,1,0,0:0:0:0:
194,112,14727,6,0,B|240:71|310:81|310:81|324:49|324:49|396:75|461:34,1,287.999991210938,4|4,0:0|0:0,0:0:0:0:
392,200,15390,2,0,P|419:158|456:147,1,80
278,238,15722,1,8,2:1:0:0:
260,211,15804,1,0,0:0:0:0:
253,180,15887,1,8,2:1:0:0:
255,148,15970,1,0,0:0:0:0:
268,119,16053,1,0,0:0:0:0:
289,95,16136,1,0,0:0:0:0:
313,74,16219,6,0,P|356:53|399:61,1,80,4|0,0:2|2:0,0:0:0:0:
205,56,16551,2,0,P|144:34|51:66,1,160,4|0,0:0|0:0,0:0:0:0:
136,174,17048,1,2,0:2:0:0:
167,322,17214,1,8,0:0:0:0:
197,331,17296,1,0,0:0:0:0:
227,340,17379,2,0,P|316:347|391:305,1,160,4|0,0:0|0:0,0:0:0:0:
282,202,17877,1,8,0:0:0:0:
423,141,18042,2,0,L|517:134,1,80,2|0,2:2|0:0,0:0:0:0:
267,41,18374,1,0,0:0:0:0:
346,164,18540,1,8,0:0:0:0:
354,194,18622,1,0,0:0:0:0:
350,225,18705,1,0,0:0:0:0:
336,254,18788,1,0,0:0:0:0:
312,275,18871,6,0,L|218:282,1,80,4|0,0:2|2:0,0:0:0:0:
43,241,19203,2,0,B|45:191|85:159|85:159|80:125|103:86,1,160,12|0,0:0|0:0,0:0:0:0:
251,144,19700,1,0,0:0:0:0:
367,31,19866,1,4,0:0:0:0:
182,265,20197,5,8,0:0:0:0:
324,129,20363,1,8,0:0:0:0:
122,217,20528,1,8,0:0:0:0:
383,176,20694,1,8,0:0:0:0:
155,61,21026,5,8,0:0:0:0:
155,61,21109,1,0,0:0:0:0:
155,61,21191,1,4,0:0:0:0:
256,196,21357,1,8,0:0:0:0:
256,196,21440,1,0,0:0:0:0:
256,196,21523,6,0,B|284:232|256:268|256:276|232:312|256:348,1,160,4|8,0:0|0:0,0:0:0:0:
505,224,22186,2,0,L|420:255,1,80,0|0,0:0|2:0,0:0:0:0:
328,74,22517,2,0,L|428:90,1,80,8|0,0:0|2:0,0:0:0:0:
344,190,22849,1,0,0:0:0:0:
256,107,23015,1,0,2:0:0:0:
162,181,23180,1,8,0:0:0:0:
92,82,23346,2,0,B|-17:97|-16:97,1,80,0|0,2:0|0:0,0:0:0:0:
10,249,23678,2,0,P|85:261|116:336,1,160,0|0,2:0|2:0,0:0:0:0:
282,330,24175,6,0,P|242:305|192:310,1,80,4|0,0:0|2:0,0:0:0:0:
364,277,24506,2,0,P|411:276|450:244,1,80,8|0,0:0|2:0,0:0:0:0:
429,83,24838,2,0,P|357:67|291:127,1,160,0|8,0:0|0:0,0:0:0:0:
287,249,25335,1,0,2:0:0:0:
373,151,25501,1,0,0:0:0:0:
210,69,25667,2,0,B|181:116|119:114|119:114|109:198|9:214,1,240,2|0,2:1|0:0,0:0:0:0:
114,39,26330,2,0,P|70:57|45:101,1,80,0|8,2:0|0:0,0:0:0:0:
249,163,26661,2,0,B|291:167|312:194|312:194|339:113|446:103,1,240,4|8,2:1|0:0,0:0:0:0:
102,137,27490,5,0,0:0:0:0:
86,286,27656,1,0,2:0:0:0:
222,228,27821,1,8,0:0:0:0:
162,86,27987,2,0,P|131:64|80:63,1,80,0|0,2:0|0:0,0:0:0:0:
136,216,28319,1,0,2:0:0:0:
228,350,28485,1,8,0:0:0:0:
385,302,28650,2,0,P|425:274|473:270,1,80,0|8,2:0|0:0,0:0:0:0:
348,149,28982,2,0,B|442:85|442:85|502:100,1,160,4|0,2:1|2:0,0:0:0:0:
304,33,29479,6,0,B|221:91|221:91|149:84,1,160,4|8,0:0|0:0,0:0:0:0:
256,196,30142,2,0,B|284:232|256:268|256:276|232:312|256:348,1,160,4|8,0:2|0:0,0:0:0:0:
108,339,30639,1,8,0:0:0:0:
108,339,30722,1,0,0:0:0:0:
108,339,30805,2,0,L|36:305,1,80,4|0,0:0|2:0,0:0:0:0:
40,160,31136,2,0,P|125:171|191:107,1,160,2|0,2:2|0:0,0:0:0:0:
271,31,31633,1,8,2:1:0:0:
301,23,31715,1,0,0:0:0:0:
333,24,31798,1,8,2:1:0:0:
364,33,31881,1,0,0:0:0:0:
390,50,31964,1,0,0:0:0:0:
411,74,32047,1,0,0:0:0:0:
428,102,32131,6,0,P|454:181|388:251,1,160,4|8,0:0|0:0,0:0:0:0:
16,149,32794,2,0,P|46:112|84:91,1,80,0|0,0:0|2:0,0:0:0:0:
262,144,33125,2,0,P|213:151|162:128,1,80,8|0,0:0|2:0,0:0:0:0:
114,33,33457,1,0,0:0:0:0:
282,74,33623,1,0,2:0:0:0:
99,178,33788,1,8,0:0:0:0:
206,45,33954,2,0,B|287:20,1,80,0|0,2:0|0:0,0:0:0:0:
491,29,34286,2,0,P|413:62|391:135,1,160,0|0,2:0|2:0,0:0:0:0:
486,268,34783,6,0,P|446:243|396:248,1,80,4|0,0:0|2:0,0:0:0:0:
258,303,35114,2,0,P|305:302|344:270,1,80,8|0,0:0|2:0,0:0:0:0:
250,140,35446,2,0,P|178:124|112:184,1,160,0|8,0:0|0:0,0:0:0:0:
88,332,35943,1,0,2:0:0:0:
197,212,36109,1,0,0:0:0:0:
277,354,36274,1,2,2:1:0:0:
383,234,36440,2,0,P|469:255|507:326,1,160,0|0,0:0|0:0,0:0:0:0:
512,148,36938,1,0,2:0:0:0:
470,15,37103,1,8,0:0:0:0:
386,146,37269,2,0,B|336:119|272:162|272:162|272:85|223:59,1,240,4|12,2:1|0:0,0:0:0:0:
344,232,38098,5,0,0:0:0:0:
205,252,38263,1,0,2:0:0:0:
91,335,38429,2,0,L|68:245,1,80,8|0,0:0|2:0,0:0:0:0:
87,114,38760,1,0,0:0:0:0:
198,200,38927,1,0,2:0:0:0:
242,37,39092,1,8,0:0:0:0:
372,95,39258,2,0,L|394:185,1,80,0|0,2:0|0:0,0:0:0:0:
408,314,39589,2,0,P|335:266|246:298,1,160,4|0,2:1|2:0,0:0:0:0:
153,337,40087,6,0,B|125:301|153:265|153:257|177:221|153:185,1,160,4|8,0:0|0:0,0:0:0:0:
355,26,40750,2,0,B|327:62|355:98|355:106|379:142|355:178,1,160,4|8,0:2|0:0,0:0:0:0:
219,106,41247,1,8,0:0:0:0:
187,100,41330,1,0,0:0:0:0:
155,92,41413,2,0,L|66:75,1,80,4|0,0:0|0:0,0:0:0:0:
9,217,41744,2,0,P|74:264|166:250,1,160,8|0,2:1|2:0,0:0:0:0:
280,154,42241,1,8,2:1:0:0:
308,167,42324,1,0,0:0:0:0:
331,190,42407,1,8,2:1:0:0:
344,218,42490,1,0,1:0:0:0:
347,250,42573,1,8,0:0:0:0:
339,281,42656,1,0,1:0:0:0:
328,311,42738,6,0,P|302:348|268:366,1,80,4|0,0:0|0:0,0:0:0:0:
26,333,43236,1,12,0:0:0:0:
231,253,43401,1,12,0:0:0:0:
86,244,43733,1,12,0:0:0:0:
272,131,43898,1,12,0:0:0:0:
140,127,44230,1,12,0:0:0:0:
326,14,44395,1,12,0:0:0:0:
177,24,44562,1,0,0:0:0:0:
45,89,44727,2,0,P|13:129|10:172,1,80,4|0,0:2|2:0,0:0:0:0:
132,178,45059,2,0,P|124:228|143:267,1,80,8|0,0:0|2:0,0:0:0:0:
251,212,45390,6,0,P|280:265|386:275,1,160,4|8,0:0|0:0,0:0:0:0:
487,182,45888,1,0,2:0:0:0:
342,192,46053,2,0,P|322:115|391:44,1,160,4|8,0:0|0:0,0:0:0:0:
488,182,46551,1,0,2:0:0:0:
372,281,46716,2,0,P|294:275|251:212,1,160,4|8,0:0|0:0,0:0:0:0:
266,57,47214,1,0,2:0:0:0:
428,31,47379,2,0,L|452:140,1,80,4|0,0:0|2:0,0:0:0:0:
512,254,47711,1,8,0:0:0:0:
361,359,48042,5,12,0:0:0:0:
403,171,48208,1,12,0:0:0:0:
223,245,48540,1,12,0:0:0:0:
265,57,48706,1,12,0:0:0:0:
56,287,49037,1,12,0:0:0:0:
98,99,49203,1,12,0:0:0:0:
404,172,49534,1,12,0:0:0:0:
265,56,49699,1,12,0:0:0:0:
224,245,49866,1,0,0:0:0:0:
393,260,50031,2,0,B|485:282,1,80,4|0,0:2|2:0,0:0:0:0:
261,321,50363,2,0,L|168:344,1,80,4|0,0:2|2:0,0:0:0:0:
306,189,50694,1,4,0:2:0:0:
256,192,50777,12,4,53015,0:0:0:0:
219,78,53346,5,8,0:0:0:0:
23,30,53512,1,8,0:0:0:0:
313,129,53843,1,8,0:0:0:0:
509,81,54009,1,8,0:0:0:0:
246,210,54341,1,8,0:0:0:0:
50,162,54507,1,8,0:0:0:0:
236,346,54838,1,8,0:0:0:0:
432,298,55004,1,8,0:0:0:0:
385,60,55335,5,8,0:0:0:0:
358,41,55417,1,8,0:0:0:0:
328,30,55500,1,8,0:0:0:0:
297,27,55583,1,8,0:0:0:0:
265,32,55666,1,8,0:0:0:0:
236,44,55749,1,8,0:0:0:0:
211,64,55832,1,8,0:0:0:0:
191,89,55915,1,8,0:0:0:0:
181,119,55998,6,0,L|164:216,1,80,4|0,0:2|2:0,0:0:0:0:
64,313,56330,2,0,P|16:259|34:159,1,160
86,41,56827,2,0,L|-5:57,1,80,2|0,2:2|0:0,0:0:0:0:
181,119,57159,2,0,P|281:139|297:189,1,160,4|0,2:0|2:0,0:0:0:0:
111,270,57656,2,0,P|67:271|31:296,1,80,2|0,0:2|2:0,0:0:0:0:
228,329,57987,2,0,P|271:329|314:310,1,80,2|0,0:0|2:0,0:0:0:0:
466,248,58319,2,0,B|386:238,1,80,0|0,0:0|2:0,0:0:0:0:
212,181,58650,6,0,P|151:114|151:35,1,160,4|0,0:0|0:0,0:0:0:0:
273,67,59148,1,2,2:2:0:0:
411,26,59313,1,0,0:0:0:0:
355,184,59479,2,0,L|336:265,1,80,4|8,2:1|0:0,0:0:0:0:
184,345,59810,2,0,L|203:264,1,80,4|0,0:2|0:0,0:0:0:0:
184,87,60142,1,2,0:2:0:0:
45,192,60308,1,8,0:1:0:0:
202,267,60474,1,4,0:0:0:0:
351,76,60805,5,0,0:0:0:0:
426,211,60971,1,8,0:0:0:0:
212,167,61136,1,0,0:0:0:0:
212,167,61219,1,0,0:0:0:0:
212,167,61302,2,0,B|148:79|148:79|153:25,2,160,4|8|0,0:2|0:0|0:0,0:0:0:0:
427,211,62131,2,0,L|349:232,1,80,2|0,2:2|0:0,0:0:0:0:
224,327,62462,1,0,0:0:0:0:
224,327,62545,1,0,0:0:0:0:
224,327,62628,2,0,B|120:357|120:357|71:333,2,160,4|8|0,0:2|0:0|0:0,0:0:0:0:
148,200,63457,5,2,2:1:0:0:
158,82,63622,1,4,0:0:0:0:
260,25,63787,1,0,2:0:0:0:
423,132,63954,2,0,P|388:111|380:59,1,80,2|0,0:0|0:0,0:0:0:0:
495,227,64284,1,4,2:1:0:0:
453,336,64450,1,0,0:0:0:0:
262,254,64617,2,0,P|319:205|404:222,1,160,8|0,0:0|0:0,0:0:0:0:
231,339,65114,5,2,0:0:0:0:
119,318,65279,1,4,0:2:0:0:
40,164,65446,2,0,L|28:244,1,80,8|8,0:0|2:1,0:0:0:0:
104,33,65776,1,12,0:0:0:0:
258,231,66109,5,8,2:1:0:0:
280,254,66191,1,0,0:0:0:0:
309,268,66274,1,8,2:1:0:0:
341,272,66357,1,0,0:0:0:0:
371,264,66440,1,0,0:0:0:0:
398,247,66523,1,0,0:0:0:0:
428,236,66606,6,0,L|420:327,1,80,4|0,0:2|2:0,0:0:0:0:
264,364,66937,2,0,P|178:357|124:285,1,160
148,144,67435,2,0,P|176:116|218:108,1,80,2|0,2:2|0:0,0:0:0:0:
242,237,67767,2,0,P|324:238|394:287,1,160,4|0,2:0|2:0,0:0:0:0:
504,338,68264,2,0,L|496:252,1,80,2|0,0:2|2:0,0:0:0:0:
408,85,68595,2,0,P|451:85|494:66,1,80,2|0,0:0|2:0,0:0:0:0:
294,154,68927,2,0,B|214:144,1,80,0|0,0:0|2:0,0:0:0:0:
40,85,69258,6,0,P|86:78|123:42,1,80,4|0,0:0|2:0,0:0:0:0:
282,78,69589,2,0,P|297:141|235:211,1,160
58,244,70087,2,0,P|69:287|94:323,1,80,2|8,0:0|0:0,0:0:0:0:
289,265,70418,2,0,P|250:281|206:275,1,80,2|4,0:2|0:0,0:0:0:0:
58,243,70749,1,0,0:0:0:0:
12,74,70916,1,8,0:0:0:0:
183,112,71081,1,4,0:2:0:0:
345,334,71413,5,0,0:0:0:0:
298,172,71579,1,0,0:0:0:0:
449,216,71744,1,8,0:0:0:0:
449,216,71827,1,0,0:0:0:0:
449,216,71910,2,0,P|486:143|456:69,2,160,4|8|0,0:2|0:0|0:0,0:0:0:0:
280,300,72739,2,0,P|321:265|377:258,1,80,2|0,2:1|0:0,0:0:0:0:
192,208,73070,1,8,0:0:0:0:
192,208,73153,1,0,0:0:0:0:
192,208,73236,2,0,P|122:220|36:183,1,160,4|8,0:2|0:0,0:0:0:0:
317,39,73899,6,0,P|370:31|400:44,1,80,0|2,0:0|2:2,0:0:0:0:
170,69,74230,2,0,P|116:62|91:41,1,80,4|2,0:0|2:2,0:0:0:0:
272,105,74562,1,0,0:0:0:0:
84,140,74727,1,2,2:2:0:0:
238,181,74893,1,4,2:1:0:0:
43,208,75059,1,8,0:0:0:0:
43,208,75142,1,0,0:0:0:0:
43,208,75225,1,0,0:0:0:0:
73,360,75391,1,8,0:0:0:0:
112,360,75472,1,0,0:0:0:0:
149,344,75556,1,8,0:0:0:0:
177,316,75638,1,0,0:0:0:0:
205,278,75722,6,0,B|254:314|323:296|323:296|340:322|340:322|408:289|480:340,1,287.999991210938,4|4,0:0|0:0,0:0:0:0:
394,230,76385,2,0,P|435:207|475:215,1,80
308,180,76717,1,8,2:1:0:0:
299,149,76798,1,0,0:0:0:0:
283,121,76882,1,8,2:1:0:0:
260,99,76964,1,0,0:0:0:0:
232,84,77047,1,0,0:0:0:0:
201,75,77130,1,0,0:0:0:0:
168,73,77214,6,0,P|128:78|93:109,1,80,4|0,0:2|2:0,0:0:0:0:
77,286,77545,2,0,P|179:266|217:221,1,160,4|0,0:1|0:0,0:0:0:0:
106,161,78042,1,2,0:2:0:0:
141,39,78208,1,8,0:0:0:0:
141,39,78290,1,0,0:0:0:0:
141,39,78373,2,0,P|53:44|-10:109,1,160,4|0,0:0|0:0,0:0:0:0:
210,99,78871,1,8,0:0:0:0:
355,141,79037,2,0,P|400:138|439:114,1,80,2|0,2:2|0:0,0:0:0:0:
284,40,79368,1,0,0:0:0:0:
259,180,79534,1,8,0:0:0:0:
252,211,79616,1,0,0:0:0:0:
259,242,79699,1,0,0:0:0:0:
278,267,79782,1,0,0:0:0:0:
299,292,79866,6,0,P|331:310|396:303,1,80,4|0,0:2|2:0,0:0:0:0:
191,331,80197,2,0,P|97:324|53:261,1,160,12|0,0:0|0:0,0:0:0:0:
98,59,80860,1,4,0:0:0:0:
259,180,81026,1,0,0:0:0:0:
383,22,81191,1,4,0:2:0:0:
256,192,81274,12,4,82517,2:1:0:0:
