osu file format v5

[General]
AudioFilename: new.mp3
AudioLeadIn: 0
PreviewTime: 0
Countdown: 3
SampleSet: Normal
StackLeniency: 0.7
Mode: 0
EditorBookmarks: 15769,22555,29769,36698,56698,64412,70840,77054,97840,105483,108768,112197,118768

[Metadata]
Title:Super Mario Hyadain
Artist:SCOTT-FALCO
Creator:shinn
Version:Hard

[Difficulty]
HPDrainRate:7
CircleSize:5
OverallDifficulty:7
SliderMultiplier:2
SliderTickRate:2

[Events]
//Background and Video events
1,0,"new.avi"
//Break Periods
2,42041,56155
2,83064,97162
//Storyboard Layer 0 (Background)
//Storyboard Layer 1 (Failing)
//Storyboard Layer 2 (Passing)
//Storyboard Layer 3 (Foreground)
//Storyboard Sound Samples
//Background Colour Transformations
3,100,163,162,255

[TimingPoints]
2413,428.5659,4,1,0,100

[HitObjects]
256,112,16127,1,0
224,160,16555,2,0,B|352:160,1,100
384,96,16984,2,2,B|416:128|416:320,3,200
416,352,18699,1,0
384,352,18912,1,0
384,352,19055,1,0
96,176,19555,6,2,B|117:60|256:64,3,200
256,96,21269,1,0
256,160,21484,1,0
256,224,21698,1,0
256,288,21912,1,0
256,208,22984,5,0
256,208,23412,1,0
256,208,23841,1,0
96,224,24269,2,4,B|96:66|416:65|352:256,1,400
432,256,25555,1,0
384,256,25698,1,0
336,256,25841,1,0
128,64,26412,6,0,B|352:64,2,200
128,320,28126,2,0,B|352:320,1,200
256,192,29198,5,4
256,192,29412,1,4
32,240,29841,6,0,B|-7:80|224:32,2,300
96,256,31555,1,0
224,256,31984,1,0
224,192,32305,1,0
128,64,33269,6,0,B|400:64,4,266.666666666667
128,192,35841,6,4,B|200:292|240:362|352:192,1,300
256,208,36698,5,0
256,208,37126,1,0
176,160,37555,2,0,B|352:160,1,166.666666666667
416,128,38412,2,0,B|368:96|304:64,4,100
256,64,39912,5,6
256,64,40126,5,6
256,64,40340,5,6
208,64,40555,6,4,B|184:140|328:142|320:32,3,200
256,48,57055,5,0
256,48,57269,1,0
256,112,57698,1,0
256,176,58126,1,0
256,176,58340,1,0
480,256,58983,2,0,B|32:256,1,433.333333333333
46,256,60055,1,0
46,256,60162,1,0
64,192,60697,6,0,B|24:143|107:68|208:32,3,233.333333333333
192,96,62412,1,0
192,96,62626,1,0
192,96,62840,1,0
192,96,63055,1,0
256,192,63483,5,2
256,192,63697,1,2
320,320,64126,6,4,B|0:320|0:96,2,433.333333333333
416,256,66269,1,0
416,192,66483,1,0
336,192,66697,1,0
384,128,66912,1,0
384,128,67055,1,0
272,48,67555,6,0,B|0:48|48:336,1,400
43,299,68519,1,0
43,299,68733,1,0
256,336,69269,5,0
256,224,69697,1,0
256,96,70126,1,0
128,64,70983,6,2,B|448:64,2,300
256,176,72697,2,6,B|256:288,4,100
64,336,74412,5,4
448,352,75269,1,4
448,32,76126,1,4
352,48,76554,1,6
64,192,76983,6,2,B|170:277|255:36|448:224,1,400
256,240,78269,5,4
176,160,78697,2,0,B|352:160,1,166.666666666667
416,128,79554,2,4,B|368:96|304:64,4,100
256,64,81054,5,6
256,64,81269,5,6
256,64,81483,5,6
208,64,81697,6,2,B|184:140|328:142|320:32,3,200
128,64,98411,5,0
64,64,98626,1,0
64,64,98733,1,0
64,64,98840,2,0,B|66:320|384:320,1,433.333333333333
448,288,100126,6,0,B|448:256|416:224,1,66.6666666666667
384,192,100447,2,0,B|352:160|320:160,5,66.6666666666667
320,192,101411,1,0
32,64,101840,6,0,B|144:64,1,100
96,128,102197,1,0
96,128,102483,1,0
96,192,102804,2,0,B|96:288|384:288,1,300
416,288,103661,1,0
416,288,103768,1,0
416,192,103983,1,0
384,128,105268,5,0
384,128,105697,1,0
96,128,106125,5,0
96,128,106554,1,0
96,192,106983,2,0,B|320:192,1,200
396,192,107840,1,0
384,256,108054,1,0
448,256,108268,1,0
32,320,108697,6,0,B|22:29|384:64,2,500
160,320,111161,1,0
256,320,111482,5,0
256,320,111697,1,0
480,64,112125,6,0,B|160:64,1,300
64,128,112983,2,0,B|384:128,1,300
480,192,113840,2,0,B|256:192,1,200
256,192,114697,12,0,115125
256,320,115554,2,0,B|256:192,2,100
256,320,116197,1,0
192,320,116411,2,0,B|192:192,2,100
192,320,117054,1,0
128,320,117268,2,0,B|128:96,1,200
256,192,118125,12,0,118554
64,64,118982,5,0
128,64,119411,1,0
192,64,119768,2,0,B|231:161|288:64,1,133.333333333333
282,72,120161,1,0
352,64,120697,2,0,B|416:64,9,33.3333333333333
256,192,122411,12,0,123696
256,192,124125,12,0,125411
256,192,125839,12,4,127125
