osu file format v9

[General]
AudioFilename: Bleach - Shoujo S.mp3
AudioLeadIn: 0
PreviewTime: -1
Countdown: 0
SampleSet: Soft
StackLeniency: 1
Mode: 0
LetterboxInBreaks: 1

[Editor]
DistanceSpacing: 1
BeatDivisor: 4
GridSize: 8

[Metadata]
Title:Shoujo S(TV Size)
Artist:SCANDAL
Creator:Cara_Legal
Version:Matsumoto
Source:Bleach
Tags:ono haruna ogawa tomomi sasazaki mami suzuki rina studio pierrot tv tokyo kubo tite

[Difficulty]
HPDrainRate:5
CircleSize:5
OverallDifficulty:5
ApproachRate:6
SliderMultiplier:1.5
SliderTickRate:1

[Events]
//Background and Video events
Video,0,"Bleach - Shoujo S.avi"
0,0,"BG.jpg"
//Break Periods
2,78609,79410
2,83884,84685
//Storyboard Layer 0 (Background)
//Storyboard Layer 1 (Fail)
//Storyboard Layer 2 (Pass)
//Storyboard Layer 3 (Foreground)
//Storyboard Sound Samples
//Background Colour Transformations
3,100,163,162,255

[TimingPoints]
1120,439.56043956044,4,1,0,55,1,0
1201,-100,4,1,0,56,0,0
35434,-100,4,2,0,75,0,0
55447,-100,4,1,0,75,0,0
56784,-100,4,2,0,75,0,0
63264,-100,4,1,0,55,0,0
64267,-100,4,2,0,75,0,0

[HitObjects]
248,64,8592,5,0
280,136,8958,1,2
312,208,9178,1,0
280,136,9471,1,2
312,208,9691,1,0
336,256,9911,1,2
280,256,10277,1,2
280,256,10570,1,0
224,256,10936,6,0,B|112:256,2,100,2|0|0
224,200,11742,5,0
280,200,12109,1,2
280,200,12328,1,0
328,200,12695,1,2
328,200,12914,1,0
328,160,13354,1,0
264,144,13793,5,2
264,144,13940,5,0
264,144,14087,5,4
264,80,14306,1,0
336,80,14526,1,0
264,80,14673,1,4
264,80,15552,6,4,B|112:80,1,150
112,120,16211,5,0
112,120,16431,1,2
168,120,16724,1,0
216,120,16870,1,2
256,120,17090,1,0
304,120,17310,6,0,B|304:256,1,125,0|0
352,248,17896,5,2
400,248,18116,1,0
400,248,18409,1,2
408,208,18629,1,0
392,144,19068,2,2,B|352:144,1,25
296,144,19947,2,2,B|264:144,1,25
208,144,20900,2,2,B|168:144,1,25
112,144,21706,2,2,B|80:144,4,25
152,144,22658,5,2
184,144,23098,1,0
216,144,23317,1,2
272,144,23537,1,0
320,144,23757,1,2
320,144,24196,1,0
272,144,24343,1,2
216,144,24636,1,0
272,144,24856,6,2,B|272:64|272:64|344:64,1,150
392,72,25442,5,0
392,136,25881,1,2
392,136,26101,1,0
392,192,26321,1,0
392,240,26541,1,2
392,280,26761,1,0
392,312,27054,1,0
392,312,27273,1,2
160,312,27713,2,0,B|72:312,2,75,0|4|0
160,272,28299,2,4,B|160:104,2,150
208,272,29618,5,2
256,272,30130,1,0
320,272,30277,1,2
368,272,30570,1,8
416,272,30790,1,2
416,224,31156,1,8
416,168,31449,1,2
416,128,31669,1,8
416,80,31889,1,2
368,80,32255,5,0
320,80,32475,1,2
248,80,32988,1,0
200,80,33134,1,6
256,192,33207,12,0,34306
104,80,34673,5,8
136,112,34892,1,0
152,72,35185,1,8
168,104,35405,1,0
192,72,35552,5,2
208,112,35845,1,0
232,80,36065,1,0
256,120,36211,1,2
272,72,36724,1,0
304,128,37090,1,2
320,72,37603,1,0
360,128,38043,1,2
408,128,38409,5,0
408,176,38848,6,0,B|408:264,2,75,2|0|2
352,176,39508,5,0
312,176,39728,1,2
264,176,39874,1,0
208,168,40167,1,2
104,120,40460,5,0
104,120,40607,1,2
160,120,40863,5,0
160,120,41010,1,2
216,120,41266,5,0
216,120,41413,1,2
288,120,41779,5,0
288,120,41925,1,2
400,120,42218,5,0
400,120,42365,1,2
416,208,42585,1,0
232,208,42804,1,0
232,208,43024,1,2
96,208,43244,1,0
88,160,43464,6,8,B|208:160,1,100
184,112,43903,5,2
232,112,44196,1,2
240,160,44343,1,8
288,160,44563,1,8
328,160,44929,5,0
328,160,45076,1,0
320,224,45369,1,0
320,224,45515,1,0
256,224,45808,5,0
256,224,45955,1,0
208,224,46321,1,0
208,224,46467,1,0
120,48,46761,6,0,B|120:128,2,75
104,144,47566,5,0
104,144,47786,1,2
176,144,48079,5,0
176,144,48299,1,0
224,144,48592,1,0
224,144,48812,1,0
272,144,49032,1,0
272,144,49251,1,0
288,176,49471,1,0
288,176,49691,1,0
360,224,50130,6,8,B|400:224,3,25
312,216,50790,5,2
272,224,51229,1,0
208,216,51669,1,4
176,224,51815,1,2
144,232,52035,1,4
112,184,52548,1,2
88,200,52768,1,4
64,216,52988,1,2
48,152,53354,6,4,B|136:152,1,75
192,144,53793,6,0,B|192:88,2,50
256,240,54233,6,0,B|256:296,2,50
312,144,54673,6,0,B|312:88,2,50
352,160,55112,5,0
352,160,55259,1,0
352,160,55405,6,2,B|352:224,1,50
352,256,55845,5,0
320,264,55991,1,8
272,264,56211,1,0
232,248,56431,1,8
200,280,56724,1,4
144,256,56870,1,2
144,256,57163,1,0
88,240,57383,1,2
96,192,57603,5,0
136,192,57750,1,2
168,160,57969,1,0
200,192,58262,1,2
224,224,58409,1,0
256,192,58702,1,2
304,192,58922,1,0
376,192,59141,6,0,B|376:104,1,75,2|0
336,128,59654,5,2
296,128,59874,1,0
264,152,60094,1,2
232,120,60314,1,0
200,88,60607,1,2
176,128,60753,1,0
144,168,61046,1,2
96,136,61193,6,4,B|96:312|248:304,2,250
144,128,63024,5,0
192,136,63537,1,2
192,136,63684,1,0
192,136,63977,1,0
248,136,64416,5,2
256,168,64636,1,0
248,136,64856,1,2
304,128,65076,1,0
312,184,65222,1,2
304,128,65515,1,0
368,184,65735,1,2
352,128,65955,1,0
368,184,66174,1,2
368,224,66394,6,0,B|280:224,1,75
240,224,66761,5,2
192,224,67054,1,0
152,256,67273,1,2
104,232,67566,1,2
48,232,67786,6,0,B|48:88,2,125
104,232,68665,5,0
104,232,68812,1,2
144,232,69251,1,2
144,232,69471,1,0
208,240,69837,1,0
208,240,70057,1,2
256,240,70277,1,2
256,240,70570,1,0
256,184,70790,5,2
256,184,70936,5,2
256,184,71083,5,2
256,128,71449,6,0,B|424:128,1,150
400,176,72035,5,2
400,224,72328,1,0
360,208,72475,1,2
368,256,72768,1,0
320,240,72988,1,2
320,288,73207,1,0
272,264,73427,1,0
272,216,73647,1,2
224,240,73867,1,0
224,200,74087,1,2
176,224,74306,1,0
136,192,74599,1,2
136,248,74746,1,0
96,224,74966,1,2
40,224,75185,1,0
40,224,75405,5,2
40,168,76504,5,0
264,184,76870,5,2
248,184,77090,1,2
280,184,77383,1,0
232,184,77603,1,2
296,184,77750,1,0
216,184,77969,1,2
312,184,78262,1,0
256,112,78409,1,2
408,96,80460,6,2,B|408:208,1,100
408,240,80973,1,0
352,224,81339,1,2
352,272,81486,1,0
304,248,81706,1,0
264,208,81999,1,2
224,240,82145,1,0
176,240,82365,1,2
136,240,82658,1,2
112,272,82804,1,2
72,240,83024,1,2
72,200,83317,1,2
72,120,83537,1,0
72,160,83684,1,2
104,32,85735,5,0
128,48,85955,1,2
152,64,86174,1,0
168,80,86394,1,2
184,96,86614,1,0
200,112,86834,1,2
216,128,87054,1,0
232,144,87273,1,2
240,152,87493,1,0
256,152,87713,1,2
272,136,87933,1,0
288,120,88152,1,2
304,104,88372,1,0
312,96,88592,1,2
320,88,88812,1,0
328,80,89032,1,6
