osu file format v12

[General]
AudioFilename: 01. Haruka.mp3
AudioLeadIn: 1996
PreviewTime: -1
Countdown: 0
SampleSet: None
StackLeniency: 0.2
Mode: 0
LetterboxInBreaks: 1
SkinPreference:Default

[Editor]
Bookmarks: 111623
DistanceSpacing: 0.6
BeatDivisor: 4
GridSize: 32

[Metadata]
Title:Haruka
TitleUnicode:ハルカ
Artist:SCANDAL
ArtistUnicode:SCANDAL
Creator:zacqiang
Version:Normal
Source:Tofu Kozo
Tags:Anime
BeatmapID:271708
BeatmapSetID:102998

[Difficulty]
HPDrainRate:2
CircleSize:4
OverallDifficulty:4
ApproachRate:6
SliderMultiplier:0.7
SliderTickRate:1

[Events]
//Background and Video events
Video,2041,"Scandal - Haruka.flv"
//Break Periods
2,25040,32501
2,56010,62987
2,76334,80407
2,112143,126862
2,150855,159767
2,190051,204286
2,215214,220012
2,253442,262354
//Storyboard Layer 0 (Background)
//Storyboard Layer 1 (Fail)
//Storyboard Layer 2 (Pass)
//Storyboard Layer 3 (Foreground)
//Storyboard Sound Samples
//Background Colour Transformations
3,100,163,162,255

[TimingPoints]
1620,483.900000000001,4,2,0,100,1,0

[Colours]
Combo1 : 167,79,255
Combo2 : 0,202,0
Combo3 : 18,124,255
Combo4 : 242,24,57
Combo5 : 255,192,0

[HitObjects]
256,192,2103,1,0,0:0:0:0:
320,192,4033,1,0,0:0:0:0:
256,256,5969,1,0,0:0:0:0:
192,192,6937,1,0,0:0:0:0:
256,128,7904,1,0,0:0:0:0:
256,192,9961,5,0,0:0:0:0:
192,192,11776,1,0,0:0:0:0:
256,128,13711,1,0,0:0:0:0:
320,192,14679,1,0,0:0:0:0:
256,256,15653,1,0,0:0:0:0:
192,192,17098,1,0,0:0:0:0:
256,192,17582,6,0,L|480:192,2,210
256,128,20970,2,0,B|192:128|128:192|128:256|192:320,1,280
224,256,23389,2,0,B|288:256|352:192|384:128|384:128,1,210
256,64,33551,5,0,0:0:0:0:
256,160,35487,1,0,0:0:0:0:
256,256,37422,1,0,0:0:0:0:
352,256,39358,5,0,0:0:0:0:
352,160,41293,1,0,0:0:0:0:
352,64,43229,1,0,0:0:0:0:
256,64,45165,1,0,0:0:0:0:
160,64,46132,2,0,L|128:128|96:192,2,140
256,64,49042,6,0,P|384:64|384:192,1,280
320,128,51939,2,0,L|192:192,1,140
160,256,53875,2,0,P|32:256|32:128,1,280
256,192,64037,5,0,0:0:0:0:
256,192,67908,1,0,0:0:0:0:
256,192,71779,1,0,0:0:0:0:
352,192,72263,2,0,P|352:96|448:96,1,210
448,160,74199,2,0,P|448:256|352:256,1,210
256,192,76134,1,0,0:0:0:0:
256,96,81457,6,0,P|160:96|160:192,1,210
256,192,83393,2,0,P|352:192|352:288,1,210
256,256,85328,6,0,P|160:256|160:160,1,210
256,160,87264,1,0,0:0:0:0:
256,64,87748,1,0,0:0:0:0:
352,64,88232,1,0,0:0:0:0:
448,64,89200,6,0,P|448:160|352:160,1,210
256,160,91135,2,0,P|160:160|160:256,1,210
256,256,93071,2,0,L|320:288,1,70
352,224,94039,2,0,L|416:256,1,70
256,192,95006,12,0,96458,0:0:0:0:
256,32,96942,6,0,P|160:32|160:128,1,210
256,128,98878,2,0,P|352:128|352:224,1,210
256,224,100813,6,0,L|192:256,1,70
160,192,101781,2,0,L|96:224,1,70
160,288,102749,1,0,0:0:0:0:
160,288,102991,1,0,0:0:0:0:
160,288,103233,1,0,0:0:0:0:
256,320,104684,6,0,B|416:320|416:224|416:224|416:128|256:128,1,420
256,224,108072,2,0,L|192:192,1,70
160,256,109039,2,0,L|224:288,1,70
256,192,110007,12,0,111943,0:0:0:0:
128,32,127912,5,0,0:0:0:0:
224,32,128395,1,0,0:0:0:0:
320,32,128879,1,0,0:0:0:0:
416,128,129847,1,0,0:0:0:0:
320,128,130331,1,0,0:0:0:0:
224,128,130815,1,0,0:0:0:0:
128,224,131783,5,0,0:0:0:0:
224,224,132267,1,0,0:0:0:0:
320,224,132751,1,0,0:0:0:0:
416,224,133718,2,0,L|448:160,1,70
384,128,134686,2,0,L|416:64,1,70
320,64,135654,5,0,0:0:0:0:
224,64,136138,1,0,0:0:0:0:
128,64,136622,1,0,0:0:0:0:
32,160,137590,1,0,0:0:0:0:
128,160,138073,1,0,0:0:0:0:
224,160,138557,1,0,0:0:0:0:
320,160,139525,6,0,P|416:256|224:224,1,490
224,160,143396,1,0,0:0:0:0:
224,64,143880,1,0,0:0:0:0:
320,64,144364,1,0,0:0:0:0:
416,64,145332,5,0,0:0:0:0:
416,160,145816,1,0,0:0:0:0:
416,256,146300,1,0,0:0:0:0:
320,256,146784,2,0,L|256:288,1,70
224,224,147751,6,0,L|192:160,1,70
128,160,148719,2,0,L|96:224,1,70
160,256,149687,6,0,L|224:288,1,70
256,224,150655,1,0,0:0:0:0:
32,224,160817,6,0,B|160:160|160:160|288:224|288:224|416:160,1,420
384,96,164688,1,0,0:0:0:0:
288,96,165656,1,0,0:0:0:0:
192,96,166624,6,0,L|128:128,1,70
160,192,167591,2,0,L|224:160,1,70
288,128,168559,2,0,B|352:256|352:256|224:320|224:320|96:256|96:256,1,420
96,192,172430,6,0,L|128:128,2,70
160,224,173882,2,0,L|192:160,2,70
256,192,175334,1,0,0:0:0:0:
256,192,175818,1,0,0:0:0:0:
288,256,176302,2,0,B|416:192|416:192|352:64|352:64|224:128,1,420
160,160,179689,6,0,L|96:192,1,70
128,256,180657,2,0,L|192:224,1,70
256,192,181624,2,0,P|384:192|384:64,1,280
320,64,184044,2,0,L|320:288,1,210
256,288,185980,2,0,L|256:64,1,210
256,192,187915,12,0,189851,0:0:0:0:
448,160,205336,6,0,B|384:128|384:128|320:160|320:160|256:128|256:128|192:160|192:160|128:128|128:128|64:160,1,420
64,224,209207,6,0,B|128:256|128:256|192:288|192:288|256:256|256:256|320:288|320:288|384:256|384:256|448:224|448:224,1,420
384,160,213078,1,0,0:0:0:0:
320,96,213562,1,0,0:0:0:0:
256,160,214046,1,0,0:0:0:0:
192,96,214530,1,0,0:0:0:0:
128,160,215014,1,0,0:0:0:0:
256,192,221062,5,0,0:0:0:0:
256,192,221304,1,0,0:0:0:0:
256,192,222272,1,0,0:0:0:0:
320,128,222756,2,0,B|384:160|384:160|448:192|448:192|480:256|480:256,1,210
448,320,224692,2,0,B|384:288|384:288|320:256|320:256|288:192|288:192,1,210
224,192,226627,6,0,L|192:128,1,70
256,96,227595,2,0,L|320:64,1,70
384,96,228563,1,0,0:0:0:0:
384,96,229047,1,0,0:0:0:0:
416,160,230498,6,0,B|352:192|352:192|288:224|288:224|224:192|224:192,1,210
256,128,232434,2,0,B|192:96|192:96|128:128|128:128|64:160,1,210
96,224,234370,5,0,0:0:0:0:
160,224,234853,1,0,0:0:0:0:
224,224,235337,1,0,0:0:0:0:
288,224,235821,1,0,0:0:0:0:
352,224,236305,1,0,0:0:0:0:
416,160,238241,6,0,B|352:128|352:128|288:96|288:96|224:128|224:128,1,210
256,192,240176,2,0,B|192:224|192:224|128:192|128:192|64:160,1,210
128,96,242112,5,0,0:0:0:0:
128,96,243080,1,0,0:0:0:0:
224,96,243564,2,0,L|288:128,1,70
256,192,244531,2,0,L|320:224,1,70
416,224,245983,2,0,B|448:160|448:160|416:96|416:96|352:64|352:64,1,210
352,160,247919,2,0,B|288:128|288:128|224:160|224:160|192:224,1,210
256,256,249854,1,0,0:0:0:0:
256,256,250338,1,0,0:0:0:0:
256,256,250822,1,0,0:0:0:0:
256,256,251306,1,0,0:0:0:0:
256,192,251790,12,0,253242,0:0:0:0:
256,192,263404,5,0,0:0:0:0:
256,192,264371,1,0,0:0:0:0:
256,192,265339,1,0,0:0:0:0:
256,192,266307,1,0,0:0:0:0:
320,256,267275,2,0,B|384:224|384:224|416:160|416:160|384:96|384:96|320:64|320:64,2,280
256,288,271630,6,0,B|192:256|192:256|160:192|160:192|192:128|192:128|256:96,1,280
320,128,274049,1,0,0:0:0:0:
288,192,274533,1,0,0:0:0:0:
256,192,275017,12,0,278404,0:0:0:0:
64,64,278888,5,0,0:0:0:0:
160,64,279372,1,0,0:0:0:0:
256,64,279856,2,0,B|320:96|320:96|384:128|384:128,2,140
256,128,282276,1,0,0:0:0:0:
320,192,283243,5,0,0:0:0:0:
256,256,284211,1,0,0:0:0:0:
192,192,285179,1,0,0:0:0:0:
256,192,286631,1,0,0:0:0:0:
256,192,287115,1,0,0:0:0:0:
256,192,287599,12,0,290018,0:0:0:0:
256,192,290381,12,0,294373,0:0:0:0:
