osu file format v14

[General]
AudioFilename: SCANDAL - Departure.mp3
AudioLeadIn: 0
PreviewTime: -1
Countdown: 1
SampleSet: None
StackLeniency: 0.7
Mode: 0
LetterboxInBreaks: 1
WidescreenStoryboard: 0

[Editor]
DistanceSpacing: 1
BeatDivisor: 4
GridSize: 4
TimelineZoom: 1

[Metadata]
Title:Departure
TitleUnicode:Departure
Artist:SCANDAL
ArtistUnicode:SCANDAL
Creator:[PH]Andvingen
Version:Insane
Source:...
Tags:Japan
BeatmapID:757405
BeatmapSetID:342676

[Difficulty]
HPDrainRate:8
CircleSize:5
OverallDifficulty:9
ApproachRate:6
SliderMultiplier:2.39999990463257
SliderTickRate:1

[Events]
//Background and Video events
0,0,"Background.jpg",0,0
//Break Periods
2,23020,37009
2,53020,64390
2,101948,118199
2,133973,145104
2,184092,195104
//Storyboard Layer 0 (Background)
//Storyboard Layer 1 (Fail)
//Storyboard Layer 2 (Pass)
//Storyboard Layer 3 (Foreground)
//Storyboard Sound Samples

[TimingPoints]
8416.2380952381,476.190476190476,4,1,0,100,1,0

[Colours]
Combo1 : 128,0,0
Combo2 : 255,255,255
Combo3 : 64,240,240
Combo4 : 255,128,0

[HitObjects]
64,88,7940,6,0,B|232:76,2,119.999995231629
288,136,8892,1,0,0:0:0:0:
76,212,9368,1,0,0:0:0:0:
328,228,9844,1,0,0:0:0:0:
208,276,10082,2,0,B|176:200|172:188|284:180|252:176,1,119.999995231629
348,148,10559,1,0,0:0:0:0:
232,112,10797,2,0,B|76:68|84:72,1,119.999995231629
116,79,11273,1,0,0:0:0:0:
296,56,11630,6,0,B|376:56|376:56|460:56|488:60,1,179.999992847443
475,58,12225,1,0,0:0:0:0:
388,316,12701,1,0,0:0:0:0:
268,108,13178,1,0,0:0:0:0:
216,136,13416,2,0,B|128:140|104:88|128:32|208:24|248:24|252:24,1,239.999990463257
300,52,14368,1,0,0:0:0:0:
300,52,14606,1,0,0:0:0:0:
260,228,15082,1,0,0:0:0:0:
388,232,15559,2,0,B|480:92|432:56,1,179.999992847443
320,64,16392,1,0,0:0:0:0:
100,140,16749,5,0,0:0:0:0:
268,256,16987,1,0,0:0:0:0:
388,228,17463,1,0,0:0:0:0:
292,152,17701,2,0,B|180:76|188:80|192:88,2,119.999995231629
200,324,18416,1,0,0:0:0:0:
200,324,18654,1,0,0:0:0:0:
380,76,19011,1,0,0:0:0:0:
164,180,19368,1,0,0:0:0:0:
188,324,19844,1,0,0:0:0:0:
108,56,20440,1,0,0:0:0:0:
284,212,20916,1,0,0:0:0:0:
64,192,21392,1,0,0:0:0:0:
276,140,21868,1,0,0:0:0:0:
136,324,22344,1,0,0:0:0:0:
320,196,22820,1,0,0:0:0:0:
100,128,38059,5,0,0:0:0:0:
396,136,38654,1,0,0:0:0:0:
64,340,39130,1,0,0:0:0:0:
268,332,39487,2,0,B|320:200|312:232,1,119.999995231629
176,184,39963,1,0,0:0:0:0:
272,72,40559,1,8,0:0:0:0:
352,232,40916,1,0,0:0:0:0:
184,300,41273,2,0,P|84:228|76:224,2,119.999995231629
272,312,41987,1,0,0:0:0:0:
376,252,42225,1,0,0:0:0:0:
424,140,42463,1,0,0:0:0:0:
304,124,42701,2,0,B|188:128|144:176|136:188,1,179.999992847443
100,296,43416,1,0,0:0:0:0:
212,340,43654,1,0,0:0:0:0:
328,320,43892,1,0,0:0:0:0:
436,268,44130,2,0,B|412:136|344:32|352:40,2,239.999990463257
284,212,45320,5,0,0:0:0:0:
156,160,45559,2,0,B|196:96|316:60|296:60,1,119.999995231629
308,76,46035,1,0,0:0:0:0:
408,196,46392,2,0,B|364:300|300:316|268:328,1,179.999992847443
248,304,46987,1,0,0:0:0:0:
160,240,47225,1,0,0:0:0:0:
344,52,47463,1,0,0:0:0:0:
184,92,47701,1,0,0:0:0:0:
104,252,48059,2,0,L|96:336,1,59.9999976158143
260,224,48535,2,0,B|268:320|268:312,1,59.9999976158143
112,96,49130,2,0,L|280:96,1,119.999995231629
328,192,49725,6,0,B|168:260|128:188|116:160,1,239.999990463257
84,100,50678,5,0,0:0:0:0:
180,172,50916,1,0,0:0:0:0:
312,200,51154,1,0,0:0:0:0:
496,124,51392,1,0,0:0:0:0:
336,292,51630,1,0,0:0:0:0:
184,108,51868,1,0,0:0:0:0:
320,92,52106,1,0,0:0:0:0:
404,248,52344,1,0,0:0:0:0:
164,196,52582,1,0,0:0:0:0:
396,152,52820,1,0,0:0:0:0:
104,108,65440,5,0,0:0:0:0:
356,272,65797,1,0,0:0:0:0:
248,60,66035,1,0,0:0:0:0:
112,256,66273,1,0,0:0:0:0:
432,92,66511,1,0,0:0:0:0:
220,200,66749,1,0,0:0:0:0:
80,84,66987,1,0,0:0:0:0:
308,164,67225,1,0,0:0:0:0:
156,68,67463,1,0,0:0:0:0:
168,136,69130,2,0,L|144:80,2,59.9999976158143
288,168,69606,1,0,0:0:0:0:
212,260,69844,1,0,0:0:0:0:
108,224,70082,1,0,0:0:0:0:
180,128,70320,2,0,L|240:84,2,59.9999976158143
360,96,70916,1,0,0:0:0:0:
344,216,71154,2,0,L|196:296,1,119.999995231629
136,268,71630,6,0,L|68:208,1,59.9999976158143
116,160,71868,1,0,0:0:0:0:
196,160,71987,1,0,0:0:0:0:
292,40,72344,1,0,0:0:0:0:
372,228,72701,1,0,0:0:0:0:
408,140,72940,2,0,L|484:28,1,119.999995231629
264,72,73654,2,0,L|76:100,1,179.999992847443
108,156,74130,1,0,0:0:0:0:
124,276,74368,2,0,L|412:276,3,239.999990463257
324,180,76035,1,0,0:0:0:0:
264,192,76154,6,0,B|152:200|120:188,1,119.999995231629
152,132,76511,1,0,0:0:0:0:
232,120,76630,2,0,L|416:104,1,179.999992847443
256,312,77344,1,0,0:0:0:0:
148,256,77582,2,0,L|76:208,3,59.9999976158143
116,164,78059,2,0,L|152:48,1,119.999995231629
151,49,78416,1,0,0:0:0:0:
264,192,78773,1,0,0:0:0:0:
352,152,79011,1,0,0:0:0:0:
360,320,79368,6,0,L|96:316,1,239.999990463257
240,112,80320,1,0,0:0:0:0:
260,200,80916,1,0,0:0:0:0:
496,204,81392,1,0,0:0:0:0:
276,252,81868,1,0,0:0:0:0:
112,84,82344,1,0,0:0:0:0:
280,208,82820,1,0,0:0:0:0:
84,288,83297,1,0,0:0:0:0:
284,188,83773,1,0,0:0:0:0:
140,348,84249,1,0,0:0:0:0:
300,188,84725,6,0,L|176:152,3,119.999995231629
184,156,85678,1,0,0:0:0:0:
300,64,85916,2,0,L|464:140,1,179.999992847443
480,196,86392,1,0,0:0:0:0:
320,284,86749,2,0,L|184:276,2,119.999995231629
248,180,87463,1,0,0:0:0:0:
140,124,87701,2,0,L|92:80,2,59.9999976158143
252,76,88178,1,0,0:0:0:0:
344,156,88416,5,0,0:0:0:0:
272,252,88654,2,0,P|104:296|100:304,1,179.999992847443
188,160,89249,2,0,L|296:88,1,119.999995231629
428,116,89725,1,0,0:0:0:0:
348,300,90082,2,0,L|248:304,3,59.9999976158143
128,260,90678,1,0,0:0:0:0:
184,128,90916,2,0,P|336:120|344:128,1,179.999992847443
343,127,91511,1,0,0:0:0:0:
360,192,91749,2,0,L|412:256,1,59.9999976158143
448,184,92106,2,0,L|432:116,1,59.9999976158143
384,60,92463,1,0,0:0:0:0:
260,76,92701,2,0,L|120:84,1,119.999995231629
76,212,93178,5,0,0:0:0:0:
192,244,93416,1,0,0:0:0:0:
164,128,93654,2,0,P|300:204|308:208,1,119.999995231629
320,296,94130,1,0,0:0:0:0:
436,264,94368,1,0,0:0:0:0:
412,168,94606,2,0,L|228:180,2,179.999992847443
324,88,95559,1,0,0:0:0:0:
204,88,95797,1,0,0:0:0:0:
108,160,96035,1,0,0:0:0:0:
216,228,96273,1,0,0:0:0:0:
308,220,96511,5,0,0:0:0:0:
492,208,96868,1,0,0:0:0:0:
208,144,97463,1,0,0:0:0:0:
504,84,98059,1,0,0:0:0:0:
236,204,98654,1,0,0:0:0:0:
424,96,99130,1,0,0:0:0:0:
280,232,99487,1,0,0:0:0:0:
108,288,99963,2,0,P|136:56|400:348,1,899.999964237214
68,208,119249,6,0,L|116:88,1,119.999995231629
232,84,119725,1,0,0:0:0:0:
288,192,119963,2,0,L|320:248,2,59.9999976158143
400,148,120440,1,0,0:0:0:0:
320,56,120678,2,0,L|196:88,1,119.999995231629
124,176,121154,1,0,0:0:0:0:
108,296,121392,2,0,L|204:292,2,59.9999976158143
228,296,121868,1,0,0:0:0:0:
340,256,122106,2,0,L|412:144,1,119.999995231629
292,120,122582,2,0,L|220:112,1,59.9999976158143
136,184,122940,2,0,L|132:252,1,59.9999976158143
248,220,123297,1,0,0:0:0:0:
164,304,123535,2,0,L|100:256,2,59.9999976158143
328,320,124130,5,0,0:0:0:0:
412,232,124368,2,0,L|408:104,1,119.999995231629
292,84,124844,2,0,L|224:80,1,59.9999976158143
176,124,125201,1,0,0:0:0:0:
164,244,125440,2,0,L|308:244,1,119.999995231629
284,244,125916,2,0,L|340:212,2,59.9999976158143
384,188,126749,6,0,L|344:312,1,119.999995231629
228,312,127225,2,0,B|156:308|160:308,1,59.9999976158143
140,212,127582,1,0,0:0:0:0:
208,108,127820,1,0,0:0:0:0:
364,100,128178,2,0,L|368:180,1,59.9999976158143
188,176,128654,1,0,0:0:0:0:
208,296,128892,2,0,P|392:296|400:288,1,179.999992847443
432,204,129487,2,0,L|436:140,1,59.9999976158143
435,144,129725,1,0,0:0:0:0:
328,92,129963,2,0,L|260:84,1,59.9999976158143
156,128,130320,2,0,L|84:300,1,179.999992847443
208,300,130916,1,0,0:0:0:0:
304,228,131154,1,0,0:0:0:0:
192,184,131392,2,0,L|128:168|144:172,2,59.9999976158143
304,140,131868,2,0,P|380:124|380:128,1,119.999995231629
400,228,132344,2,0,L|380:296,1,59.9999976158143
252,308,132701,2,0,L|124:304,1,119.999995231629
144,172,133178,1,0,0:0:0:0:
256,124,133416,2,0,L|448:100,1,179.999992847443
152,148,146154,5,0,0:0:0:0:
404,148,146392,1,0,0:0:0:0:
268,268,146630,1,0,0:0:0:0:
308,36,146868,1,0,0:0:0:0:
196,228,147106,1,0,0:0:0:0:
108,20,147344,1,0,0:0:0:0:
124,264,147582,1,0,0:0:0:0:
356,172,147820,1,0,0:0:0:0:
248,172,148059,2,0,B|60:168|64:168,1,179.999992847443
144,224,148654,2,0,L|344:296,1,179.999992847443
440,200,149725,6,0,P|292:96|280:112,1,239.999990463257
200,176,150440,2,0,P|104:296|116:272,1,119.999995231629
316,236,150916,2,0,L|260:280,1,59.9999976158143
148,276,151273,1,0,0:0:0:0:
100,168,151511,2,0,L|208:96,1,119.999995231629
316,136,151987,2,0,L|384:152,1,59.9999976158143
404,112,152582,2,0,L|280:56,1,119.999995231629
68,132,153297,1,0,0:0:0:0:
180,168,153535,2,0,P|300:232|288:300,1,179.999992847443
188,296,154130,5,0,0:0:0:0:
308,288,154368,1,0,0:0:0:0:
400,208,154606,1,0,0:0:0:0:
344,104,154844,1,0,0:0:0:0:
224,116,155082,2,0,L|96:108,1,119.999995231629
60,220,155559,2,0,P|216:324|224:320,1,179.999992847443
428,276,156392,2,0,P|364:164|340:160,1,119.999995231629
92,240,157225,2,0,L|100:112,1,119.999995231629
356,104,157940,5,0,0:0:0:0:
264,324,158178,1,0,0:0:0:0:
188,24,158416,1,0,0:0:0:0:
140,292,158654,1,0,0:0:0:0:
336,156,158892,1,0,0:0:0:0:
108,188,159130,1,0,0:0:0:0:
240,132,159368,1,0,0:0:0:0:
288,208,159606,2,0,B|112:272|144:272,1,119.999995231629
76,100,160201,2,0,P|216:60|248:72,1,179.999992847443
180,224,161630,2,0,L|376:184,1,179.999992847443
116,160,162463,6,0,L|288:96,1,179.999992847443
392,92,163297,2,0,L|392:164,1,59.9999976158143
420,236,163892,2,0,P|268:288|272:296,1,239.999990463257
276,308,164844,2,0,L|408:312,1,119.999995231629
136,164,165440,2,0,L|296:68,1,179.999992847443
448,244,166273,1,0,0:0:0:0:
148,240,166868,1,0,0:0:0:0:
300,144,167225,2,0,L|344:200,1,59.9999976158143
220,224,167582,2,0,L|164:176,1,59.9999976158143
112,140,167940,1,0,0:0:0:0:
268,332,168297,5,0,0:0:0:0:
128,156,168773,1,0,0:0:0:0:
244,124,169011,2,0,L|328:120,1,59.9999976158143
432,196,169487,2,0,L|16:312,1,419.9999833107
224,172,170678,2,0,P|412:108|492:328,1,479.999980926514
372,328,171868,2,0,L|72:284,1,299.999988079071
32,108,172701,1,0,0:0:0:0:
92,108,172820,1,0,0:0:0:0:
92,164,172940,1,0,0:0:0:0:
212,180,173178,2,0,L|396:152,1,179.999992847443
356,268,173773,6,0,L|232:300,1,119.999995231629
108,308,174249,2,0,L|52:188,1,119.999995231629
172,132,174725,1,0,0:0:0:0:
288,160,174963,2,0,P|352:144|368:152,1,59.9999976158143
236,88,175320,2,0,L|-8:364,1,359.999985694885
124,192,176392,1,0,0:0:0:0:
368,224,176868,1,0,0:0:0:0:
132,180,177344,1,0,0:0:0:0:
332,68,177820,1,0,0:0:0:0:
184,256,178297,1,0,0:0:0:0:
212,24,178773,5,0,0:0:0:0:
316,260,179249,1,0,0:0:0:0:
92,144,179725,1,0,0:0:0:0:
352,140,180201,1,0,0:0:0:0:
204,36,180559,2,0,B|332:360|380:212|84:48|44:272|48:56|184:328|24:352|316:344|16:208|504:292|368:52|392:344|184:336|464:284|436:72|444:352|352:48|448:352|116:344|404:24|488:364|480:360,2,839.999966621399
132,96,196154,6,0,L|312:136,1,179.999992847443
428,148,196749,1,0,0:0:0:0:
344,220,197463,2,0,P|112:292|108:292,1,239.999990463257
292,308,198297,2,0,L|460:48,1,299.999988079071
280,96,199249,1,8,0:0:0:0:
160,96,199487,1,0,0:0:0:0:
240,264,199844,2,0,P|432:136|240:208,3,659.999973773957
208,168,203892,1,0,0:0:0:0:
148,176,204011,2,0,P|104:52|232:56,1,299.999988079071
260,104,204725,2,0,P|360:212|416:224,1,179.999992847443
348,264,205201,2,0,L|212:276,1,119.999995231629
132,200,205678,5,0,0:0:0:0:
152,80,205916,2,0,P|416:44|520:148,1,419.9999833107
340,204,207106,1,0,0:0:0:0:
116,108,207582,1,0,0:0:0:0:
220,332,208059,1,0,0:0:0:0:
328,92,208535,1,0,0:0:0:0:
116,260,209130,1,0,0:0:0:0:
284,120,209606,1,0,0:0:0:0:
380,312,210082,1,0,0:0:0:0:
228,140,210559,1,0,0:0:0:0:
424,156,211630,6,0,B|40:336|40:40|40:40,1,479.999980926514
220,196,214368,1,0,0:0:0:0:
416,104,214844,1,0,0:0:0:0:
212,208,215320,1,0,0:0:0:0:
296,8,215797,1,0,0:0:0:0:
248,224,216273,1,0,0:0:0:0:
56,136,216749,1,0,0:0:0:0:
284,188,217225,1,0,0:0:0:0:
148,32,217701,1,0,0:0:0:0:
284,256,218178,1,0,0:0:0:0:
472,60,218654,5,0,0:0:0:0:
288,212,219130,1,0,0:0:0:0:
272,4,219606,1,0,0:0:0:0:
184,196,220082,1,0,0:0:0:0:
24,88,220559,1,0,0:0:0:0:
288,176,221035,1,0,0:0:0:0:
116,120,221392,2,0,L|128:280,1,119.999995231629
240,100,221987,2,0,L|476:88,1,179.999992847443
424,288,222940,2,0,L|256:332,1,119.999995231629
64,116,223773,2,0,L|376:96,1,299.999988079071
240,228,224725,2,0,L|20:360,1,239.999990463257
108,124,225678,1,0,0:0:0:0:
428,112,226273,1,0,0:0:0:0:
152,196,226749,1,0,0:0:0:0:
344,284,227225,5,0,0:0:0:0:
216,136,227701,1,0,0:0:0:0:
184,296,228178,1,0,0:0:0:0:
384,112,228654,1,0,0:0:0:0:
176,176,229249,1,0,0:0:0:0:
244,96,229725,2,0,P|352:272|372:272,1,239.999990463257
376,44,230678,1,0,0:0:0:0:
272,108,230916,1,0,0:0:0:0:
432,308,231392,1,0,0:0:0:0:
312,296,231630,2,0,L|148:188,1,179.999992847443
284,64,232344,1,0,0:0:0:0:
368,252,232820,1,0,0:0:0:0:
400,28,233297,1,0,0:0:0:0:
248,244,233773,1,0,0:0:0:0:
288,144,234368,6,0,P|76:80|72:80,1,179.999992847443
104,260,235082,2,0,L|400:352,1,299.999988079071
460,120,236154,2,0,B|204:136|212:132,1,239.999990463257
104,140,237225,1,0,0:0:0:0:
136,368,237701,1,0,0:0:0:0:
216,100,238297,1,0,0:0:0:0:
304,316,238773,1,0,0:0:0:0:
332,84,239249,1,0,0:0:0:0:
168,232,239725,1,0,0:0:0:0:
388,188,240201,1,0,0:0:0:0:
32,120,240916,2,0,L|216:96,1,179.999992847443
296,96,242106,5,0,0:0:0:0:
184,136,242582,2,0,L|120:152,1,59.9999976158143
288,228,243059,2,0,L|416:192,1,119.999995231629
416,76,243535,2,0,L|428:8,2,59.9999976158143
224,36,244844,2,0,B|164:356|144:36|40:328|424:312|16:304|468:192|68:56|496:348|16:352|496:112|480:364|480:368,4,539.999978542328
