osu file format v5

[General]
AudioFilename: SAWA - Twister -That Power is Yet Unknown.mp3
AudioLeadIn: 0
PreviewTime: -1
Countdown: 1
SampleSet: Normal
StackLeniency: 0.7
Mode: 0
LetterboxInBreaks: 1
EditorBookmarks: 61391,81602,122013,137171,190211,200316

[Metadata]
Title:Twister - That Power is Yet Unknown
Artist:SAWA
Creator:awp
Version:Ultimate
Source:
Tags:

[Difficulty]
HPDrainRate:7
CircleSize:5
OverallDifficulty:7
SliderMultiplier:1.8
SliderTickRate:1

[Events]
//Background and Video events
0,0,"tweww.jpg"
//Break Periods
2,3486,9305
2,61555,79734
2,122187,136418
2,190412,199116
//Storyboard Layer 0 (Background)
4,0,1,"defmic.png",314,240 F,1,205369,206001,0,1 F,2,207501,208001,1,0
//Storyboard Layer 1 (Failing)
//Storyboard Layer 2 (Passing)
//Storyboard Layer 3 (Foreground)
//Storyboard Sound Samples
//Background Colour Transformations
3,100,163,162,255

[TimingPoints]
740,315.789473684211,4,1,1,100
149159,315.789473684211,4,2,0,100
170001,315.789473684211,4,1,1,100

[HitObjects]
256,192,740,12,0,3266
80,192,10845,6,0,B|264:192,1,180
344,192,11318,1,0
432,192,11476,1,0
344,192,11634,2,0,L|280:192,2,45
104,72,12424,1,0
192,72,12582,1,0
144,152,12740,1,0
144,152,12818,1,0
144,152,12897,1,0
144,152,13055,1,0
432,192,13371,6,0,B|248:192,1,180
168,192,13845,1,0
80,192,14002,1,0
168,192,14161,2,0,L|232:192,2,45
408,312,14950,1,0
320,312,15108,1,0
368,232,15266,1,0
368,232,15344,1,0
368,232,15423,1,0
368,232,15582,1,0
408,96,15897,5,0
320,96,16055,2,0,B|320:144,2,45
232,96,16371,2,0,B|232:144,2,45
144,96,16687,1,2
56,96,16845,1,2
168,304,17476,1,4
256,304,17634,1,4
344,304,17792,1,4
256,304,17950,1,4
256,216,18108,1,4
232,96,18424,6,2,L|258:135|280:96,3,90
256,48,19055,1,0
256,192,19371,1,0
184,280,20003,1,0
256,280,20161,1,0
328,280,20318,1,0
256,280,20476,1,4
256,280,20555,1,4
256,280,20634,1,4
376,160,20950,5,0
288,160,21108,1,0
200,160,21266,1,0
24,160,21582,1,0
80,48,21897,1,0
136,112,22055,1,0
312,112,22371,2,0,B|376:112,4,45
312,200,22845,1,0
408,304,23161,2,4,L|408:144,2,90
168,192,23950,1,0
256,192,24108,1,0
128,72,24582,5,0
40,72,24740,1,0
40,160,24897,1,0
40,240,25055,1,2
136,240,25213,1,2
136,328,25371,1,2
224,328,25529,2,2,B|288:328,1,45
224,328,25687,1,2
208,256,26003,6,2,L|288:176,1,90
208,256,26318,1,2
275,282,26634,2,2,L|275:178,1,90
275,282,26950,1,2
368,280,27108,1,0
360,96,27424,1,0
176,96,27740,1,0
176,184,27897,1,0
176,184,27976,1,0
176,184,28055,1,0
176,272,28213,1,0
88,272,28371,1,0
88,184,28529,5,0
48,120,28687,1,0
128,120,28845,1,0
360,184,29161,5,0
320,120,29318,1,0
400,120,29476,1,0
360,56,29634,1,0
256,48,29792,5,0
168,48,29950,1,0
168,136,30108,1,0
256,136,30266,1,0
208,216,30424,2,4,L|208:304,2,45
208,136,30740,1,4
112,192,31055,6,0,L|112:256|144:256,1,90
224,256,31371,1,0
344,256,31845,1,0
424,224,32003,1,0
344,184,32161,1,0
272,152,32318,1,0
344,112,32476,1,0
424,72,32634,1,0
344,40,32792,1,0
272,80,32950,1,2
168,80,33266,1,2
216,192,33582,6,0,L|312:192,2,90
72,192,34213,1,0
148,240,34371,1,0
148,152,34529,1,0
72,192,34687,1,0
288,160,35003,1,0
224,160,35161,1,0
176,200,35318,1,0
224,240,35476,1,0
288,240,35634,1,4
336,200,35792,1,4
40,192,36108,6,2,L|40:280,2,45
40,192,36424,1,0
136,304,36740,2,0,L|136:224,2,45
136,304,37055,1,0
224,304,37213,6,0,L|320:304|320:208,1,180
224,216,37687,1,0
88,96,38003,2,0,L|152:160,1,90
176,96,38318,2,0,L|248:168,1,90
264,96,38634,2,0,L|392:224,1,180
391,223,39029,1,2
391,223,39108,1,2
392,312,39266,1,2
176,288,39582,1,2
136,232,39740,1,2
96,288,39898,1,2
296,160,40213,1,4
256,104,40371,1,4
216,160,40529,1,4
216,160,40608,1,2
216,160,40687,1,2
256,192,41161,12,4,45582
256,72,46529,2,0,L|256:24,2,45
256,144,46845,1,4
256,320,47161,2,0,L|168:320,2,45
344,320,47476,1,0
432,320,47634,1,0
432,232,47792,1,0
344,232,47950,1,0
256,232,48108,2,4,L|211:232,2,45
80,80,48740,5,0
112,136,48897,1,0
144,80,49055,1,0
176,136,49213,1,0
208,80,49371,1,0
240,136,49529,2,0,L|240:192,2,45
272,80,49845,2,2,L|376:80,1,90
424,104,50161,5,0
368,136,50318,1,0
424,168,50476,1,0
368,200,50634,1,0
424,232,50792,2,4,L|424:288,2,45
368,264,51108,2,4,L|368:360,1,90
296,96,51582,6,2,L|296:192,1,90
296,96,51897,1,4
208,96,52213,2,2,L|208:192,1,90
208,96,52529,1,4
120,96,52687,1,2
32,96,52845,1,4
32,184,53003,1,4
120,184,53161,1,0
208,256,53476,2,2,L|96:256,1,90
304,256,53950,2,2,L|400:256,1,90
256,192,54424,1,4
256,192,54503,1,4
256,192,54582,1,4
352,192,55055,5,0
304,128,55213,1,0
256,56,55371,1,0
208,128,55529,1,0
160,192,55687,1,0
232,248,55845,2,4,L|280:248,2,45
256,344,56318,5,0
384,344,56634,1,0
384,344,56792,1,0
384,280,56950,1,0
384,280,57108,1,0
384,216,57266,1,0
384,216,57424,1,0
384,152,57582,1,0
384,152,57661,1,0
384,152,57740,1,4
384,88,57897,1,0
384,88,57976,1,0
384,88,58055,1,4
384,24,58213,1,4
312,48,58529,6,0,L|312:208,1,90
312,224,58845,1,4
240,48,59161,2,2,L|240:216,1,90
240,224,59476,1,4
168,48,59792,2,2,L|168:216,1,90
168,224,60108,1,4
168,312,60266,1,4
256,312,60424,5,0
256,224,60582,1,0
344,224,60740,5,4
344,312,60897,1,4
256,312,61055,5,4
256,312,61134,1,0
256,312,61213,1,4
256,312,61292,1,0
256,312,61371,1,4
56,112,80950,6,0,L|240:112|240:288,1,360
144,208,81897,2,0,L|328:208,1,180
256,56,82529,1,0
256,56,82687,1,0
256,192,83003,1,0
256,192,83161,6,0,L|256:136,2,45
256,192,83476,2,0,L|256:256,2,45
168,328,83950,6,0,L|256:328,1,45
168,328,84108,1,0
440,328,84582,2,0,L|352:328,1,45
440,328,84740,1,0
440,208,85213,2,0,L|440:48,1,90
352,80,85529,2,0,L|304:168,1,90
232,216,85845,2,0,L|336:216,1,90
376,224,86161,2,0,L|280:136,1,90
208,272,86634,6,2,L|336:144,1,180
320,272,87266,2,2,L|200:152,1,90
256,208,87582,1,0
206,158,87740,2,4,L|24:160,1,180
120,80,88371,2,4,L|120:248,1,90
120,256,88687,1,0
120,344,88845,1,0
296,344,89161,6,0,L|296:296,2,45
384,344,89476,1,0
472,344,89634,1,0
472,256,89792,2,0,L|472:208,2,45
384,256,90108,1,0
296,256,90266,1,0
296,168,90424,2,0,L|296:120,2,45
384,168,90740,1,0
472,168,90897,1,0
472,80,91055,2,0,L|396:38|312:80,1,180
192,24,91687,6,0,L|192:192,2,90
192,114,92161,1,0
192,114,92318,1,0
144,184,92476,6,0,L|240:184,1,90
192,272,92792,2,0,L|192:176,1,90
240,272,93108,2,0,L|120:272,2,90
328,272,93582,1,0
328,272,93661,1,0
328,272,93740,1,0
328,272,93897,1,0
328,272,93976,1,0
328,272,94055,1,0
256,320,94213,5,0
256,120,94529,1,0
376,224,94845,1,0
144,224,95161,1,0
256,224,95318,2,2,L|352:128|328:104,1,90
384,96,95634,1,0
304,56,95792,1,0
216,56,95950,1,0
128,56,96108,1,0
128,56,96187,1,0
128,56,96266,1,0
40,56,96424,1,0
80,136,96582,1,0
96,216,96740,6,0,L|96:312,2,90
336,192,97529,6,0,L|384:192,2,45
256,192,97845,1,0
256,272,98003,1,0
336,272,98161,1,0
416,272,98318,1,0
416,112,98634,1,0
336,112,98792,1,0
256,112,98950,1,0
176,112,99108,1,0
96,112,99266,6,0,L|96:296,1,180
176,272,99740,1,0
136,336,99897,2,0,L|320:336,1,180
368,336,100371,1,0
312,272,100529,2,0,L|312:96,1,90
376,216,100845,1,0
376,112,101003,2,0,L|376:192,1,45
376,112,101161,1,0
376,112,101240,1,0
376,112,101318,1,0
256,192,101792,12,4,106213
208,192,106529,2,0,L|312:192,1,90
256,72,107161,1,0
256,72,107240,1,0
256,72,107319,1,0
256,144,107477,1,4
256,320,107793,2,0,L|344:320,2,45
168,320,108108,1,0
168,136,108424,2,4,L|88:136,2,45
168,224,108740,2,4,L|280:224,1,90
344,224,109055,1,4
432,80,109371,5,0
400,136,109528,1,0
368,80,109686,1,0
336,136,109844,1,0
304,80,110002,1,0
272,136,110160,2,0,L|272:192,2,45
240,80,110476,2,2,L|136:80,1,90
88,104,110792,5,0
144,136,110949,1,0
88,168,111107,1,0
144,200,111265,1,0
88,232,111423,2,4,L|88:288,2,45
144,264,111739,2,4,L|144:360,1,90
216,96,112213,6,2,L|216:192,1,90
216,96,112528,1,4
304,96,112844,2,2,L|304:192,1,90
304,96,113160,1,4
392,96,113318,1,2
480,96,113476,1,4
480,184,113634,1,4
392,184,113792,1,0
304,256,114107,2,2,L|416:256,1,90
208,256,114581,2,2,L|112:256,1,90
256,192,115055,1,4
256,192,115134,1,4
256,192,115213,1,4
160,192,115686,5,0
208,128,115844,1,0
256,56,116002,1,0
304,128,116160,1,0
352,192,116318,1,0
280,248,116476,2,4,L|232:248,2,45
256,344,116949,5,0
128,344,117265,1,0
128,344,117423,1,0
128,280,117581,1,0
128,280,117739,1,0
128,216,117897,1,0
128,216,118055,1,0
128,152,118213,1,0
128,152,118292,1,0
128,152,118371,1,4
128,88,118528,1,0
128,88,118607,1,0
128,88,118686,1,4
128,24,118844,1,4
200,48,119160,6,0,L|200:208,1,90
200,224,119476,1,4
272,48,119792,2,2,L|272:216,1,90
272,224,120107,1,4
344,48,120423,2,2,L|344:216,1,90
344,224,120739,1,4
344,312,120897,1,4
256,312,121055,5,0
256,224,121213,1,0
168,224,121371,5,4
168,312,121528,1,4
256,312,121686,5,4
256,312,121765,1,0
256,312,121844,1,4
256,312,121923,1,0
256,312,122002,1,4
120,184,137161,6,0,L|192:184,2,45
120,272,137476,1,0
256,192,137792,1,0
256,104,137950,1,0
344,104,138108,1,0
344,192,138266,1,0
344,280,138424,2,0,L|392:280|392:328,1,90
296,240,138740,2,0,L|344:240|344:288,1,90
248,192,139055,2,0,L|296:192|296:240,1,90
200,152,139371,2,0,L|248:152|248:200,1,90
152,200,139687,6,0,L|80:200,2,45
152,288,140002,1,0
152,104,140318,1,0
64,104,140476,1,0
64,200,140634,1,0
152,200,140792,1,0
256,200,140950,2,0,L|208:200|208:248,1,90
304,160,141266,2,0,L|256:160|256:208,1,90
352,112,141581,2,0,L|304:112|304:160,1,90
400,72,141897,2,0,L|352:72|352:120,1,90
256,64,142213,6,0,L|208:64|208:112|168:112|168:160,1,180
432,192,143003,5,0
432,192,143082,1,0
432,192,143161,1,0
344,192,143318,2,0,L|344:96,1,90
344,192,143634,1,0
256,192,143792,2,0,L|256:96,1,90
256,192,144108,1,0
168,192,144266,2,0,L|168:88,1,90
168,192,144582,1,0
72,168,144740,6,4,L|72:232,2,45
72,168,144976,1,4
72,168,145055,1,4
256,192,145371,1,4
208,264,145529,1,4
304,264,145687,1,4
256,192,145845,1,4
256,96,146003,5,0
256,96,146161,1,0
256,192,146634,1,0
256,192,146792,1,0
256,192,146950,1,0
256,192,147108,12,0,149175
256,192,149474,5,0
256,192,149790,6,0,L|280:232|320:208,2,90
240,336,150422,1,0
240,336,150580,1,0
64,192,151053,5,0
96,136,151211,1,0
128,192,151369,1,0
160,136,151527,1,0
192,192,151685,1,0
192,192,151843,1,0
384,192,152159,6,0,L|384:96,1,90
384,192,152474,1,0
296,104,152632,2,0,L|296:200,1,90
296,104,152948,1,0
208,192,153106,2,0,L|208:96,1,90
208,192,153422,1,4
120,112,153580,2,0,L|120:200,1,80
120,112,153896,1,4
208,192,154053,2,0,L|208:96,1,90
208,192,154369,1,4
128,240,154527,2,4,L|224:240,1,80
256,56,155159,5,0
256,192,155474,1,0
256,328,155790,1,0
256,192,156106,1,0
176,88,156422,1,0
136,136,156580,1,0
176,184,156737,1,2
176,184,156816,1,2
176,184,156895,1,2
392,40,157369,5,0
304,40,157527,1,2
392,104,157685,1,0
304,104,157843,1,2
392,168,158001,1,0
304,168,158159,1,2
392,232,158316,1,0
304,232,158474,1,2
392,296,158632,1,0
392,360,158790,1,2
304,296,158948,1,0
304,360,159106,1,2
216,360,159264,1,2
216,296,159422,1,2
216,232,159580,1,6
400,192,160211,5,0
352,152,160369,1,0
304,112,160527,1,2
344,240,160843,1,0
296,200,161001,1,0
248,160,161159,1,2
248,288,161474,1,2
120,288,161790,1,2
112,160,162106,2,4,L|112:-8|272:-8,1,320
336,-8,163053,2,0,L|424:-8|424:224,1,320
240,96,164001,5,0
200,144,164159,1,0
160,192,164316,1,0
256,192,164632,1,4
256,320,164948,5,0
128,320,165264,1,0
80,280,165422,1,0
128,240,165580,1,0
80,200,165737,1,0
128,160,165895,1,0
80,120,166053,2,0,L|80:80|130:80,1,80
192,80,166369,1,0
272,80,166527,2,4,L|384:80|336:80,1,160
368,160,167159,5,0
368,288,167474,1,0
256,224,167790,1,0
144,288,168106,1,0
144,160,168422,1,0
256,104,168737,2,2,L|256:8,2,90
256,192,169211,1,2
256,192,169369,1,2
256,192,169527,1,2
256,192,169685,1,2
256,192,170001,12,4,174422
256,144,174737,2,0,L|256:248,1,90
136,192,175369,1,0
136,192,175448,1,0
136,192,175527,1,0
208,192,175685,1,4
384,192,176001,2,0,L|384:280,2,45
384,104,176316,1,0
200,104,176632,2,4,L|200:24,2,45
288,104,176948,2,4,L|288:216,1,90
288,280,177263,1,4
144,368,177579,5,0
200,336,177736,1,0
144,304,177894,1,0
200,272,178052,1,0
144,240,178210,1,0
200,208,178368,2,0,L|256:208,2,45
144,176,178684,2,2,L|144:72,1,90
168,24,179000,5,0
200,80,179157,1,0
232,24,179315,1,0
264,80,179473,1,0
296,24,179631,2,4,L|352:24,2,45
328,80,179947,2,4,L|424:80,1,90
112,104,180421,6,2,L|208:104,1,90
112,192,180895,1,0
112,192,181052,2,2,L|208:192,1,90
112,192,181368,1,4
112,280,181526,1,2
112,368,181684,1,4
200,368,181842,1,4
200,280,182000,1,0
320,240,182315,2,2,L|320:352,1,90
320,144,182789,2,2,L|320:48,1,90
208,192,183263,1,4
208,192,183342,1,4
208,192,183421,1,4
256,96,183894,5,0
192,144,184052,1,0
120,192,184210,1,0
192,240,184368,1,0
256,288,184526,1,0
312,216,184684,2,4,L|312:168,2,45
408,192,185157,5,0
408,64,185473,1,0
408,64,185631,1,0
344,64,185789,1,0
344,64,185947,1,0
280,64,186105,1,0
280,64,186263,1,0
216,64,186421,1,0
216,64,186500,1,0
216,64,186579,1,4
152,64,186736,1,0
152,64,186815,1,0
152,64,186894,1,4
88,64,187052,1,4
112,136,187368,6,0,L|272:136,1,90
288,136,187684,1,4
112,208,188000,2,2,L|280:208,1,90
288,208,188315,1,4
112,280,188631,2,2,L|280:280,1,90
288,280,188947,1,4
376,280,189105,1,4
376,208,189263,5,0
288,208,189421,1,0
288,120,189579,5,4
200,120,189736,1,4
200,208,189894,5,4
200,208,189973,1,0
200,208,190052,1,4
200,208,190131,1,0
200,208,190210,1,4
256,192,200316,5,2
256,192,200474,1,2
312,120,200632,2,0,L|168:120,3,90
128,120,201264,2,0,L|240:120,3,90
64,368,201895,5,0
120,312,202053,2,0,L|320:312,1,180
64,40,202843,5,2
152,40,203001,1,2
240,40,203158,2,0,L|240:136,3,90
240,216,203790,2,0,L|240:112,3,90
448,192,204422,1,0
392,248,204579,1,0
208,248,204895,1,0
128,128,205369,6,0,B|151:135|151:135|129:64|129:64|176:120|215:132|215:132|163:76|184:8|248:-4|248:-4|312:6|324:73|293:132|293:132|360:72|360:72|347:145|347:145|376:136,1,720
256,288,206948,2,0,L|256:176,1,90
256,64,207461,1,0
256,192,208211,12,0,210106
232,192,210422,6,0,L|257:105|280:192,2,180
280,192,211685,6,0,L|256:280|232:192,2,180
88,104,212790,5,0
88,192,212948,1,0
184,104,213264,1,0
184,192,213422,1,0
184,280,213580,1,4
288,104,213895,1,0
288,192,214053,1,0
288,280,214211,1,4
192,40,214685,6,4,L|296:40,1,90
80,192,215790,6,0,L|208:320,1,180
318,305,216422,2,0,L|448:176,1,180
432,64,217053,1,0
384,112,217211,1,0
336,64,217369,1,0
432,304,218001,5,0
400,248,218158,1,0
368,304,218316,1,0
336,248,218474,1,0
304,304,218632,1,0
272,248,218790,2,0,L|272:192,2,45
240,304,219106,2,2,L|136:304,1,90
88,280,219422,5,0
144,248,219579,1,0
88,216,219737,1,0
144,184,219895,1,0
88,152,220053,2,4,L|88:96,2,45
144,120,220369,2,4,L|144:24,1,90
168,336,220843,6,2,L|168:240,1,90
256,336,221317,1,0
256,336,221474,2,2,L|256:240,1,90
256,336,221790,1,4
344,336,221948,1,2
432,336,222106,1,4
432,248,222264,1,4
344,248,222422,1,0
304,128,222737,2,2,L|416:128,1,90
208,128,223211,2,2,L|112:128,1,90
256,240,223685,1,4
256,240,223764,1,4
256,240,223843,1,4
160,192,224316,5,0
208,256,224474,1,0
256,328,224632,1,0
304,256,224790,1,0
352,192,224948,1,0
280,136,225106,2,4,L|232:136,2,45
256,40,225579,5,0
128,40,225895,1,0
128,40,226053,1,0
128,104,226211,1,0
128,104,226369,1,0
128,168,226527,1,0
128,168,226685,1,0
128,232,226843,1,0
128,232,226922,1,0
128,232,227001,1,4
128,296,227158,1,0
128,296,227237,1,0
128,296,227316,1,4
128,360,227474,1,4
208,336,227790,6,0,L|208:176,1,90
208,160,228106,1,4
304,336,228422,2,2,L|304:168,1,90
304,160,228737,1,4
256,192,228895,12,0,230316
