osu file format v5

[General]
AudioFilename: SAWA - Twister -That Power is Yet Unknown.mp3
AudioLeadIn: 0
PreviewTime: -1
Countdown: 1
SampleSet: Normal
StackLeniency: 0.7
Mode: 0
LetterboxInBreaks: 1
EditorBookmarks: 61391,81602,122013,137171,190211,200316

[Metadata]
Title:Twister - That Power is Yet Unknown
Artist:SAWA
Creator:awp
Version:Normal
Source:
Tags:

[Difficulty]
HPDrainRate:5
CircleSize:4
OverallDifficulty:3
SliderMultiplier:1.2
SliderTickRate:1

[Events]
//Background and Video events
0,0,"tweww.jpg"
//Break Periods
2,3486,9305
2,61571,79510
2,122203,135721
2,190411,198876
//Storyboard Layer 0 (Background)
//Storyboard Layer 1 (Failing)
//Storyboard Layer 2 (Passing)
//Storyboard Layer 3 (Foreground)
//Storyboard Sound Samples
//Background Colour Transformations
3,100,163,162,255

[TimingPoints]
740,315.789473684211,4,1,1,100
149159,315.789473684211,4,2,0,100
170001,315.789473684211,4,1,1,100

[HitObjects]
256,192,740,12,0,3266
144,320,10845,5,0
368,320,11476,1,0
256,320,11792,1,0
256,160,12424,2,4,L|256:240,2,60
368,64,13371,5,0
144,64,14002,1,0
256,64,14318,1,0
256,224,14950,2,4,L|256:164,2,60
408,96,15897,5,0
120,96,16529,1,0
248,96,16845,1,0
256,304,17476,1,4
256,304,17634,1,4
256,304,17792,1,4
208,96,18424,6,2,L|256:133|304:96,3,120
208,280,20003,1,0
256,320,20161,1,0
304,280,20318,1,0
120,80,20950,5,0
264,80,21266,1,0
192,176,21582,1,0
88,312,22055,2,2,L|272:312,1,180
352,312,22845,1,0
352,312,23161,2,4,L|352:152,1,120
160,192,23950,2,4,L|240:192,1,60
128,72,24582,6,2,L|48:72|48:176,1,180
48,312,25371,1,2
192,312,25687,1,2
192,168,26003,5,0
336,168,26318,1,0
264,288,26634,1,0
256,144,26950,2,0,L|320:80,1,60
360,40,27424,2,0,L|216:40,1,120
104,40,28055,1,0
104,96,28213,1,0
192,168,28529,5,4
192,168,28687,1,0
192,168,28845,1,4
312,168,29161,5,4
312,168,29318,1,0
312,168,29476,1,4
256,48,29792,6,0,L|256:120,2,60
256,192,30424,2,4,L|256:264,2,60
112,192,31055,6,0,L|112:256|176:256,1,120
336,192,31845,2,0,L|408:192,5,60
368,104,32950,1,4
96,40,33582,6,2,L|96:168,3,120
96,160,34687,1,2
216,160,35003,1,0
216,160,35161,1,0
216,160,35318,1,0
216,160,35476,1,0
336,160,35792,1,4
240,240,36108,6,2,L|240:312,2,60
136,296,36740,2,2,L|136:232,3,60
144,88,37529,6,0,L|192:136,1,60
336,88,38003,1,0
336,88,38161,1,0
336,88,38318,2,0,L|398:150,2,60
288,136,38950,2,0,L|344:192,2,60
232,176,39582,2,0,L|288:232,6,60
256,192,41161,12,4,45582
192,192,46529,6,2,L|320:192,2,120
200,56,47476,1,4
312,120,47792,1,4
256,120,47950,1,4
200,120,48108,1,4
72,312,48740,5,0
192,312,49055,1,0
192,312,49213,1,0
192,312,49371,2,0,L|192:224,2,60
312,312,50003,1,0
432,312,50318,2,0,L|432:248,4,60
432,192,51582,6,2,B|432:128|368:96,1,120
256,80,52213,1,2
141,97,52529,2,2,B|80:128|80:192,1,120
80,312,53161,1,2
200,312,53476,2,2,B|329:312|328:136,1,240
192,88,55055,6,4,B|256:52|312:88,1,120
256,168,55687,1,4
80,304,56318,6,0,B|160:304,1,60
140,304,56634,2,0,B|216:304,1,60
200,304,56950,2,0,B|264:304,1,60
260,304,57266,2,0,B|328:304,1,60
320,304,57582,2,4,B|320:168,2,120
320,184,58529,5,0
320,64,58845,1,0
200,64,59161,1,0
200,184,59476,1,0
256,64,59792,2,4,B|256:232,2,120
256,192,61371,5,4
96,128,80950,6,0,B|208:72|336:128,1,240
344,240,81897,2,0,B|296:288|232:240,1,120
112,240,82490,1,0
112,240,82687,1,2
168,136,83003,1,2
168,136,83161,1,2
168,136,83318,1,2
168,136,83476,1,2
168,136,83634,1,6
288,136,83950,6,0,B|288:208,1,60
456,136,84582,2,0,B|456:216,1,60
376,288,85055,2,0,B|304:288,1,60
192,288,85529,2,0,B|192:216,1,60
192,228,85845,2,0,B|192:152,1,60
192,168,86161,2,4,B|104:168,1,60
72,80,86634,5,0
192,80,86950,1,0
312,80,87266,1,0
432,80,87582,2,0,B|432:144,1,60
336,184,88055,2,2,B|208:184,1,120
96,184,88687,2,2,B|96:272,1,60
48,312,89161,6,0,B|120:312,2,60
168,312,89792,2,0,B|248:312,2,60
288,312,90424,2,2,B|360:312,2,60
408,312,91055,2,6,B|472:312,2,60
416,192,91687,6,2,B|160:192,1,240
56,200,92634,2,0,B|56:264,1,60
56,260,92950,2,0,B|124:260,1,60
116,260,93266,2,0,B|185:260,1,60
176,260,93582,2,4,B|176:184,1,60
64,56,94213,6,2,B|320:56,1,240
424,56,95161,2,0,B|488:56,1,60
484,56,95476,2,0,B|484:118,1,60
484,116,95792,2,0,B|484:184,1,60
484,176,96108,2,4,B|412:176,2,60
464,296,96740,5,0
344,296,97055,1,0
224,296,97371,2,2,B|96:296,1,120
40,192,98003,1,0
160,192,98318,1,0
280,192,98634,2,2,B|408:192,2,120
256,80,99582,5,0
144,120,99897,1,2
256,80,100213,1,0
368,120,100529,1,2
320,232,100845,1,2
256,232,101003,1,2
192,232,101161,1,6
256,192,101792,12,4,106213
320,192,107161,6,4,L|192:192,2,120
312,56,108108,1,0
200,120,108424,1,4
256,120,108582,1,4
312,120,108740,1,4
440,312,109372,5,0
320,312,109687,1,0
320,312,109845,1,0
320,312,110003,2,4,L|320:224,2,60
200,312,110635,1,0
80,312,110950,2,4,L|80:248,4,60
80,192,112214,6,2,B|80:128|144:96,1,120
256,80,112845,1,2
371,97,113161,2,2,B|432:128|432:192,1,120
432,312,113793,1,2
312,312,114108,2,6,B|183:312|184:136,1,240
320,88,115687,6,2,B|256:52|200:88,1,120
256,168,116319,1,6
432,304,116950,6,0,B|352:304,1,60
372,304,117266,2,0,B|296:304,1,60
312,304,117582,2,0,B|248:304,1,60
252,304,117898,2,0,B|184:304,1,60
192,304,118214,2,4,B|192:168,2,120
192,184,119161,5,4
192,64,119477,1,4
312,64,119793,1,4
312,184,120108,1,4
256,64,120424,2,4,B|256:232,2,120
256,192,121213,12,0,122003
256,72,137161,2,2,B|256:208,1,120
48,312,138108,2,0,B|208:312,2,120
48,72,139371,1,0
48,72,139529,1,0
48,72,139687,6,2,B|200:72,1,120
408,72,140634,2,0,B|408:208,2,120
168,72,141897,1,0
168,72,142055,1,0
168,72,142213,2,2,L|167:136|248:136,1,120
256,304,143161,6,0,L|328:304|328:248,1,120
328,136,143792,2,0,L|328:88|248:88,1,120
144,136,144424,2,2,L|144:256,1,120
240,192,145055,2,2,L|384:192,2,120
256,104,146003,5,0
256,104,146161,1,0
256,280,146634,1,0
256,280,146792,1,0
256,280,146950,1,4
104,192,149790,6,0,L|248:192,1,120
344,192,150422,1,0
256,64,151053,1,0
256,192,151369,1,0
256,320,151685,1,0
128,192,152159,5,0
128,192,152316,1,2
256,192,152632,1,0
256,192,152790,1,0
256,192,152948,1,2
376,192,153264,1,0
376,192,153422,1,0
376,192,153580,1,2
256,192,153895,1,2
256,192,154053,1,2
256,192,154211,1,6
104,72,155159,6,2,L|104:200,1,120
176,288,155790,2,2,L|176:160,1,120
248,72,156422,2,2,L|248:192,1,120
472,192,157369,5,2
352,192,157685,1,2
352,192,157843,1,2
352,192,158001,1,4
112,192,158632,1,2
232,192,158948,1,2
232,192,159106,1,2
232,192,159264,1,4
72,72,160211,6,0,L|128:41|176:72,1,120
176,72,160843,2,0,L|232:41|280:72,1,120
280,72,161474,2,4,L|336:41|384:72,1,120
383,71,162106,2,4,L|382:316,1,240
72,192,163685,6,0,L|144:192,1,60
132,192,164001,2,0,L|200:192,1,60
192,192,164317,2,2,L|272:192,2,60
136,88,164948,5,0
256,88,165264,1,0
376,88,165580,1,0
384,208,165895,1,0
264,208,166211,2,2,L|144:208|144:328|272:328,1,360
368,272,167474,1,0
368,152,167790,1,0
256,104,168106,1,0
152,152,168422,1,4
152,272,168737,1,4
104,80,170001,6,0,L|256:80,1,120
224,80,170474,1,0
224,80,170632,1,0
464,80,171264,2,0,L|464:200,1,120
464,200,171737,1,0
464,200,171895,1,0
256,80,172527,6,0,B|216:80|192:104,1,60
199,97,172843,2,0,B|152:121|152:168,1,60
157,138,173158,2,0,B|157:192|184:232,1,60
166,196,173474,2,0,B|192:240|232:248,1,60
207,238,173790,2,0,B|256:256|296:240,1,60
265,247,174106,2,0,B|312:232|320:208,1,60
315,216,174422,2,4,B|344:176|344:144,1,60
341,162,174737,2,4,B|344:112|312:96,1,60
168,120,175369,6,0,L|168:248,2,120
304,128,176316,1,0
240,240,176632,1,0
240,184,176790,1,0
240,128,176948,1,4
48,40,177580,5,0
48,136,177895,1,0
48,136,178053,1,0
48,136,178211,2,4,L|136:136,2,60
48,248,178843,1,0
48,352,179158,2,4,L|112:352,4,60
232,344,180422,6,0,B|272:346|296:296,1,60
336,224,180895,1,0
336,224,181053,1,0
328,112,181369,2,0,B|297:51|233:51,1,120
120,56,182001,1,0
120,160,182316,2,2,B|120:248|328:248,1,240
320,112,183895,6,2,B|256:76|200:112,1,120
256,192,184527,1,6
80,16,185158,6,0,B|80:96,1,60
80,76,185474,2,0,B|80:152,1,60
80,136,185790,2,0,B|80:200,1,60
80,196,186106,2,0,B|80:264,1,60
80,256,186422,2,2,B|216:256,2,120
200,256,187369,5,0
320,256,187685,1,0
320,136,188001,1,0
200,136,188316,1,0
320,192,188632,2,4,B|152:192,2,120
256,192,189421,12,4,190211
104,112,200316,2,4,B|104:184,1,60
104,172,200632,1,4
104,304,200948,1,4
232,304,201264,1,0
360,304,201579,1,0
360,168,201895,2,2,B|360:104,1,60
256,192,202369,1,2
336,40,202843,6,4,B|264:40,1,60
276,40,203159,1,4
144,40,203475,1,4
144,168,203791,1,0
144,296,204106,1,0
280,296,204422,2,2,B|344:296,1,60
256,192,204896,1,2
80,96,205369,6,4,B|80:176,1,60
80,232,205685,2,4,B|208:232,3,120
328,232,206948,2,0,B|328:168,1,60
440,232,207422,2,0,B|440:160,1,60
392,72,207895,6,4,B|280:72,1,60
264,72,208211,2,4,L|144:72,1,120
256,192,209158,1,4
256,304,209474,1,4
256,304,209632,1,4
256,104,210106,1,4
144,40,210422,6,2,L|144:192,1,120
144,160,210895,1,2
144,160,211053,1,2
144,352,211685,2,4,L|264:352,1,120
264,352,212158,1,4
264,352,212316,1,4
168,192,212948,6,0,B|168:152|192:128,1,60
185,135,213264,2,0,B|209:88|256:88,1,60
226,93,213579,2,0,B|280:93|320:120,1,60
284,102,213895,2,0,B|328:128|336:168,1,60
326,143,214211,2,0,B|344:192|328:232,1,60
335,201,214527,2,0,B|320:248|296:256,1,60
304,251,214843,2,4,B|264:280|232:280,1,60
250,277,215158,2,4,B|200:280|184:248,1,60
184,104,215790,6,2,L|312:104,2,120
192,240,216737,1,0
304,176,217053,1,2
248,176,217211,1,2
192,176,217369,1,6
104,16,218001,5,0
200,16,218316,1,0
200,16,218474,1,0
200,16,218632,2,4,L|200:104,2,60
312,16,219264,1,0
416,16,219579,2,4,L|416:80,4,60
408,168,220843,6,0,B|410:208|360:232,1,60
288,272,221316,1,0
176,264,221790,2,0,B|115:233|115:169,1,120
120,56,222422,1,0
224,56,222737,2,2,B|312:56|312:264,1,240
176,256,224316,6,2,B|140:192|176:136,1,120
256,192,224948,1,2
80,16,225579,6,0,B|160:16,1,60
140,16,225895,2,0,B|216:16,1,60
200,16,226211,2,0,B|264:16,1,60
260,16,226527,2,0,B|328:16,1,60
320,16,226843,2,4,B|320:152,2,120
320,136,227790,5,4
320,256,228106,1,4
200,256,228422,1,4
200,136,228737,1,4
256,192,228895,12,0,230316
