osu file format v5

[General]
AudioFilename: SAWA - Twister -That Power is Yet Unknown.mp3
AudioLeadIn: 0
PreviewTime: -1
Countdown: 1
SampleSet: Normal
StackLeniency: 0.7
Mode: 0
LetterboxInBreaks: 1
EditorBookmarks: 61391,81602,122013,137171,190211,200316

[Metadata]
Title:Twister - That Power is Yet Unknown
Artist:SAWA
Creator:awp
Version:Hard
Source:
Tags:

[Difficulty]
HPDrainRate:6
CircleSize:5
OverallDifficulty:5
SliderMultiplier:1.6
SliderTickRate:1

[Events]
//Background and Video events
0,0,"tweww.jpg"
//Break Periods
2,3486,9305
2,61555,79734
2,122187,136418
2,190412,199116
//Storyboard Layer 0 (Background)
//Storyboard Layer 1 (Failing)
//Storyboard Layer 2 (Passing)
//Storyboard Layer 3 (Foreground)
//Storyboard Sound Samples
//Background Colour Transformations
3,100,163,162,255

[TimingPoints]
740,315.789473684211,4,1,1,100
149159,315.789473684211,4,2,0,100
170001,315.789473684211,4,1,1,100

[HitObjects]
256,192,720,12,0,3246
144,320,10845,5,0
256,320,11161,1,0
368,320,11476,1,0
312,320,11634,1,0
256,320,11792,1,0
256,160,12424,2,4,L|256:240,2,80
368,64,13371,5,0
256,64,13687,1,0
144,64,14002,1,0
200,64,14161,1,0
256,64,14318,1,0
256,240,14950,2,4,L|256:136,2,80
408,96,15897,5,0
192,96,16371,1,2
264,96,16529,1,2
120,96,16845,1,2
184,304,17476,1,4
256,304,17634,1,4
328,304,17792,1,4
256,208,18108,1,4
192,96,18424,6,2,L|252:140|324:91,3,160
184,280,20003,1,0
256,280,20161,1,0
328,280,20318,1,0
256,280,20476,1,4
184,280,20634,1,4
376,160,20950,5,0
288,160,21108,1,0
200,160,21266,1,0
24,160,21582,1,0
120,304,21897,2,0,L|176:232,1,80
280,104,22371,1,0
224,176,22529,1,0
288,232,22687,1,0
232,304,22845,1,0
408,304,23161,2,4,L|408:144,1,160
168,192,23950,1,0
256,192,24108,1,0
128,72,24582,6,2,L|48:72|48:176,1,160
48,240,25055,1,2
136,240,25213,1,2
136,328,25371,1,2
312,328,25687,1,2
184,200,26003,6,2,L|352:200,1,160
264,288,26634,2,2,L|264:120,1,160
352,136,27108,1,0
176,136,27424,1,0
72,304,27740,1,0
248,304,28055,1,0
160,304,28213,1,0
168,128,28529,5,0
128,192,28687,1,0
208,192,28845,1,0
344,128,29161,5,0
384,192,29318,1,0
304,192,29476,1,0
256,48,29792,6,2,L|256:144,2,80
256,192,30424,2,4,L|256:280,2,80
112,192,31055,6,0,L|112:256|208:256,1,160
344,256,31845,1,0
344,256,32003,1,0
344,184,32161,1,0
344,184,32318,1,0
344,112,32476,1,0
344,112,32634,1,0
344,40,32792,1,0
344,40,32950,1,2
200,72,33266,1,2
96,40,33582,6,0,L|96:184,2,80
96,180,34213,1,0
48,256,34371,1,0
136,256,34529,1,0
96,180,34687,1,0
240,160,35003,1,0
304,160,35161,1,0
352,200,35318,1,0
304,240,35476,1,0
240,240,35634,1,4
192,200,35792,1,4
40,192,36108,6,2,L|40:280,2,80
136,304,36740,2,0,L|136:224,3,80
256,104,37529,5,0
256,192,37687,1,0
312,64,38003,2,0,L|376:120,1,80
372,116,38318,2,2,L|400:148|368:176,2,80
416,288,38950,1,2
376,232,39108,1,2
336,288,39266,1,2
176,288,39582,1,2
136,232,39740,1,2
96,288,39898,1,2
296,160,40213,1,4
256,104,40371,1,4
216,160,40529,1,4
256,192,41161,12,4,45582
256,72,46529,1,0
256,72,46687,1,0
256,144,46845,1,4
256,320,47161,2,0,L|168:320,2,80
256,216,47792,2,4,L|336:216,2,80
80,80,48740,5,0
112,136,48897,1,0
144,80,49055,1,0
176,136,49213,1,0
208,80,49371,1,0
240,136,49528,1,4
272,80,49686,1,4
304,136,49845,2,2,L|304:216,1,80
272,272,50161,5,0
240,216,50318,1,0
208,272,50476,1,0
176,216,50634,1,0
144,272,50792,1,4
112,216,50950,1,4
336,96,51582,6,2,L|336:176,1,80
336,96,51897,1,4
208,96,52213,2,2,L|208:192,1,80
208,96,52529,1,4
48,96,52845,1,4
128,184,53161,1,0
208,256,53476,2,2,L|40:256,1,160
208,256,54108,1,0
352,192,55055,5,0
304,144,55213,1,0
256,192,55371,1,0
208,144,55529,1,0
160,192,55687,1,0
216,248,55845,2,4,L|320:248,1,80
256,344,56318,5,0
384,344,56634,1,0
384,344,56792,1,0
384,280,56950,1,0
384,280,57108,1,0
384,216,57266,1,0
384,216,57424,1,0
384,152,57582,2,2,L|384:40|384:96,2,160
312,48,58529,6,0,L|312:208,1,160
240,48,59161,2,2,L|240:216,1,160
168,48,59792,2,2,L|168:216,1,160
256,296,60424,5,0
256,296,60582,1,0
256,296,60740,5,4
256,296,60897,1,4
256,296,61055,5,4
256,296,61213,1,4
256,296,61371,5,4
80,112,80950,6,0,L|240:112|240:272,1,320
144,208,81897,1,0
304,208,82213,1,0
256,56,82529,1,0
256,56,82687,1,0
176,192,83003,1,0
256,192,83161,1,0
336,192,83318,1,2
256,192,83476,1,2
176,192,83634,1,2
168,328,83950,6,0,L|256:328,1,80
440,328,84582,2,0,L|352:328,1,80
440,208,85213,2,0,L|440:48,1,160
360,48,85687,1,0
280,48,85845,1,0
200,48,86003,1,0
200,128,86161,1,2
280,128,86318,1,2
208,272,86634,6,2,L|336:144,1,160
320,272,87266,2,2,L|200:152,1,160
206,158,87740,2,4,L|33:158,1,160
120,80,88371,2,4,L|120:248,1,160
120,240,88845,1,4
256,344,89161,5,0
336,344,89318,1,0
416,344,89476,2,0,L|416:264,1,80
336,264,89792,1,0
256,264,89950,2,0,L|256:176,1,80
336,184,90266,1,0
416,184,90424,2,0,L|416:96,1,80
336,104,90740,1,0
256,104,90897,2,4,L|256:24,1,80
336,24,91213,1,4
416,24,91371,1,4
192,24,91687,6,0,L|192:192,2,160
112,24,92476,2,0,L|48:88,1,80
55,80,92792,2,0,L|118:144,1,80
111,137,93108,2,0,L|48:200,1,80
54,193,93424,2,2,L|117:256,2,80
256,320,94213,5,0
256,120,94529,1,0
376,224,94845,1,0
144,224,95161,1,0
256,224,95318,2,2,L|352:128|328:104,1,160
256,56,95792,5,0
176,56,95950,1,0
96,56,96108,2,2,L|16:56,2,80
96,192,96740,6,0,L|96:272,2,80
336,192,97529,6,0,L|384:192,2,40
256,192,97845,1,0
256,272,98003,1,0
336,272,98161,1,0
416,272,98318,1,0
416,112,98634,1,0
336,112,98792,1,0
256,112,98950,1,0
176,112,99108,1,0
96,112,99266,6,0,L|96:296,1,160
176,272,99740,1,0
136,336,99897,2,0,L|320:336,1,160
368,336,100371,1,0
312,272,100529,2,0,L|312:96,1,160
376,112,101003,2,0,L|376:192,1,80
256,192,101792,12,4,106213
256,72,107161,1,0
256,72,107319,1,0
256,144,107477,1,4
256,320,107793,2,0,L|344:320,2,80
256,216,108424,2,4,L|176:216,2,80
432,80,109372,5,0
400,136,109529,1,0
368,80,109687,1,0
336,136,109845,1,0
304,80,110003,1,0
272,136,110160,1,4
240,80,110318,1,4
208,136,110477,2,2,L|208:216,1,80
240,272,110793,5,0
272,216,110950,1,0
304,272,111108,1,0
336,216,111266,1,0
368,272,111424,1,4
400,216,111582,1,4
176,96,112214,6,2,L|176:176,1,80
176,96,112529,1,4
304,96,112845,2,2,L|304:192,1,80
304,96,113161,1,4
464,96,113477,1,4
384,184,113793,1,0
304,256,114108,2,2,L|472:256,1,160
304,256,114740,1,0
176,256,115055,1,4
160,192,115687,5,0
208,144,115845,1,0
256,192,116003,1,0
304,144,116161,1,0
352,192,116319,1,0
296,248,116477,2,4,L|192:248,1,80
256,344,116950,5,0
128,288,117898,1,0
128,216,118056,1,0
128,152,118214,2,2,L|128:40|128:96,2,160
200,48,119161,6,0,L|200:208,1,160
272,48,119793,2,2,L|272:216,1,160
344,48,120424,2,2,L|344:216,1,160
256,296,121056,5,0
256,296,121214,1,0
256,296,121372,5,4
256,296,121529,1,4
256,296,121687,5,4
256,296,121845,1,4
256,296,122003,5,4
88,184,137161,6,0,L|184:184,1,80
248,184,137476,1,0
408,184,137792,1,0
417,297,138108,6,0,L|337:297,1,80
337,297,138424,2,0,L|337:209,1,80
337,217,138740,2,0,L|241:217,1,80
257,217,139055,2,0,L|257:129,1,80
257,137,139371,2,0,L|153:137,1,80
177,137,139687,2,4,L|177:49|97:49,1,160
40,56,140634,6,0,L|40:136,1,80
40,136,140950,2,0,L|128:136,1,80
120,136,141266,2,0,L|120:232,1,80
120,216,141581,2,0,L|208:216,1,80
200,216,141897,2,0,L|200:320,1,80
200,296,142213,2,4,L|288:296|288:376,1,160
256,56,143161,5,0
256,56,143318,1,0
256,120,143476,2,0,L|256:200,3,80
256,256,144108,2,0,L|256:336,3,80
176,304,144740,6,4,L|344:304,1,160
336,144,145371,1,0
176,144,145687,1,0
256,48,146003,5,0
256,48,146161,1,0
256,192,146634,1,0
256,192,146792,1,0
256,192,146950,1,0
256,192,147108,12,0,149175
256,192,149474,5,0
256,192,149790,6,0,L|256:272|320:208,1,160
232,312,150422,1,0
64,192,151053,5,0
96,136,151211,1,0
128,192,151369,1,0
160,136,151527,1,0
192,192,151685,1,0
384,192,152159,6,0,L|384:104,1,80
296,112,152632,2,0,L|296:200,1,80
296,112,152948,1,4
208,112,153264,2,0,L|208:200,1,80
208,112,153580,1,4
120,112,153895,2,0,L|120:200,1,80
120,112,154211,1,4
128,240,154527,2,0,L|224:240,1,80
256,56,155159,5,0
256,192,155474,1,0
256,328,155790,1,0
256,192,156106,1,0
176,88,156422,1,0
136,136,156580,1,0
176,184,156737,1,0
392,40,157369,6,2,L|312:40,1,80
392,104,157685,2,2,L|312:104,1,80
392,160,158001,2,2,L|312:160,1,80
256,160,158316,1,4
256,224,158474,2,2,L|256:304,1,80
320,224,158789,2,2,L|320:304,1,80
384,224,159105,2,2,L|384:304,1,80
440,224,159421,2,2,L|440:304,1,80
256,48,160211,5,0
216,96,160369,1,0
176,144,160527,1,2
304,104,160843,1,0
264,152,161001,1,0
224,200,161159,1,2
352,200,161474,1,2
352,328,161790,1,2
224,336,162106,2,4,L|56:336|56:176,1,320
56,112,163053,2,0,L|56:24|288:24,1,320
400,32,164001,5,0
360,80,164159,1,0
320,128,164316,1,0
256,192,164632,1,4
256,320,164948,5,0
128,320,165264,1,0
80,280,165422,1,0
128,240,165580,1,0
80,200,165737,1,0
128,160,165895,1,0
80,120,166053,2,0,L|80:80|130:80,1,80
248,80,166527,2,4,L|360:80|312:80,1,160
368,160,167159,5,0
368,288,167474,1,0
256,224,167790,1,0
144,288,168106,1,0
144,160,168422,1,0
256,104,168737,2,0,L|256:24,2,80
256,192,170001,12,4,174422
136,192,175370,1,0
136,192,175528,1,0
208,192,175686,1,4
384,192,176002,2,0,L|384:280,2,80
280,192,176633,2,4,L|280:112,2,80
144,344,177581,5,0
200,312,177738,1,0
144,280,177896,1,0
200,248,178054,1,0
144,216,178212,1,0
200,184,178369,1,4
144,152,178527,1,4
200,120,178686,2,2,L|280:120,1,80
336,152,179002,5,0
280,184,179159,1,0
336,216,179317,1,0
280,248,179475,1,0
336,280,179633,1,4
280,312,179791,1,4
160,72,180423,6,2,L|240:72,1,80
160,200,180895,1,4
160,200,181054,2,2,L|256:200,1,80
160,200,181370,1,4
160,360,181686,1,4
248,280,182002,1,0
320,200,182317,2,2,L|320:368,1,160
320,200,182949,1,0
320,72,183264,1,0
256,96,183896,5,0
208,144,184054,1,0
256,192,184212,1,0
208,240,184370,1,0
256,288,184528,1,0
312,232,184686,2,4,L|312:128,1,80
408,192,185159,5,0
352,64,186107,1,0
280,64,186265,1,0
216,64,186423,2,2,L|104:64|160:64,2,160
112,136,187370,6,4,L|272:136,1,160
112,208,188001,2,4,L|280:208,1,160
112,280,188633,2,4,L|280:280,1,160
360,192,189265,5,0
360,192,189423,1,0
360,192,189581,5,4
360,192,189738,1,4
360,192,189896,5,4
360,192,190054,1,4
360,192,190212,5,4
256,192,200316,5,2
256,192,200474,1,2
64,368,201895,5,0
120,312,202053,1,0
64,256,202211,1,0
120,200,202369,1,0
64,144,202527,1,0
64,40,202843,5,2
128,88,203001,1,2
448,192,204422,1,0
392,248,204579,1,0
272,248,204895,1,0
208,192,205053,1,0
328,88,205369,5,2
328,88,205527,1,2
328,152,205685,2,0,L|408:152,3,80
408,216,206316,2,0,L|328:216,3,80
264,192,206948,2,0,L|176:192,1,80
72,192,207422,1,0
256,328,207895,6,2,L|256:248,1,80
256,192,208211,12,0,210106
232,192,210422,6,0,L|255:115|280:192,2,160
280,192,211685,6,0,L|257:269|232:192,2,160
88,104,212790,5,0
88,168,212948,1,0
184,104,213264,1,0
184,168,213422,1,0
184,232,213580,1,4
248,104,213895,1,0
248,168,214053,1,0
248,232,214211,1,4
184,40,214685,5,4
248,40,214843,1,4
80,192,215790,6,0,L|200:312,1,160
318,305,216422,2,0,L|432:192,1,160
432,64,217053,1,0
384,112,217211,1,0
336,64,217369,1,0
72,64,218001,5,0
128,96,218158,1,0
72,128,218316,1,0
128,160,218474,1,0
72,192,218632,1,0
128,224,218789,1,4
72,256,218947,1,4
128,288,219106,2,2,L|208:288,1,80
264,256,219422,5,0
208,224,219579,1,0
264,192,219737,1,0
208,160,219895,1,0
264,128,220053,1,4
208,96,220211,1,4
88,320,220843,6,2,L|168:320,1,80
88,192,221316,1,0
88,192,221474,2,2,L|184:192,1,80
88,192,221790,1,4
88,32,222106,1,4
176,112,222422,1,0
248,192,222737,2,2,L|248:24,1,160
248,192,223369,1,0
248,320,223684,1,0
184,336,224316,5,0
136,288,224474,1,0
184,240,224632,1,0
136,192,224790,1,0
184,144,224948,1,0
240,200,225106,2,4,L|240:304,1,80
320,200,225579,5,0
424,224,225895,1,0
424,296,226053,1,0
352,296,226211,1,0
352,368,226369,1,0
280,368,226527,1,0
208,368,226685,1,0
144,368,226843,2,2,L|32:368|88:368,2,160
176,232,227790,6,0,L|336:232,1,160
256,152,228422,2,0,L|256:320,1,160
256,192,228895,12,0,230316
